&title=oboro
&artist=ヒゲドライバー
&wholebpm=175
&demo_seek=60.5
&demo_len=24.9
&lv_1=3
&lv_2=6
&lv_3=8
&lv_4=12
&lv_5=13+
&des_4=mai-Star
&des_5=はっぴー
&inote_1=(175.0){1},,,,,,,,,
{1}1,
{1}2,
{1}3,
{1}4,
{1}5,
{1}6,
{1}7,
{1}8,
{1}1-4[4:7],,,,
{1}5-8[4:7],,,,
{2}1,1,{1},
{2}8,8,{1},
{2}1,1,{1},
{2}8,8,{1},
{1}1h[1:1],,
{1}8h[1:1],,
{1}1h[1:1],,
{1}8h[1:1],,
{1}1-5[4:7],,,,
{1}5,
{1}5,
{1}6,
{1}6,
{1}7,
{1}7,
{1}1/8,,
{1}4,
{1}4,
{1}3,
{1}3,
{1}2,
{1}2,
{1}1/8,,
{1}8b,,
{2}1,1,
{1}1,
{2}2,2,
{1}2,
{2}3,3,
{1}3,
{2}4,4,
{1}4,
{2}5,5,
{1}5,
{2}6,6,
{1}6,
{2}7,7,
{1}7,
{2}8,8,
{1}8,
{1}1-5[4:7],,,
E
&inote_2=(175.0){1},,,,,
{2}4,4,
{2}3,3,
{2}2,2,
{2}1,1b,
{2}8,8,
{4}8,8,8,,
{2}1,1,
{4}1,1,1,,
{2}8,8,
{4}7,7,7,,
{2}1,1,
{4}2,2,2,,
{2}3,3,
{2}4,4,
{2}5,5,
{4}4,4,4,,
{2}5,5,
{2}6,6,
{2}7,7,
{1}1b/8b,
{2}2/1,2/1,
{4}2,2,2,,
{2}8/7,8/7,
{4}7,7,7,,
{2}2/1,2/1,
{4}2,2,2,,
{2}8/7,8/7,
{4}7,7,7,,
{1}7-3[4:3],,
{1}2-6[4:3],,
{1}8-5[4:3],,
{1}1-4[4:3],,
{2}5,5,
{2}6,6,
{2}7,7,
{1}1b/8b,
{4}1,1,1,,
{4}8,8,8,,
{4}7,7,7,,
{4}6,6,6,,
{4}8,8,8,,
{4}1,1,1,,
{4}2,2,2,,
{4}3,3,3,,
{4}2/1,1/2,1/2,,
{4}8/1,1/8,1/8,,
{4}7/8,8/7,8/7,,
{4}6,6,6,,
{4}8/7,7/8,7/8,,
{4}8/1,8/1,1/8,,
{4}2/1,2/1,2/1,,
{4}3,3,3,,
{1}5h[1:1]/4h[1:1],,
{1}1,
{1}2,
{1}3,
{1}4,
{2}5,5,
{2}6,6,
{2}7,7,
{4}8,8,8b,,
{4}2/1,2/1,2/1,,
{4}4/3,3/4,4/3,,
{4}6/5,6/5,6/5,,
{4}7,7,7,,
{4}8/7,8/7,8/7,,
{4}6/5,6/5,5/6,,
{4}4/3,4/3,3/4,,
{4}2,2,2,,
{1}1h[1:1]/8h[1:1],,
{2}1,8,
{1}7/2,
E
&inote_3=(175.0){1},,,,,
{4}6,5,4/6,,
{4}3,4,3/5,,
{4}2,1,2/8,,
{4}7,8,1/7,,
{2}5/4,4/3,
{4}1/2,8,7/1,,
{2}8/2,1/7,
{4}7/2,2/7,3/6,3/6,
{2}4/5,5/6,
{4}7/8,1,2/8,,
{2}1/7,8/2,
{4}7/2,6/4,3/5,4-1[2:1]/5-8[2:1],{1},
{4}2,1,3/8,,
{4}7,8,1/6,,
{4}5,4,3,2/7,
{4}3,4,2/5,,
{4}6,5,4/7,,
{4}8,1,2/7,1-4[2:1]/8-5[2:1],{1},
{4}4/5,6,5/6,3,
{4}4/3,6/5,7/4,,
{4}1/8,7,7/1,2,
{4}2/8,8/1,2/7,6/3,
{4}5/4,3,3/4,6,
{4}6/5,4/3,5/2,,
{4}8/1,2,2/1,7,
{4}8/7,5/6,4/3,5p4[1:1],{1},
{4},8/1,7/2,6/3,
{8}5h[8:3],,,4h[8:3],,,
{4}3p6[2:1],{1},
{8}4h[8:3],,,5h[8:3],,,6,,
{8}7h[8:3],,,1h[8:3],,,8,,
{8}2h[8:3],,,8h[8:3],,,1,,
{4}8/2,3/7,4/6,5<4[4:5],{1},
{4},,4/5,3>6[4:3],{1},
{4}8b,7/1,8/2,6/3,
{4}8/1,2,2/1,7,
{4}8/7,8-4[4:1],,,
{4}3,4/3,6,5/6,
{4}4,5,3/6,,
{4}1/8,6,7/4,3,
{4}2/5,1-5[4:1],,,
{4}6,6/5,3,3/4,
{4}2,1,8,2/7,
{4}6/3,7,8/7,2,
{4}1/2,8-4[4:1],,,
{4}3,4/2,6,5/7,
{4}4,5,2/7,,
{4}4/5,2,1/3,7,
{4}6/8,1-5[4:1],,,
{4}6,5/7,3,2/4,
{4}5,3,7,1>8[1:1],{1},
{4},1,2,3,
{2}5/4,2/1,
{4}7/8,1,8/2,,
{4}7,6,5,4,
{4}3,2,1/8,,
{2}4/5,8/7,
{4}2/1,8,1/7,,
{4}2,3,4,5,
{4}6,7,8/1,7b/2b,
{4}3/6,5/2,3/6,7/4,
{4}6/1,3/8,2/7,,
{4}3,4/2,6,5/7,
{4}6/4,3/5,2/8,,
{4}7/2,1/6,2/7,3/8,
{4}7/2,1/8,2/7,6/3,
{4}4/5,2,5/4,7,
{4}4/5,3/6,2/7,1^4[2:1]/8^5[2:1],{1},
{4}3,4,6/5,,
{4}6,5,4/3,5/6,
{1}7/1,
E
&inote_4=(175.0){1},
{16}3,,,4,,,3,,,,,,,,,,
{16}6,,,5,,,6,,,,,,,,,,
{16}3,,,4,,,2,,,,,,,,,,
{16}6,,,5,,,7,,,,1,,8,,,,
{4}1h[4:3],8,7,6,
{4}5h[4:3],1,2,3,
{4}4h[4:1],3,5h[4:1],6,
{4}4h[4:1],2,5h[4:1],7,
{2}1h[4:1]/3h[4:1],1h[4:1]/3h[4:1],
{4}1/8,2-4[8:1]/7-5[8:1],,,
{2}8h[4:1]/6h[4:1],8h[4:1]/6h[4:1],
{4}7/2,3-1[8:1]/6-8[8:1],,,
{2}2h[4:1]/4h[4:1],7h[4:1]/5h[4:1],
{4}3/6,4-2[8:1]/5-7[8:1],,,
{2}8h[4:1]/7h[4:1],1h[4:1]/2h[4:1],
{16}1,,,8,,,7/2,,,,3/6,,5/4,,,,
{16}1/2,,,1/2,,,1/2,,,,2,,1,,2,,
{16}8/7,,,7/8,,,8/7,,,,7,,8,,7,,
{16}3/4,,,3/4,,,3/4,,,,3,,4,,3,,
{16}6/5,,,6/5,,,6/5,,,,3/6,,1/8,,,,
{16}1h[8:3],,,2,,,3,,,,3,,4,,3,,
{16}8h[8:3],,,7,,,6,,,,6,,5,,6,,
{16}2h[16:3],,,7,,,1/8,,,,3/7,,7/3,,,,
{16}5/1,,,1/5,,,6/2,,,7/3,,,8b/4b,,,,
{8}3,3,,,6,6,,,
{16}4,,,5,,,4,,3/6,,,,,,,,
{8}2,2,,,7,7,,,
{16}1,,,8,,,1,,8-4[8:1],,1,,,,,,
{8}2,1,,2,1,2,,1,
{16}1,,,1/2,,,3/8,,1/2,,,,,,7,,
{8}8,7,,7,8,7,,7,
{16}7,,,8/7,,,7/8,,6,,1,,7,,8,,
{1}2^7[2:1],
{1}6q3[2:1],
{1}3^6[2:1],
{1}7p2[2:1],
{8}3h[8:3],,,4h[8:3],,,5,,
{8}6h[8:3],,,5h[8:3],,,4,,
{8}2h[8:3],,,1h[8:3],,,8,,
{4}7h[4:1],8h[4:1],1h[4:1],2<3[4:7],{1},,
{1}7p4[2:1],
{4}1b/8b,8/1,8/1,1-3[8:1]/8-6[8:1],
{4},1-5[8:1]/8-4[8:1],,1^6[8:1]/8^3[8:1],
{16},,,,5,,4,,5,,,1,8,,2/7,,
{16},,3,,4,,5,,6h[16:3],,,5h[16:3],,,4,,
{4}8/1,7/2,3/6,1-3[8:1]/8-6[8:1],
{4},1-5[8:1]/8-4[8:1],,1^6[8:1]/8^3[8:1],
{16},,,,1/2,,3/8,,2/1,,,8,1,,7/2,,
{16},,2,,1,,8,,7h[16:3],,,8h[16:3],,,1,,
{4}3h[4:1],5h[4:1],7,1-3[8:1]/8-6[8:1],
{4},1-5[8:1]/8-4[8:1],,1^6[8:1]/8^3[8:1],
{16},,,,4,,5,,4,,,8,1,,2/7,,
{16},,6,,5,,4,,3h[16:3],,,4h[16:3],,,5,,
{8}1/8,,1/8,7/2,6/3,,1-3[8:1]/8-6[8:1],,
{4},1-5[8:1]/8-4[8:1],,1^6[8:1]/8^3[8:1],
{16},,,,8/7,,1/6,,8/7,,,1,8,,2/7,,
{16},,7,,8,,1,,2h[16:3],,,1h[16:3],,,8,,
{4}7h[4:1],5h[4:1],3h[4:1],1,
{16}4/5h[8:3],,,4,,,4h[8:3],,,,7,,7^4[8:1],,7,,
{4},1b,1b,1-5[8:1],
{4},7-4[8:1],,2-5[8:1],
{16},,,,8,,7,,6,,,4,5,,6/3,,
{16},,7/2,,,,8/1,,8/1,,,7/2,,,3/6,,
{4}5/4,2-5[8:1]/7-4[8:1],,8-4[8:1],
{4},2-5[8:1],,7-4[8:1],
{16},,,,1,,2,,3,,,5,4,,6/3,,
{16},,3/6,,,,5/4,,4/5,,,3/6,,,2/7,,
{4}1-5[8:1],7-3[8:1],,1-7[8:1]/2-4[8:1],
{4},1-5[8:1]/2-6[8:1],,1^4[8:1]/2^7[8:1],
{16},,,,8/1,,2/7,,3/6,,,4,5,,2/7,,
{16},,3,,4,,5,,6h[16:3],,,7h[16:3],,,8,,
{8}1h[2:1],,8,7,6,,7-5[8:1]/8-2[8:1],,
{4},7-3[8:1]/8-4[8:1],,7^2[8:1]/8^5[8:1],
{16},,,,3/6,,2/7,,1/8,,,1,8,,2/7,,
{16},,6,,5,,4,,3h[16:3],,,2h[16:3],,,1,,
{4}8-4[8:1],1-3[8:1],7-5[8:1],2-6[8:1],
{16}8,,,8,,,8,,,,7/1,,6/2,,3/5,,
{16}4,,,4,,,4,,,,5/3,,2/6,,1/7,,
{16}8,,,8,,,8,,,,2/7,,4,,5,,
{1}1b/8b,
E
&inote_5=(175.0){1},
{16}2h[16:3],,,3h[16:3],,,4^1[4:1],,,,,,,,,,
{16}7h[16:3],,,6h[16:3],,,5^8[4:1],,,,,,,,,,
{16}2h[16:3],,,3h[16:3],,,4^1[4:1],,,,,,,,,,
{16}7h[16:3],,,6h[16:3],,,5p4[4:1],,,,,,,,,,
{16}2h[16:3],,,3h[16:3],,,4>8[4:1],,,,,,,,,,
{16}7h[16:3],,,6h[16:3],,,5<1[4:1],,,,,,,,,,
{16}2h[16:3],,,3h[16:3],,,4>8[4:1],,,,,,,,,,
{16}7h[16:3],,,6h[16:3],,,5p3[4:1],,,,,,,,,,
{8}2/4,,,6,5/7,,,3,
{16}2/4,,2,1,,,7,,6/8,,,,,,6,,
{8}5/7,,,3,4/2,,,6,
{8}5/7,
{16}7,8,,,5,,5,,
{983}3,,,,,,,,,,,,,,,,,,,,,,,,,,,,,,,,,,,,,,,,,
{625}4,,,,,,,,,,,,,,,,,,,,,,,,,,
{983}3,,,,,,,,,,,,,,,,,,,,,,,,,,,,,,,,,,,,,,,,,
{8}5,2,
{8}3/8,,,8,7/1,,,4,
{16}3/5,,3,4,,,6,,5/7,,,,3/4,,,,
{8}8,7,6,5,4,3,2,1,
{16}2/7,,6,5,,3,4,,4-1[8:1]/5-8[8:1],,,,5b/4b,,,,
{16}8h[16:3],,,7h[16:3],,,6,,,,4,,3,,2,,
{16}1h[16:3],,,2h[16:3],,,3,,,,5,,6,,7,,
{16}8h[16:3],,,7h[16:3],,,6,,,,4,,3,,2,,
{16}1h[16:3],,,2h[16:3],,,3,,,,6,5,6,7,6,,
{16}1h[16:3],,,2h[16:3],,,3,,,,5,,6,,7,,
{16}8h[16:3],,,7h[16:3],,,6,,,,4,,3,,2,,
{16}1h[16:3],,,2h[16:3],,,3,,,,5,,6,,7,,
{16}8/1,,,7/5,,,2/1,,,3/5,,,7b/8b,,,,
{8}3,4,2/5,,6,5,4/7,,
{16}2,,2,1h[16:3],,,3,,8,,7,,6/1,,,,
{8}6,5,7/4,,3,4,2/5,,
{8}7,
{16}7,8h[16:3],,,6,,1,,
{983}1,,,,,,,,,,,,,,,,,,,,,,,,,,,,,,,,,,,,,,,,,
{625}2,,,,,,,,,,,,,,,,,,,,,,,,,,
{983}3,,,,,,,,,,,,,,,,,,,,,,,,,,,,,,,,,,,,,,,,,
{8}4,6,
{8}7,8,6/1,,2,1,3/8,,
{16}6,,6,5h[16:3],,,7,,4,,3,,5/2,,,,
{8}2,1,3/8,,7,8,1/6,,
{8}3,
{16}3,4h[16:3],,,2,,8,,
{983}8,,,,,,,,,,,,,,,,,,,,,,,,,,,,,,,,,,,,,,,,,
{625}7,,,,,,,,,,,,,,,,,,,,,,,,,,
{983}6,,,,,,,,,,,,,,,,,,,,,,,,,,,,,,,,,,,,,,,,,
{8}5,3,
{8}1^4[8:1],,,6^1[8:1],,,2^5[8:1],,
{8}8^5[8:1],,,3^8[8:1],,,7^4[8:1],,
{8}1^4[8:1],,,6^1[8:1],,,2^5[8:1],,
{8}8^5[8:1],,,3^8[8:1],,,7^4[8:1],,
{8}1^4[8:1],,,5q1[8:1],,,2^5[8:1],,
{8}8^5[8:1],,,4p8[8:1],,,7^4[8:1],,
{8}1^4[8:1],,,5q1[8:1],,,2^5[4:1],,
{4}5^8[4:1],8^3[4:1],3^6[4:1],6,
{1}8<1[2:1],
{8}1,2,3,4,5,6,7,8,
{16}1,2,3,4,5,6,7,8,
{641}1,,,,,,,,,,,,,,,,,,,,
{639}2,,,,,,,,,,,,,,,,,,,,3,,,,,,,,,,,,,,,,,,,,
{641}4,,,,,,,,,,,,,,,,,,,,5,,,,,,,,,,,,,,,,,,,,
{639}6,,,,,,,,,,,,,,,,,,,,7,,,,,,,,,,,,,,,,,,,,
{641}8,,,,,,,,,,,,,,,,,,,,1,,,,,,,,,,,,,,,,,,,,
{639}2,,,,,,,,,,,,,,,,,,,,3,,,,,,,,,,,,,,,,,,,,
{641}4,,,,,,,,,,,,,,,,,,,,5,,,,,,,,,,,,,,,,,,,,
{639}6,,,,,,,,,,,,,,,,,,,,7,,,,,,,,,,,,,,,,,,,,
{641}8,,,,,,,,,,,,,,,,,,,,
{4}1b/5-1[8:1],4-8[8:1],5,2b/7b,
{16}7-4[8:1],,8,1,7,,,,2-5[8:1],,1,8,2,,,,
{16}7-4[8:1],,8,1,7,,,,2,,
{983}7,,,,,,,,,,,,,,,,,,,,,,,,,,,,,,,,,,,,,,,,,
{625}6,,,,,,,,,,,,,,,,,,,,,,,,,,
{983}5,,,,,,,,,,,,,,,,,,,,,,,,,,,,,,,,,,,,,,,,,
{8}4,3/2,
{16},,7/1,,,,4/3,,5/2,,3,4,3,,6,,
{4}7/8p7[4:1],8/7<2[4:1],,8b,
{16}2-5[8:1],,1,8,2,,,,7-4[8:1],,8,1,7,,,,
{16}2-5[8:1],,1,8,2,,,,7,,
{983}2,,,,,,,,,,,,,,,,,,,,,,,,,,,,,,,,,,,,,,,,,
{625}3,,,,,,,,,,,,,,,,,,,,,,,,,,
{983}4,,,,,,,,,,,,,,,,,,,,,,,,,,,,,,,,,,,,,,,,,
{8}5,7/6,
{16},,2/8,,,,5/6,,4/7,,6,5,6,,3,,
{4}2/1q2[4:1],1/2>7[4:1],,1b,
{16}7-4[8:1],,8,1,7,,3,,2-5[8:1],,1,8,2,,6,,
{16}7-4[8:1],,8,1,7,,3,,2,,
{983}2,,,,,,,,,,,,,,,,,,,,,,,,,,,,,,,,,,,,,,,,,
{625}3,,,,,,,,,,,,,,,,,,,,,,,,,,
{983}4,,,,,,,,,,,,,,,,,,,,,,,,,,,,,,,,,,,,,,,,,
{8}5,7/6,
{16},,1/7,,,,3/4,,2/5,,3,4,3,,6,,
{4}7/8p7[4:1],8/7<2[4:1],,8b,
{16}2-5[8:1],,1,8,2,,6,,7-4[8:1],,8,1,7,,3,,
{16}2-5[8:1],,1,8,2,,6,,7,,
{983}7,,,,,,,,,,,,,,,,,,,,,,,,,,,,,,,,,,,,,,,,,
{625}6,,,,,,,,,,,,,,,,,,,,,,,,,,
{983}5,,,,,,,,,,,,,,,,,,,,,,,,,,,,,,,,,,,,,,,,,
{8}4,3/2,
{16},,2/8,,,,5/6,,7/4,,6,5,6,,3,,
{4}2/1q2[4:1],1/2>7[4:1],,8<1[4:3],{1},
{1}4/5,
{8}1^4[4:1],5,5,,1^6[4:1],5,5,,
{8}1^4[4:1],5,5,,6,
{983}3,,,,,,,,,,,,,,,,,,,,,,,,,,,,,,,,,,,,,,,,,
{625}4,,,,,,,,,,,,,,,,,,,,,,,,,,
{983}3,,,,,,,,,,,,,,,,,,,,,,,,,,,,,,,,,,,,,,,,,
{8}5,1,
{16},,2h[4:1],,,,4,,4,,,5/4,,,5/7,,
{4}6h[4:1],5h[4:1],4,6/3,
{8}8^5[4:1],4,4,,8^3[4:1],4,4,,
{8}8^5[4:1],4,4,,3,
{983}6,,,,,,,,,,,,,,,,,,,,,,,,,,,,,,,,,,,,,,,,,
{625}5,,,,,,,,,,,,,,,,,,,,,,,,,,
{983}6,,,,,,,,,,,,,,,,,,,,,,,,,,,,,,,,,,,,,,,,,
{8}4,7,
{16},,7h[4:1],,,,5,,5,,,5/4,,,6/3,,
{4}4-8[8:1],5-1[8:1],4,2b/7b,
{16}3-8[8:1],,4,5,3,,7,,6-1[8:1],,5,4,6,,2,,
{16}3-8[8:1],,4,5,3,,7,,6,,
{983}6,,,,,,,,,,,,,,,,,,,,,,,,,,,,,,,,,,,,,,,,,
{625}5,,,,,,,,,,,,,,,,,,,,,,,,,,
{983}4,,,,,,,,,,,,,,,,,,,,,,,,,,,,,,,,,,,,,,,,,
{8}3,8/2,
{16},,4/3,,,,5/6,,4/7,,6,5,6,,2,,
{4}3/4p3[4:1],4/3>6[4:1],,4b,
{16}6-1[8:1],,5,4,6,,2,,3-8[8:1],,4,5,3,,7,,
{16}6-1[8:1],,5,4,6,,2,,3,,
{983}3,,,,,,,,,,,,,,,,,,,,,,,,,,,,,,,,,,,,,,,,,
{625}4,,,,,,,,,,,,,,,,,,,,,,,,,,
{983}5,,,,,,,,,,,,,,,,,,,,,,,,,,,,,,,,,,,,,,,,,
{8}6,7/1,
{16},,6/5,,,,3/4,,2/5,,3,4,3,,7,,
{4}6/5q6[4:1],5/6<3[4:1],,5>6[4:3],{1},
{16}1,,,2,,,3h[1:1],,,,,,,,,,
{16}8,,,7,,,6,,,,4,5,4,,1/8,,
{1}2b/7b,
E
