&title=Scars of FAUNA
&artist=猫叉Master「jubeat」より
&wholebpm=165
&demo_seek=80.9
&demo_len=18.7
&lv_1=2
&lv_2=4
&lv_3=7+
&lv_4=11
&lv_5=13+
&des_4=mai-Star
&des_5=チャン@DP皆伝
&inote_1=(165.0){1},,,,,,,
{1}1,
{2},1,{1},
{1}8,
{2},8,{1},
{1}1-4[4:3],,,
{1}8-5[4:3],,,
{1}4b,
{2},5,{1},
{1}6,
{2},7,{1},
{1}8h[4:3],
{2},8h[4:3],{1},
{1}1h[4:3],
{2},1h[2:3],{1},
{4},,,2b,{1},
{4},2,,,
{4},,,3,{1},
{4},3,,,
{4},,,4,{1},
{4},5,,,
{4},,,4,{1},
{4},5,,,
{4},,,4-1[4:3],{1},,
{4},,,8-5[4:3],{1},,
{4},,,6-3[4:3],{1},,
{4},,,2-7[4:3],{1},,
{4},,,8b,
{2},8,
{4},1,,,
{4}1,,,2,
{2},2,
{4},3,,,
{4}3,,,4,
{2},4,
{4},5,,,
{4}5,,,6,
{2},6,
{4},7,,,
{4}7,,,8-4[4:3],{1},,
{4},,,1-5[4:3],{1},,
{4},,,5/4,{1},
{4},5/4,,,
{4},,,3,{1},
{4},2,,,
{4},,,
{1}1-6[4:3],,
E
&inote_2=(165.0){1},,,,,,,
{4}7,,,7,
{2},8,
{4},8,,,
{4}1,,,1,
{2},2,
{4},2,,,
{1}1-4[4:5],,,
{1}8-5[4:5],,,
{1}2-7[4:5],,,
{1}6-3[4:5],,,
{4}2,,,8,
{2},6,
{4},4,,,
{4}1/2,,,4/3,
{2},6/5,
{4},8/7,,,
{4}1b/8b,,,1,
{4}1,,2,2,
{4},3,3,,
{4}4,4,,8,
{4}8,,7,7,
{4},6,6,,
{4}5,5,,4h[4:3],{1},
{4},5h[4:3],,,
{4},,,3h[4:3],{1},
{4},6h[4:3],,,
{4},,,8,
{4},8,8,,
{4}1,1,,2,
{4}2,,3,3,
{4},4,4,,
{4}5,5,,,
{4},,,1,
{4},1,1,,
{4}8,8,,7,
{4}7,,6,6,
{4},5,5,,
{4}5/4,5/4,,6/3,
{4}3b/6b,,,4,
{4}4,4,,,
{4},5,5,5,
{4},,,3,
{4}3,3,,,
{4},6,6,6,
{4},,,2,
{4}2,1,,,
{4},8,8,7,
{4},,,6,
{4}6,5,,,
{4},4,4,3,
{4},,,1,
{4}1,2,2,,
{4},8,8,7,
{4}7,,,6,
{4}6,5,5,,
{4},3,3,4,
{4}4,,,1,
{4}1,,3,3,
{4},8,8,,
{4}6,6,,5/4,
{4}5/4,,3/6,3/6,
{4},2/7,7/2,,
{4}1/8,1/8,,2/7,
{2}7/2,1b/8b,
E
&inote_3=(165.0){1},
{4}3h[2:1],,,5h[2:1],
{2},4h[2:1],
{4},6h[2:1],,,
{4}3h[2:1]/4h[2:1],,,5h[2:1]/6h[2:1],
{2},7h[2:1]/8h[2:1],
{4},1h[2:1]/2h[2:1],,,
{4}4,4,4/5,5,
{4}5,4/5,3,3,
{4}4/3,6,6,6/5,
{4}1,1,1/8,8,
{4}8,1/8,7,7,
{4}8/7,2,2,2/1,
{1}8<3[1:1],
{2},2<5[1:1],{1},
{1}1>6[1:1],
{2},7>4[1:1],{1},
{4}1,2,3,8,
{4}7,6,2,3,
{4}4,7,6,5,
{4}3/6,6/3,6/3,2/7,
{4}7/2,2/7,8/1,1/8,
{4}8/1,7/2,3/6,5b/4b,
{4}5,6,7,4,
{4}3,2,6,7,
{4}8,3,2,1,
{4}8,7,6,1,
{4}2,3,7,6,
{4}5,2,3,4,
{4},,,2,
{4}2,2p6[2:1],,,
{4},7,7,7q3[2:1],
{4},,,3,
{4}3,3p6[2:1],,,
{4},6,6,6q3[2:1],
{4},,,2,
{4}2,2/1,3,3,
{4}4/3,6,6,6/5,
{4}7,7,7/8,2,
{4}1/2,1/2,3,4/3,
{4}4/3,6,6/5,6/5,
{4}7,7/8,8/7,,
{4}1/8,8/1,2/7,6/3,
{4}5/4,,5/4,4/5,
{4}3/6,7/2,8/1,,
{4}2/7,7/2,1/8,8/1,
{4}3/6,3h[4:5]/6h[4:5],,,{1},
{4}1/2,2/1,4/3,6/5,
{4}6/5,,8/7,8/7,
{4}5/6,4/3,4/3,,
{4}8/1,7/2,3/6,5/4,
{4}6/3,7h[2:1]/2h[2:1],,,
{4}2b/7b,,,2/7,
{8}1,8,1,,7/2,,1,8,
{8}1,,1,8,2,7,3,6,
{8}4h[2:1],,,,,,5,4,
{4}5,5/4,4h[4:1],3h[4:1],
{4}2h[4:1],8z4[1:1],,,
{4},,,2/7,
{8}8,1,8,,2/7,,8,1,
{8}8,,8,1,7,2,6,3,
{8}5h[2:1],,,,,,4,5,
{4}4,5/4,5h[4:1],6h[4:1],
{4}7h[4:1],8h[4:1],,,
{4}7,3,1b,2,
{4}2,1/3,2,2,
{4}3/1,8,8,7/1,
{4}8,8,7/1,1,
{4}1,8/2,1,1,
{4}8/2,7,7,8/6,
{4}7,7,6/8,3,
{8}3,4,3,,6,,6,5,
{8}6,,2,,2,1,2,,
{8}7,,7,8,7,,5/6,,
{8}6/5,5/6,5/6,,4/3,,4/3,4/3,
{8}4/3,,5/7,,7/5,7/5,7/5,,
{8}2/4,,4/2,2/4,4/2,,2/7,,
{8}7/2,7/2,2/7,,8/1,,8/1,8/1,
{1}1b/8b,
E
&inote_4=(165.0){1},1h[2:3],
{2},5h[4:3],
{4},3h[2:3],,,
{1}1h[2:3],
{2},8h[4:5],
{4},6h[2:1],,,
{16}4,,,5,,,4,,4,,,,5,,,4,
{16},,5,,5,,,,3,,,4,,,3,,
{16}3,,,,6,,,5,,,6,,6,,,,
{16}1,,,8,,,7/2,,2/7,,,,8,,,1,
{16},,2/7,,2/7,,,,3,,,6,,,4/5,,
{16}5/4,,,,1/8,,,1/8,,,2/7,,1b/8b,,,,
{8}8h[4:1],,2,1,2,,7h[4:1],,
{8}2,3,2,,6h[4:1],,3,4,
{8}3,,5h[4:1],,4,5,4,,
{8}4h[4:1],,7,8,7,,3h[4:1],,
{8}7,6,7,,2h[4:1],,6,5,
{4}6,5b/1b,3b/7b,1b/5b,
{4}8/4,2h[4:1],3,4/8,
{4}6h[4:1],5,1/5,3h[4:1],
{4}4,1/5,3/7,,
{16}3,,,6,,,1/8,,7/2,,,,6,,,3,
{16},,1/8,,7/2,,,,1/8,,,1/8,,,1/8,,
{4}2/7,8/1,2/7,3/6,
{1}4v1[2:1]/5v8[2:1],
{4},,3/4,3/5,
{4}3/6,6/5,6/4,6/3,
{4}3/2,3/1,3/8,4/8,
{4}5/8,6/8,6/8,1/5,
{16}4/2,,,,3,,,4,,,2,,2z6[2:1],,,,
{4},,,1h[4:1],
{4}2h[4:1],3h[4:3],8,7,
{4}6,5h[4:1],6h[4:1],7h[4:3],
{4}4,3,2,1h[4:1],
{4}3h[4:1],5h[4:1],7,6/8,
{4}5/1,8h[4:1],6h[4:1],4h[4:1],
{4}2,1/3,4/8,7h[2:1],
{4}6,5,2h[2:1],3,
{4}4,7h[4:1],5,4/6,
{4}2h[4:1],4,3/5,3/2,
{4}1/2,8/1,6/7,7/8,
{4}8/1,3/4,3/4-7[8:1],3,
{4}3,7/3-8[8:1],7b,7h[4:3],
{4}1,1,1h[4:3],3,
{4}3,3h[4:3],5,5,
{4}5h[4:3],8,8,8h[4:3],
{4}6,6,6h[4:3],4,
{4}4,4h[2:1],2,2,
{8}8-4[8:1],1-5[8:1],,,,,4/2h[4:1],,
{8}8h[4:1],,6h[4:1],,8,,2-6[8:1],7-3[8:1],
{4},,1h[4:1],3h[4:1],
{8}1,,1/7-3[4:1],1,1,,,,
{8}1/2h[2:1],,8,,7,,1,8,
{8}2,7,6h[8:3]/2h[8:3],,,,,,
{8}2b/6b,,3b/7b,,4b/8b,,1,1,
{8}8,1,1,8,3,3,4,3,
{8}3,4,1,8,2,7,3,6,
{8}4h[8:3],,,6,,3,5,5,
{8}4,5,5,4,5h[4:1],,3,3h[4:1],
{8},7,7h[2:1],,,,1-5[4:1],1,
{8}1,,,,6,,6,6,
{8}5,6,6,5,8,8,1,8,
{8}8,1,5,4,6,3,7,2,
{8}8h[8:3],,,2,,7,1,1,
{8}3,1,1,7,1h[4:1],,5,5h[4:1],
{8},3,3h[2:1],,,,8-5[8:1],,
{4}8-3[8:1],8-4[8:1],,2q4[4:1],
{2},4q6[4:1],
{4},6q8[4:1],,,
{16}8q2[4:1],,,,,,,,,,,,8/1,,,1/8,
{16},,7/2,,8/1,,,,2/7,,,7/2,,,1/8,,
{16}7/2,,,,1/2,,,1/2,,,8/3,,2/1,,,,
{16}7/8,,,7/8,,,6/1,,8/7,,,,7p5[4:1],,,,
{2},5p3[4:1],
{4},3p1[4:1],,,
{4}1p7[4:1],,,1-5[16:3],
{4}7-3[16:3],7,2-6[16:3],8-4[16:3],
{4}8,1^4[16:3],8^5[16:3],8,
{16}1s5[4:1],,,,8,,,,8,,,,4/3,,,6/5,
{16},,7/2,,1b/8b,,,,5/6,,,4/3,,,7/2,,
{1}8b/1b,
E
&inote_5=(165.0){1},
{16}6/2,,,2,,,2,,2,,,,7/2,,,2,
{16},,
{983}2,,,,,,,,,,,,,,,,,,,,,,,,,,,,,,,,,,,,,,,,,
{625}1,,,,,,,,,,,,,,,,,,,,,,,,,,
{983}2,,,,,,,,,,,,,,,,,,,,,,,,,,,,,,,,,,,,,,,,,
{16}1,,,,1/8,,,1,,,1,,
{16}1,,,,1,,,1,,,
{983}1,,,,,,,,,,,,,,,,,,,,,,,,,,,,,,,,,,,,,,,,,
{625}8,,,,,,,,,,,,,,,,,,,,,,,,,,
{983}1,,,,,,,,,,,,,,,,,,,,,,,,,,,,,,,,,,,,,,,,,
{16}8,,,,
{16}7/1,,,7,,,7,,7,,,,7,,,7,
{16},,
{983}7,,,,,,,,,,,,,,,,,,,,,,,,,,,,,,,,,,,,,,,,,
{625}8,,,,,,,,,,,,,,,,,,,,,,,,,,
{983}7,,,,,,,,,,,,,,,,,,,,,,,,,,,,,,,,,,,,,,,,,
{16}8,,,,8,,,8,,,8,,
{16}8,,,,8,,,8,,,
{983}8,,,,,,,,,,,,,,,,,,,,,,,,,,,,,,,,,,,,,,,,,
{625}1,,,,,,,,,,,,,,,,,,,,,,,,,,
{983}8,,,,,,,,,,,,,,,,,,,,,,,,,,,,,,,,,,,,,,,,,
{16}1,,,,
{16}2,,,2,,,2,,2,,,,2,,,2,
{16},,
{983}2,,,,,,,,,,,,,,,,,,,,,,,,,,,,,,,,,,,,,,,,,
{625}1,,,,,,,,,,,,,,,,,,,,,,,,,,
{983}2,,,,,,,,,,,,,,,,,,,,,,,,,,,,,,,,,,,,,,,,,
{16}3,,,,7,,,7,,,7,,
{16}7,,,,7,,,7,,,
{983}7,,,,,,,,,,,,,,,,,,,,,,,,,,,,,,,,,,,,,,,,,
{625}8,,,,,,,,,,,,,,,,,,,,,,,,,,
{983}7,,,,,,,,,,,,,,,,,,,,,,,,,,,,,,,,,,,,,,,,,
{16}6,,,,
{16}1,,,1,,,1,,1,,,,1,,,1,
{16},,
{983}1,,,,,,,,,,,,,,,,,,,,,,,,,,,,,,,,,,,,,,,,,
{625}8,,,,,,,,,,,,,,,,,,,,,,,,,,
{983}1,,,,,,,,,,,,,,,,,,,,,,,,,,,,,,,,,,,,,,,,,
{16}2,,,,8,,,8,,,8,,
{16}8,,,,8,,,8,,,
{983}8,,,,,,,,,,,,,,,,,,,,,,,,,,,,,,,,,,,,,,,,,
{625}1,,,,,,,,,,,,,,,,,,,,,,,,,,
{983}8,,,,,,,,,,,,,,,,,,,,,,,,,,,,,,,,,,,,,,,,,
{4}7,
{1}8p5[1:1],
{8},,2,3,4/1-5[8:3],,,,
{4},3/2-6[8:3],,,
{8}8/1-4[8:3],,,,7,6,5/8-4[8:3],,
{8},3,,,2h[2:1]/7h[2:1],,,,
{4},2/1,8/7,1/8,
{8}7/1-5[8:1],,1,7,5,,7/5-2[8:1],,
{8}5,7,2,,7/2-6[8:1],,2,7,
{8}6,,7/6-3[8:1],,6,7,3/7,,
{16}7/1,,,2-6[8:1]/8-4[8:1],,,8/2,,,,,,8/3,,,1-5[8:1]/7-3[8:1],
{16},,1/7,,,,,,2/7,,,1-5[8:1]/8-4[8:1],,,8/1,,
{4},1^4[8:1]/5^8[8:1],1p5[8:1]/5p1[8:1],5b/1b,
{16}1/8,,2/7,,8/1-5[16:1],2/7,3/6,,,,,,8/7,,1/6,,
{16}7/8-4[16:1],6/1,2/5,,,,,,2/1,,3/8,,2/1-5[16:1],8/3,4/7,,
{16},,,,1/8,,7/2,,1/8-3[16:1],2/7,6/3-6[16:1],,,,,,
{16}7/8,,1/6,,8/7-3[16:1],1/6,2/5,,,,,,1/2,,8/3,,
{16}1/2-6[16:1],8/3,4/7,,,,,,1/7-4[16:1],,7,,7/1-4[16:1],,1,,
{16}1/7,,7,,7/2,,,8/6,,,7/2,,7/6,,,,
{4},,,1^4[8:1]/5^8[8:1],
{4}5/1-5[8:1],
{16}1,,3,4,3,,6,,
{983}1,,,,,,,,,,,,,,,,,,,,,,,,,,,,,,,,,,,,,,,,,
{625}2,,,,,,,,,,,,,,,,,,,,,,,,,,
{983}3,,,,,,,,,,,,,,,,,,,,,,,,,,,,,,,,,,,,,,,,,
{8}4,
{16}7,,8,,4^1[8:1]/8^5[8:1],,,,4/8-4[8:1],,,,8,,7,6,
{16}5,,2,,4,,1,,
{983}8,,,,,,,,,,,,,,,,,,,,,,,,,,,,,,,,,,,,,,,,,
{625}7,,,,,,,,,,,,,,,,,,,,,,,,,,
{983}6,,,,,,,,,,,,,,,,,,,,,,,,,,,,,,,,,,,,,,,,,
{8}5,3^8[8:1]/7^4[8:1],,
{8}3/7-3[8:1],,7,
{16}6,5,6,,7,,
{983}8,,,,,,,,,,,,,,,,,,,,,,,,,,,,,,,,,,,,,,,,,
{625}1,,,,,,,,,,,,,,,,,,,,,,,,,,
{983}2,,,,,,,,,,,,,,,,,,,,,,,,,,,,,,,,,,,,,,,,,
{8}3,
{16}7,,8,,2^5[8:1]/6^1[8:1],,,,6/2-6[8:1],,,,2,,3,4,
{16}5,,7,,
{983}1,,,,,,,,,,,,,,,,,,,,,,,,,,,,,,,,,,,,,,,,,
{625}8,,,,,,,,,,,,,,,,,,,,,,,,,,
{983}7,,,,,,,,,,,,,,,,,,,,,,,,,,,,,,,,,,,,,,,,,
{8}6,,3,5,6,
{8}3/6,5,6,6/3,
{983}8,,,,,,,,,,,,,,,,,,,,,,,,,,,,,,,,,,,,,,,,,
{625}1,,,,,,,,,,,,,,,,,,,,,,,,,,
{983}2,,,,,,,,,,,,,,,,,,,,,,,,,,,,,,,,,,,,,,,,,
{8}3,
{983}1,,,,,,,,,,,,,,,,,,,,,,,,,,,,,,,,,,,,,,,,,
{625}2,,,,,,,,,,,,,,,,,,,,,,,,,,
{983}3,,,,,,,,,,,,,,,,,,,,,,,,,,,,,,,,,,,,,,,,,
{8}4,
{8}5/4,4/5,3,7,1/8,3,7,1/8,
{8}5,3,2/8,5,1/8,,4,3,
{8}3/6,4,3,6/3,
{983}1,,,,,,,,,,,,,,,,,,,,,,,,,,,,,,,,,,,,,,,,,
{625}8,,,,,,,,,,,,,,,,,,,,,,,,,,
{983}7,,,,,,,,,,,,,,,,,,,,,,,,,,,,,,,,,,,,,,,,,
{8}6,
{983}8,,,,,,,,,,,,,,,,,,,,,,,,,,,,,,,,,,,,,,,,,
{625}7,,,,,,,,,,,,,,,,,,,,,,,,,,
{983}6,,,,,,,,,,,,,,,,,,,,,,,,,,,,,,,,,,,,,,,,,
{8}5,
{8}4/5,4/5,6,2,8/1,6,2,8/1,
{8}4,6,1/7,4,1/8,,,,
{8}4/8,,7/3,,6/2,,5/1^6[8:1],2/6q3[8:1],
{4},,4/5,7/2,
{8}8/1,,1-4[8:1]/8-5[8:1],3/6,8/1,,,,
{8}1/5,,6/2,,7/3,,4/8^3[8:1],7/3p6[8:1],
{16},,,,4h[2:1],,,,,,,,,,7,8,
{16}7,,
{983}1,,,,,,,,,,,,,,,,,,,,,,,,,,,,,,,,,,,,,,,,,
{625}2,,,,,,,,,,,,,,,,,,,,,,,,,,
{983}3,,,,,,,,,,,,,,,,,,,,,,,,,,,,,,,,,,,,,,,,,
{8}4,7/2,,,,,
{8}1/5,,2/6,,7/3,,8/4^7[8:1],3/7p1[8:1],
{4},,5/4,7/2,
{8}8/1,,1-5[2000:251]/8-4[8:1],3/6,1/8,,,,
{8}4/8,,7/3,,6/2,,1/5^2[8:1],6/2q8[8:1],
{8},,4h[2:1],,,,,
{983}8,,,,,,,,,,,,,,,,,,,,,,,,,,,,,,,,,,,,,,,,,
{625}7,,,,,,,,,,,,,,,,,,,,,,,,,,
{983}6,,,,,,,,,,,,,,,,,,,,,,,,,,,,,,,,,,,,,,,,,
{637}5b,,,,,,,,,,,,,,,,,,,,,,,,,,,,,,,,,,,,,,,,,,,,,,,,,,,,,,,,,,,,,,,,,,,,,,,,,,,,,,,,,,,,,,,,,,,,,,,,,,,,,,,,,,,,,,,,,,,,,,,,,,,,,,,,,,,,,,,,,,,,,,,,,,
{625}2b,,,,,,,,,,,,,
{637}1,,,,,,,,,,,,,,,,,,,,,,,,,,,,,,,,,,,,,,,,,,,,,,,,,,,,,,,,,,,,,,,,,,,,,,,,,,,,,,,,,,,,,,,,,,,,,,,,,,,,,,,,,,,,,,,,,,,,,,,,,,,,,,,,,,,,,,,,,,,,,,,,,,
{625}8b,,,,,,,,,,,,,
{8}7,,2-6[8:1],6-2[8:1],
{8}2<4[16:3],5,5,,7-3[8:1],3-7[8:1],7>5[16:3],4,
{8}4,,1/8,
{983}1/8,,,,,,,,,,,,,,,,,,,,,,,,,,,,,,,,,,,,,,,,,
{625}2/7,,,,,,,,,,,,,,,,,,,,,,,,,,
{983}3/6,,,,,,,,,,,,,,,,,,,,,,,,,,,,,,,,,,,,,,,,,
{8}5/4,2/7,4/5,6/3,
{8}1h[4:1]/5h[4:1],,,7h[4:1]/3h[4:1],,,5/1,6/2,
{8}7/3q8[8:1],4/8^3[8:1],,,6h[4:1],,3,7h[4:1],
{8},2,
{641}8,,,,,,,,,,,,,,,,,,,,
{639}1,,,,,,,,,,,,,,,,,,,,
{16}8h[16:5],,,,,,,2,,7,,
{641}1,,,,,,,,,,,,,,,,,,,,
{639}8,,,,,,,,,,,,,,,,,,,,
{16}1h[16:7],,,,,,,8,,,,7-3[8:1],,3-7[8:1],,
{8}7>5[16:3],4,4,,2-6[8:1],6-2[8:1],2<4[16:3],5,
{8}5,,8/1,
{983}8/1,,,,,,,,,,,,,,,,,,,,,,,,,,,,,,,,,,,,,,,,,
{625}2/7,,,,,,,,,,,,,,,,,,,,,,,,,,
{983}3/6,,,,,,,,,,,,,,,,,,,,,,,,,,,,,,,,,,,,,,,,,
{8}5/4,2/7,4/5,6/3,
{8}8h[4:1]/4h[4:1],,,6h[4:1]/2h[4:1],,,4/8,3/7,
{8}2/6p1[8:1],5/1^6[8:1],,,3h[4:1],,6,2h[4:1],
{8},7,
{641}1,,,,,,,,,,,,,,,,,,,,
{639}8,,,,,,,,,,,,,,,,,,,,
{16}1h[16:5],,,,,,,7,,,,
{641}4,,,,,,,,,,,,,,,,,,,,
{639}5,,,,,,,,,,,,,,,,,,,,
{16}4h[16:3],,,3h[4:1],,,,2,,,,7,8,7,,
{16}2-5[16:1],1,2,,2,,,,2,1,2,,7-3[16:1],8,7,,
{16}7,,,,6,5,6,,3-7[16:1],4,3,,3,,,,
{16}3,4,3,,6-2[16:1],5,6,,6,,,,8/2,,,2^5[8:1]/8^5[8:1],
{16},,8/2,,,,,,1/7,,,1^4[8:1]/7^4[8:1],,,1/7,,
{16},,,,1/8,,,1^4[8:1]/8^5[8:1],,,1/8,,,,,,
{8}5/4,,2/1,,8/7,,1/2,3/8,
{16}1/2-7[16:1],8/3,4/7-3[16:1],,,,,,7/8,,1/6,,8/7-2[16:1],1/6,5/2-6[16:1],,
{16},,,,8/1,,2/7,,8/1-6[16:1],2/7,3/6-3[16:1],,,,,,
{16}2/7,,6/3,,2-5[16:1]/7-4[16:1],3/6,4/5,,2b/7b,,,,8/3,,7/2,,
{16}8/3-6[16:1],2/7,1/6-2[16:1],,,,,,6/1,,7/2,,1/6-3[16:1],2/7,8/3-7[16:1],,
{8},,8/2-5[16:1],2,2/8-5[16:1],8,2/8,2,
{16}7/2,,,1/3,,,7/2,,2/3,,,,4,,,5,
{16},,4,,5,,,,3/1,,,8/6,,,4/5,,
{1}2b/7b,
E
