&title=MIRROR of MAGIC
&artist=Shoichiro Hirata feat.SUIMI
&wholebpm=135
&demo_seek=58.5
&demo_len=14.8
&lv_1=3
&lv_2=5
&lv_3=7+
&lv_4=10+
&lv_5=13
&des_4=mai-Star
&des_5=Jack
&inote_1=(135.0){1},,,,,,
{1}1,
{1}1,
{1}2,
{1}2,
{1}3,
{1}3,
{1}4,
{1}4,
{1}5h[2:1],
{1}5,
{1}6,
{1}7,
{1}8,
{1}8,
{1}1,
{1}8,
{1}1,
{1}2-5[2:1],,
{1}7-4[2:1],,
{1}3h[2:1],
{1}2h[2:1],
{1}1h[2:1],
{2}8,8,
{1}8h[1:1],,
{2}1b,1,
{2}2,2,
{2}3,3,
{1}4h[2:1],
{2}5,5,
{2}6,6,
{1}7h[2:1],
{1}8h[2:1],
{2}1b,1,
{2}8,8,
{2}1,8,
{2}1,8,
{2}1/8,8,
{2}7,7,
{2}6,6,
{2}5,5,
{1}4-1[2:1],,
{1}1/8,
{1}1/8,
{1}2/7,
{1}2/7,
{1}3/6,
{1}3/6,
{1}4/5,
{1}4/5,
{1}3,
{1}2,
{1}1,
{1}8,
{1}7,
{1}6,
{1}5,
{4}4-1[2:1],,,,
E
&inote_2=(135.0){1},
{2}5,5,
{2}4,4,
{1}6/3,
{1}2h[2:3],,
{2}1/2,3,
{2}4/3,5,
{2}6/5,7,
{4}8,8,1,1,
{2}8/7,6,
{2}6/5,4,
{2}3/4,2,
{4}1,1,8,8,
{1}1-5[2:1],
{4},6,,6,
{4},4,,4,
{4},5,,5,
{4},3,,3/4,
{4},2,,2,
{4},8,,8,
{4},1,,1,
{1}8h[2:1]/1h[2:1],
{4}1,1,1,,
{4}2,2,2,,
{4}3,3,3,,
{4}4,4,4,,
{4}5,5,5,,
{4}6,6,6,,
{4}7,7,7,,
{4}8,8,8,,
{1}1h[2:3],
{1}8h[2:1],
{4}8/7,,2,1,
{4}1/2,,7,8,
{2}7/8,6/5,
{4}5,5,4,4,
{4}5/4,,6,6,
{4}5/6,,4,4,
{2}3/4,1/2,
{4}1,8,1,,
{4}8b/1b,,7,7,
{4}8/7,,1,1,
{2}2/1,4/3,
{4}4,4,5,5,
{4}5/4,,4,4,
{4}3/4,,5,5,
{2}6/5,8/7,
{4}1,1,8,8,
{1}7b/2b,
{4},2,,2/1,
{4},8,,7/8,
{4},6/5,,6/5,
{4},3/4,,4/3,
{4},3,,3/4,
{4},5,,6/5,
{4},8/7,,7/8,
{4},2/1,,2/1,
{4},2,3,4,
{4},6,7,8,
{4},8/2,,2/8,
{4},1/7,,1/7,
{4},7,6,5,
{4},3,2,1,
{4},7/1,,7/1,
{4},8/2,,8/2,
{4},1,1,8b,
E
&inote_3=(135.0){1},1-5[2:1],
{1}6-3[2:1],
{1}2-7[2:1],
{1}8<1[4:5],,
{4}1b/8b,,2,3,
{4}4/5,,6,7,
{4}1/8,,2,7,
{4}6/3,,5,4,
{4}6/3,,2,7,
{4}1/8,,7,6,
{4}4/5,,3,2,
{4}1/8,,2/7,1-4[8:3]/8-5[8:3],
{4},,,2b/7b,
{8}4/5,,4/3,,2,2,2,,
{8}4/5,,5/6,,7,7,7,,
{8}1/8,,1/2,,3,3,3,,
{8}1/8,,7/8,,6,6,6,,
{8}3/4,,5/6,,7,7,7,,
{8}6/5,,3/4,,2,2,2,,
{8}1/8,,6/5,,7,7,7,,
{8}1/8,,4/3,,2,2,2,,
{4}8/7,6/5,3/4,2/1,
{4}4/3,6/5,7/8,1/2,
{8}3h[8:3],,,4,4,,,,
{8}6h[8:3],,,5,5,,,,
{4}7/8,1/2,3/4,5/6,
{4}7/8,5/6,3/4,2/1,
{8}8,8,8,,1,1,1,,
{8}7,7,7,,2,2,2,,
{8}4,,5/3,,6,6,6,,
{8}5,,4/6,,3,3,3,,
{8}4h[4:1]/5h[4:1],,,,6,5,6,,
{8}4h[4:1]/5h[4:1],,,,3,4,3,,
{8}2h[4:1]/7h[4:1],,,,6,5,4,,
{4}2h[4:1]/7h[4:1],,1/8,7/2,
{8}4h[4:1]/5h[4:1],,,,2,4,2,,
{8}5h[4:1]/4h[4:1],,,,7,5,7,,
{8}1h[4:1]/8h[4:1],,,,2,1,8,,
{4}2h[4:1]/7h[4:1],,5/6,3/4,
{8}1b/8b,,,,7,6,5,,
{8}3,,3/4,,2,3,4,,
{8}6,,6/5,,7,8,1,,
{8}2/7,,4/5,,3,2,1,8,
{8}7,,1/8,,6,7,8,1,
{8}2,,8/1,,7,6,5,4,
{8}3,,7/2,,1,8,1,,
{4}2/4,3/5,4/6,5/7,
{8}1b/8b,,,,7h[16:3]/2h[16:3],,,2/7,
{4},3,4,5,
{4}6,5,4,3,
{4}2-5[8:1],,6,6,
{4}7-4[8:1],,3,3,
{4}7/2,6,5,4,
{4}3,4,5,6,
{4}7-4[8:1],,3,3/4,
{4}2-5[8:1],,6,5/6,
{4}3/7,2,3,4,
{4}5,4,3,2,
{4}1-5[8:1],,6,5/6,
{4}8-4[8:1],,3,3/4,
{4}6/2,7,6,5,
{4}4,5,6,7,
{4}8-4[8:1],,3,4/2,
{4}1-5[8:1],,6,5/7,
{8}8,,7/1,,6,5,4,3,
E
&inote_4=(135.0){1},
{16}1h[4:1],,,,8,,,1,,8,,2,7,,,,
{16}8h[4:1],,,,1,,,7,,2,,8,1,,,,
{1}1^4[8:3]/8^5[8:3],
{1}7^2[8:3],
{1}3q6[2:1],
{2}8-4[8:1],2-6[8:1],
{2}7-3[8:1],1-5[8:1],
{16}3/7,,,,3/7,,,1h[16:3]/5h[16:3],,,,,,,,,
{2}8^3[8:1],4^7[8:1],
{2}2-4[8:1],1-5[8:1],
{2}8-6[8:1],7-3[8:1],
{16}6/2,,,,6/2,,,4h[16:3]/8h[16:3],,,,,,,,,
{2}1^6[8:1],5^2[8:1],
{16}5/1,,,2/6,,,3/7,,,4/8,,,2b/7b,,,,
{8}1h[4:1]/8h[4:1],,,,,2,1,8,
{8}7,8,1,2,6,5,4,,
{16},,1/8,,4/5,,,3/4,,,6/5,,,,4/5,,
{16}2/7,,,8,,1,,1/8,,,6/3,,,,1,,
{8}8h[4:1],,1,,,6,5,4,
{8}3,4,5,6,2,1,8,,
{16},,5/4,,1/8,,,7/8,,,1/2,,,,1/8,,
{16}3/6,,,3,,6,,4/5,,,2b/7b,,,,2,,
{2}2^7[8:1],7p2[8:1],
{2}2p6[8:1],6^3[8:1],
{8}2h[2:1],,,,7h[8:3],,,1,
{8}8,1,8,1b,8,7,1,2,
{2}7^5[8:1],2^4[8:1],
{4}3/6,7/2,1-5[8:1]/8-4[8:1],,
{16}3,,,4,,,6,,5,,,,2/7,,,,
{2}1^3[8:1],8^6[8:1],
{4}4/5,1/8,2/7,3/6,
{2}7-3[8:1]/8-3[8:1],1-6[8:1]/2-6[8:1],
{16}1b,,,,8b,,,2/1,,2/1,,3,8,,,,
{16}8,,,,1,,,7/8,,8/7,,6,1,,,,
{2}1-5[8:1]/8-4[8:1],1-3[8:1]/8-6[8:1],
{2}2p5[8:1],7q4[8:1],
{16}3,,,,6,,,3/4,,3/4,,2,5,,,,
{16}5,,,,4,,,6/5,,6/5,,7,4,,,,
{4}4^1[8:1]/5^8[8:1],,7/2,8/1,
{4}2h[4:1],4h[4:1],6h[4:1],8,
{4}2b/8-4[8:1],,3/5,6/2,
{4}7/1-5[8:1],,5-8[8:1],4-1[8:1],
{8},,,8,1,7,2,8,
{8}8/1,8/1,1/8,8/1,1/8,2/7,3/6,4/5,
{4}2-5[8:1]/7-4[8:1],,3/4,5/6,
{4}3/4-8[8:1],,2-6[8:1],8-4[8:1],
{8},,,7,6,5,4,3,
{4}2^7[4:1],7^4[4:1],4^1[4:1],1s5[8:3],
{16},,,,,,,,5b/7b,,,2b/4b,,,8b/1b,,
{4},1h[4:1],2h[4:1],3h[4:1],
{4}4h[4:1],5h[4:1],6h[4:1],7h[4:1],
{16}8h[4:1],,,,7,,,2,,1,,2,1,,,,
{16}3h[4:1],,,,4,,,6,,5,,6,5,,,,
{4},8h[4:1],6h[4:1],4h[4:1],
{4}2h[4:1],7h[4:1],5h[4:1],1h[4:1],
{16}3h[4:1],,,,4,,,6,,5,,7,4,,,,
{16}7h[4:1],,,,8,,,2,,1,,3,8,,,,
{2}1-5[8:1],8-4[8:1],
{4}2-6[8:1],1-5[8:1],8-4[8:1],,
{16}7h[4:1],,,,6,,,3,,4,,2,5,,,,
{16}2h[4:1],,,,3,,,6,,5,,7,4,,,,
{2}8-4[8:1],1-5[8:1],
{4}7-3[8:1],8-4[8:1],1-5[8:1],,
{16}2h[4:1],,,,3,,,6,,5,,7,4,,,,
{16}7h[4:1],,,,6,,,3,,4,,2,5,,,,
{16}1/8,,,,7/2,,,1,,8,,2,7,,1/8,
E
&inote_5=(135.0){1},
{40}4h[4:1]/7>3[8:1],,,,,,,,,,,,,,,,,,5,,,,,6,,,,,7,,4,,,,,3/4,,,,,
{40}5h[4:1]/2<6[8:1],,,,,,,,,,,,,,,,,,4,,,,,3,,,,,2,,5,,,,,5/6,,,,,
{1}1b,
{1}1>8[2:3]/8<1[2:3],,
{40}1p4[8:1],,,,,,,,,,,,,,,,,,3/5,,,,,6/4,,,,,7,,8,,,,,3/4,,,,,
{40}8q5[8:1],,,,,,,,,,,,,,,,,,6/4,,,,,5/3,,,,,2,,1,,,,,5/6,,,,,
{40}1p4[8:1]/8q5[8:1],,,,,,,,,,,,,,,,,,2/6,,,,,,,7,,,,,8,,,,,1,,,,,
{4}2p4[8:1]/7q5[8:1],,3/6,1/8,
{40}3p6[8:1],,,,,,,,,,,,,,,,,,5/7,,,,,4/6,,,,,3,,7,,,,,1/5,,,,,
{40}6q3[8:1],,,,,,,,,,,,,,,,,,2/4,,,,,3/5,,,,,6,,2,,,,,8/4,,,,,
{40}3p6[8:1]/7p2[8:1],,,,,,,,,,,,,,,,,,1/5,,,,,,,4,,,,,3,,,,,2,,,,,
{4}1p3[8:1]/8q6[8:1],,4/5,2/7,
{16}6/4,,,2/5,,,3/7,,,6/1-5[8:1],,,8b,,,,
{40}4h[4:1],,,,,,,,,,2,,,,,,,,7h[10:3],,,,,,,6,,,,,8,,,,,,,,,,
{40}5h[4:1],,,,,,,,,,7,,,,,,,,2h[10:3],,,,,,,3,,,,,1,,,,,,,,,,
{40},,,,,2-6[8:1],,,,,6-2[8:1],,,,,2,,,8,,,,,,,4,,,,,,,,,,2/4,,,,,
{40}1,,,5,,,,,6/2,,,,,7/3,,,,,4^1[8:1]/8^5[8:1],,,,,,,8/4,,,,,,,,,,6,,,,,
{40}3h[4:1],,,,,,,,,,1,,,,,,,,8h[10:3],,,,,,,7,,,,,1,,,,,,,,,,
{40}6h[4:1],,,,,,,,,,8,,,,,,,,1h[10:3],,,,,,,2,,,,,8,,,,,,,,,,
{40},,,,,7-3[8:1],,,,,3-7[8:1],,,,,7,,,1,,,,,,,5,,,,,,,,,,5/7,,,,,
{40}8,,,4,,,,,7/3,,,,,6/2,,,,,1^4[8:1]/5^8[8:1],,,,,,,5/1,,,,,,,,,,1,,,,,
{4}2^5[4:1],5q4[4:1],4^7[4:1],7q6[4:1],
{4}6^1[4:1],1q8[4:1],8>4[5:1],5,
{8}6^3[8:1],,,8,7<3[5:1],,,1,
{8}8<3[4:1],,,,2,3,4,5,
{4}7^4[4:1],4p5[4:1],5^2[4:1],2p3[4:1],
{4}3^8[4:1],8p1[4:1],1<5[5:1],4,
{8}3^6[8:1],,,1,2>6[5:1],,,8,
{8}1>6[4:1],,,,7,6,5,4,
{40}3/2h[5:1],,,,,,,,8,,,,,,,6/7h[5:1],,,,,,,,1,,,,,,,8,,,,,8/1,,,,,
{40}7/6h[5:1],,,,,,,,4,,,,,,,2/3h[5:1],,,,,,,,5,,,,,,,4,,,,,4/5,,,,,
{40}2v8[8:1]/7-3[8:1],,,,,,,,,,,,,,,,,,1/6,,,,,3/8,,,,,4,,5,,,,,2/7,,,,,
{40}3v5[8:1]/6-2[8:1],,,,,,,,,,,,,,,,,,7/4,,,,,5/2,,,,,4,,8-4[8:1],,,,,1/7,,,,,
{8}8,,,5,6/5,4,3/4,7,
{8}8/7,2,1/2,8,1^6[8:1]/8^3[8:1],,8/1,,
{40}2-6[8:1]/7v1[8:1],,,,,,,,,,,,,,,,,,3/8,,,,,6/1,,,,,5,,4,,,,,7/2,,,,,
{40}3-7[8:1]/6v4[8:1],,,,,,,,,,,,,,,,,,2/5,,,,,7/4,,,,,5,,1-5[8:1],,,,,2/8,,,,,
{8}1,,,4,3/4,5,6/5,4,
{8}4/5,,2-4[8:1],7,2/8-6[8:1],,8/1-5[8:1],,
{40}5b/1b,,,,,,,,,,,,,,,,,,1/6,,,,,3/8,,,,,4,,5,,,,,2/7,,,,,
{40}3v7[8:1]/6v2[8:1],,,,,,,,,,,,,,,,,,7/4,,,,,5/2,,,,,6,,2-6[8:1],,,,,3/1,,,,,
{8}2,,,5,6/5,4,4/3,1,
{8}7/1,8,8/2,1,8/2,3/7,4/6,5,
{40}3-7[8:1]/6v4[8:1],,,,,,,,,,,,,,,,,,2/5,,,,,7/4,,,,,8,,1,,,,,6/3,,,,,
{40}2-6[8:1]/7v1[8:1],,,,,,,,,,,,,,,,,,8/3,,,,,1/6,,,,,2,,7-3[8:1],,,,,6/8,,,,,
{8}7,,,4,4/3,5,6/5,3,
{8}3/2,6,6/7,2/5,3^6[8:1]/7^2[8:1],,3/7,,
{8}5/1,3/7,2^7[8:1]/6^3[8:1],,
{908}2b/6b,,,,,,,,,,,,,,,,,,,,,,,,,,,,,,,,,,,,,,,,,,,,,,,,,,,,,,,,,,,,,,,,,,,,,,,,,,,,,,,,,,,,,,,,,,,,,,,,,,,,,,,,,,,,,,,,,,,,,,,,,,,,,,,,,,,,,,,,,,,,,,,,,,,,,,,
{6}4b/8b,5b/1b,
{4},2h[8:3],3h[8:3],4h[8:3],
{4}7h[8:3],6h[8:3],5h[8:3],1h[8:1],
{40}4h[4:1]/7>3[8:1],,,,,,,,,,,,,,,,,,5,,,,,6,,,,,7,,4,,,,,4/3,,,,,
{40}5h[4:1]/2<6[8:1],,,,,,,,,,,,,,,,,,4,,,,,3,,,,,2,,5,,,,,5/6,,,,,
{4}1b,7h[8:3],6h[8:3],5h[8:3],
{4}2h[8:3],3h[8:3],4h[8:3],8h[8:1],
{40}5h[4:1]/2<6[8:1],,,,,,,,,,,,,,,,,,4,,,,,3,,,,,2,,5,,,,,6/5,,,,,
{40}4h[4:1]/7>3[8:1],,,,,,,,,,,,,,,,,,5,,,,,6,,,,,7,,4,,,,,4/3,,,,,
{8}8b,,1h[8:3],,3h[4:1],,5h[8:1],4h[4:1],
{4}8h[8:3],6h[8:3],4h[8:3],1h[8:1],
{40}8h[4:1]/3<7[8:1],,,,,,,,,,,,,,,,,,1,,,,,2,,,,,3,,8,,,,,8/7,,,,,
{40}1h[4:1]/6>2[8:1],,,,,,,,,,,,,,,,,,8,,,,,7,,,,,6,,1,,,,,1/2,,,,,
{8}4/5,,8h[8:3],,6h[4:1],,4h[8:1],5h[4:1],
{4}1h[8:3],3h[8:3],5h[8:3],8h[8:1],
{40}1h[4:1]/6>2[8:1],,,,,,,,,,,,,,,,,,8,,,,,7,,,,,6,,1,,,,,2/1,,,,,
{40}8h[4:1]/3<7[8:1],,,,,,,,,,,,,,,,,,1,,,,,2,,,,,3,,8,,,,,7/8,,,,,
{40}4q2[8:1]/5p7[8:1],,,,,,,,,,,,,,,,,,3,,,,,6,,,,,1,,8,,,,,2/7,
E
