&title=Dreampainter
&artist=Sta feat.tigerlily and DOT96
&wholebpm=136.7
&demo_seek=43.7
&demo_len=16.3
&lv_1=2
&lv_2=4
&lv_3=7+
&lv_4=11
&lv_5=12+
&des_4=某S氏
&des_5=Jack
&inote_1=(136.7){1},1,,
{1}1,,
{1}8,,
{1}8,,
{1}7,
{1}7,
{1}8,
{1}8,
{1}1,
{1}1,
{1}2,
{1}2,
{1}3h[1:1],,
{1}4h[1:1],,
{1}5-8[4:3],,
{1}1,
{2}1,8b,
{1}1-4[4:3],,
{1}8-5[4:3],,
{1}6,
{1}5,
{1}4,
{1}3,
{1}2b,,
{1}1/8,
{2}2,2,
{1}2h[2:1],
{1}3h[2:1],
{1}4h[2:1],
{1}5h[2:1],
{2}6,6,
{1}6,
{2}7,7,
{1}7,
{2}8,8,
{1}8,
{1}1h[1:1],,
{4}1,1,,,
{4}8,8,,,
{4}7,7,,,
{4}8,8,,,
{4}1,1,1,,
{4}2,2,2,,
{2}3,3,
{2}4,4,
{1}5-8[4:3],,
{2}1,1,
{2}8,
{1}8-5[4:3],,
E
&inote_2=(136.7){1},,,,,
{2}4,4,
{2}3,3,
{2}2,2,
{4}1h[2:1],,,1,
{4},8,,8,
{4},1,,1,
{4},7,,7,
{4},2,,2,
{1}2-7[8:5],
{4},,,6,
{1}6-3[8:5],
{4},,,2,
{4},3,,3,
{4},6,,6,
{4},4,,4,
{4},5,,5,
{1}5-8[8:5],
{4},,,1,
{1}1-4[8:5],,
{1}4h[4:3],
{4}6,6,6,,
{1}5h[4:3],
{4}3,3,3,,
{4},2,,2,
{4},1,,1,
{1}1h[1:1]/8h[1:1],
{2},8/1,
{2}1,1,
{2}8,8,
{4}1,1,8,8,
{4}1,1,8,8b,
{1}1-5[4:3],,
{1}8-4[4:3],
{4},,,1/8,
{4},1,,2,
{4},3,,4,
{4},5,,6,
{4},7,,8,
{4},8/7,,7/8,
{4},5/6,,5/6,
{4},4/3,,4/3,
{4},2/1,,1b/2b,
{4}2,2,1,1,
{1}8h[2:1],
{4}7,7,8,8,
{1}1h[2:1],
{4},2,,3,
{4},4,,5,
{1}5h[1:1]/4h[1:1],
{2},4/5,
{2}4,4,
{2}5,5,
{4}4,4,5,5,
{4}4,5,4,3/6,
E
&inote_3=(136.7){1},
{4}3,5,4h[2:1],,
{4}6,4,5h[2:1],,
{4}2,6,4h[2:1],,
{4}7,3,5,4/6,
{4}2,8,1h[2:1],,
{4}7,1,8h[2:1],,
{4}3,7,1h[2:1],,
{4}6,2,8-4[8:1],,
{8}3,,4/2,4/2,,,3/5,3/5,
{8},,6/4,4/6,,,2/7,,
{8}8,,7/1,7/1,,,2/8,2/8,
{4},1,1-5[8:1],,
{8}6,,5/7,5/7,,,6/4,6/4,
{8},,5/3,5/3,,,2/7,,
{8}1,,2/8,2/8,,,7p2[2:1],,
{4},,,8b/1b,
{8}2,,3,3h[8:3],,,5,5h[8:3],
{8},,4,4h[8:3],,,6,,
{8}7/8,,6,6h[8:3],,,4,4h[8:3],
{8},,5,5h[8:3],,,3,,
{8}2/1,,8,8h[8:3],,,1,1h[8:3],
{8},,7,7h[8:3],,,8,,
{8}3/6,,2,2h[8:3],,,1,,
{4}4/3,6/5,4/5,2b/7b,
{8}1/8,,1/2,,3,4,3,,
{8}4/5,,6/5,,7,8,7,,
{8}1/8,,7/8,,6,5,6,,
{8}5/4,,4/3,,2,1,2,,
{8}3/4,,5/6,,7,8,7,,
{8}5/6,,4/3,,2,1,2,,
{8}3/4,,6/5,,8,1,8,,
{8}2/7,,3/6,,4,5,4,5,
{4}4,4,4,4,
{4}6,5/6,3,3/4,
{4}2/1,8/7,1/2,8/7,
{8}1,8,1,8,1,8,1,,
{1}7p2[2:1],
{1}3p6[2:1],
{1}8q5[2:1],
{1}1p4[2:1],
{8}3h[2:1],,,4,4,,,,
{8}6h[2:1],,,5,5,,,,
{8}2h[2:1],,,1,1,,,,
{8}7h[2:1],,,8,8,,,,
{8}3h[2:1],,,4,4,,5/2,,
{8}6h[2:1],,,5,5,,4/7,,
{8}2h[2:1],,,1,1,,3/8,,
{8}7h[2:1],,,8,8,,6/1,,
{8}5,,6/4,,3,4,3,,
{8}1,,2/8,,7,8,7,,
{8}4,,3/5,,6,
{865}5,,,,,,,,,,,,,,,,,,,,,,,,,,,,,,,,,,,,,,,,,,,,,,,,,,,,,,,,,,,,,,,,,,,,,,,,,,,,,,,,,,,,,,,,,,,,,,,,,,,,,,,,,,,
{577}6,,,,,,,,,,,,,,,,,,,,,,,,,,,,,,,,,,,,,,,,,,,,,,,,,,,,,,,,,,,,,,,,,,,,,,,,,,,,,,,,,,,,,,,,,,,,,,,,,,,,,,,,,,,,,,,,,,,,,,,,,,,,,,,,,,,,,,,,,,,,,,,,,
{8}8,,1/7,,2,1,2,,
{8}4/3,,2/5,,1,8,1,,
{8}6/5,,4/7,,8,1,8,,
{8}4/5,,2/7,,1,8,1,,
{8}2/7,,6/3,,5,4,5,4,
{4}5,3,7,1,
{4}7,8/7,2,1/2,
{4}4/3,8/2,6/5,7/1,
{8}8,1,8,1,8-4[8:1],,,,
E
&inote_4=(136.7){1},
{8}3h[8:3],,,4,5h[4:1]/2h[4:1],,,,
{8}6h[8:3],,,5,7h[4:1]/4h[4:1],,,,
{8}2h[8:3],,,1,8h[4:1]/3h[4:1],,,,
{8}7h[8:3],,,8,1h[4:1]/6h[4:1],,,,
{16}2h[16:3],,,5h[16:3],,,7,,8/7,,,,1/6,,,,
{16}7h[16:3],,,4h[16:3],,,2,,2/1,,,,8/3,,,,
{16}1h[16:3],,,7h[16:3],,,5,,5/4,,,,6/3,,,,
{16}3/4,,,3/4,,,5/6,,,5/6,,,7b/2b,,,,
{8}7h[4:1],,4,4h[8:3],,,1,1<5[4:1],
{8},2h[8:3],,,,,7/3,,
{8}2h[4:1],,5,5h[8:3],,,8,8-4[8:1],
{8},1,,,3h[8:3],,,4>5[4:3],{1},
{8},,1h[2:1],,,,8>4[2:1],8^5[8:3],{1},
{16},5/4,,,5/4,,,6/3,,,,,1b,,,,
{8}2h[4:1],,5,5h[8:3],,,8,8>4[4:1],
{8},7h[8:3],,,,,2/6,,
{8}7h[4:1],,4,4h[8:3],,,1,1-5[8:1],
{8},8,,,6h[8:3],,,5<4[4:3],{1},
{8},,8h[2:1],,,,1<5[2:1],1^4[8:3],{1},
{16}3,,5,4,5,,3,5,3,,7,4,7b,,,,
{8}1h[8:3],,3,3h[4:1],,4h[4:1],,7h[2:1],
{8},,8,8>4[8:1],,,,,
{8}8h[8:3],,6,6h[4:1],,5h[4:1],,2h[2:1],
{8},,1,1<5[8:1],,,,,
{4}1h[2:1],3,6h[2:1],7,
{4}4h[2:1],2,8h[2:1],6,
{4}2h[4:1],1h[4:1],8h[4:1],7h[4:1],
{4}6h[4:1],5h[4:1],4h[4:1],3,
{4}4,4,5/4,5/4,
{4}6,6,6/4,6/4,
{8}3,3,6,6,2,2,7,7,
{16}1,8,1,8,1,8,1,8,2,7,2,7,2b,,,,
{16}3,,,4,,,5,,6/1^4[8:1],,,,,,,,
{16}6,,,5,,,4,,6/2,,,,8/4,,,,
{16}3,,,2,,,1,,3/8^5[8:1],,,,,,,,
{16}1,,,3,,,5,,7/3,,,,1/5,,,,
{8}1,1h[4:1],,3-8[8:1],,4,4,,
{8}6,6h[4:1],,8-4[8:1],,1,1,,
{8}8,8h[4:1],,6-1[8:1],,5,5,,
{8}3,3h[4:1],,1-5[8:1],,8,8,,
{8}6h[4:1],5,4,,2h[4:1],4,5,,
{8}7h[4:1],4,3,,1h[4:1],5,6,,
{16}8,,8h[16:3],,,1h[16:3],,,2h[16:3],,,3h[16:3],,,4h[16:3],,
{16},5h[16:3],,,6,,,,4,,5,,3b/6b,,,,
{8}3,4,3,5/2,,3/7,,6/1,
{8}7,8,6,1^4[8:1],,8,8,,
{8}6,5,6,7/4,,6/2,,8/3,
{8}2,1,3,8^5[8:1],,1,1,,
{8}1-5[8:1],7,7,,6-2[8:1],4,4,,
{8}3-7[8:1],6,6,,8-4[8:1],2,2,,
{4}3h[4:1],1h[4:1],7h[4:1],6h[4:1],
{4}4h[4:1],2h[4:1],8,6/5,
{4}3/4,4/3,4/6,4/6,
{4}2/5,2/5,8/4,4/8,
{8}1/6,1/6,1/6,6/1,7/3,7/3,3/7,3/7,
{16}1,8,1,8,2,7,2,7,3,6,3,6,4b,
E
&inote_5=(136.7){1},
{16}2h[16:3],,,1,,,3,,4/2-6[8:1],,,,,,,,
{16}7h[16:3],,,8,,,6,,5/7-3[8:1],,,,,,,,
{16}2h[16:3],,,7,,,1/8,,2-5[8:1]/7-4[8:1],,,,,,,,
{16}7h[16:3],,,2,,,3/6,,4-8[8:1]/5-1[8:1],,,,,,,,
{16}6h[16:3],,,5,,,7,,6/8-4[8:1],,,,,,,,
{16}3h[16:3],,,4,,,2,,3/1-5[8:1],,,,,,,,
{16}8h[16:3],,,1,,,2/7,,1-5[8:1]/8-4[8:1],,,,,,,,
{16}3/5,,,4/7,,,6/1^6[8:1],,,,1,2,3,,,,
{8}2-5[8:1],,6,7-4[8:1],,3,2,1-4[8:1]/5-8[8:1],
{8},5/1,,,4/5,,8/1,,
{8}7-4[8:1],,3,2-5[8:1],,6,7,4-1[8:1]/8-5[8:1],
{8},4/8,,,5/1,6/2,3/7,8/4,
{4}5-2[8:1],5-8[8:1],1-4[8:1],1-6[8:1],
{4}1s5[8:3],,,1/5,
{4}8-5[8:1],8-3[8:1],8-4[8:1],,
{16},2/3,,,5/4,,,6/7-3[8:1],,,,,1b,,,,
{8}7^4[8:1],,3,2^5[8:1],,6,7,4^1[8:1]/8^5[8:1],
{8},8/4,,,8/1,,4/5,,
{8}2^5[8:1],,6,7^4[8:1],,3,2,1^4[8:1]/5^8[8:1],
{8},1/5,,,4/8,7/3,6/2,1/5,
{4}4^1[8:1],6^1[8:1],2^5[8:1],8^5[8:1],
{4}1>8[8:3],,,2/7,
{4}1^4[8:1],1^6[8:1],1-5[8:1],,
{8}7^2[8:1],7,4^7[8:1],4,1^4[8:1],1,8b,,
{8}2>6[4:1],,6>2[4:1],,8,7,6,5-2[8:1],
{8},3-7[8:1],,8-4[8:1],,1,1,,
{8}7<3[4:1],,3<7[4:1],,1,2,3,4-7[8:1],
{8},6-2[8:1],,1-5[8:1],,8,8,,
{8}8/1-6[8:1],,1/8-3[8:1],,2,1,8,7^2[8:1],
{8},5^8[8:1],,3^6[8:1],,1,1,,
{4}4^7[4:1],7^2[4:1],2^5[4:1],5<4[8:3],
{16},,,,,,8,,1/6,,,7/3,,,5h[8:13],,
{4}4,6,3,7,
{4}2,8,1,4/8,
{8}1,2,3,4,5,6,7,8,
{16}1,8,2,7,3,6,4,5,
{641}4,,,,,,,,,,,,,,,,,,,,
{639}3,,,,,,,,,,,,,,,,,,,,2,,,,,,,,,,,,,,,,,,,,
{641}1,,,,,,,,,,,,,,,,,,,,8,,,,,,,,,,,,,,,,,,,,
{639}7,,,,,,,,,,,,,,,,,,,,6,,,,,,,,,,,,,,,,,,,,
{641}5,,,,,,,,,,,,,,,,,,,,
{16}4b,,,,
{16}7h[16:3],,,5h[16:3],,,6,,4/7p4[4:1],,,,,,,,
{16}2h[16:3],,,4h[16:3],,,3,,5/2q5[4:1],,,,,,,,
{16}7h[16:3],,,3h[16:3],,,5,,1-5[8:1],,,,,,,,
{16}6/4,,,5/2,,,3/8^3[8:1],,,,8,7,6,,,,
{8}5h[8:1],4h[8:1],3h[8:1],2h[4:1],,1>5[8:1],,1<5[8:1],
{8},1-5[8:1],,1,,5/1,4/8,,
{8}4h[8:1],5h[8:1],6h[8:1],7h[4:1],,8<4[8:1],,8>4[8:1],
{8},8-4[8:1],,8,,8/4,1/5,,
{8}2/7,,4,5,2-6[8:1],,8,7-3[8:1],
{8},1,,,4h[4:1]/5h[4:1],,,1/8,
{16},,7h[16:3],,,5h[16:3],,,3h[16:3],,,1h[16:3],,,8-4[8:1],,
{8},3,2,1-5[8:1],,7,8b,,
{8}3>7[4:1],,7>3[4:1],,5,6,7,8^3[8:1],
{8},4/8^5[8:1],,4/8-4[8:1],,1,1,,
{8}6<2[4:1],,2<6[4:1],,4,3,2,1^6[8:1],
{8},5/1^4[8:1],,5/1-5[8:1],,8,8,,
{8}1/8-3[8:1],,8/1-6[8:1],,7,8,1,2^7[8:1],
{8},4^1[8:1],,6^3[8:1],,8,8,,
{4}5^2[4:1],2^7[4:1],7^4[4:1],4>5[10000:3741],
{16},,,,,,1,,3/8,,,6/2,,,4h[8:13],,
{4}5,3,6,2,
{4}7,1,8,5/1,
{8}3,3/4,6,6/5,2,2/4,7,7/5,
{16}4,5,3,6,2,7,1,8,
{641}1,,,,,,,,,,,,,,,,,,,,
{639}2,,,,,,,,,,,,,,,,,,,,3,,,,,,,,,,,,,,,,,,,,
{641}4,,,,,,,,,,,,,,,,,,,,5,,,,,,,,,,,,,,,,,,,,
{639}6,,,,,,,,,,,,,,,,,,,,7,,,,,,,,,,,,,,,,,,,,
{641}8,,,,,,,,,,,,,,,,,,,,1b,
E
