&title=BETTER CHOICE
&artist=Jimmy Weckl feat.高貴みな
&wholebpm=130
&demo_seek=62.1
&demo_len=15.4
&lv_1=3
&lv_2=4
&lv_3=8
&lv_4=10+
&lv_5=12+
&des_4=Techno Kitchen
&des_5=Jack
&inote_1=(130.0){1},,,,,,
{1}8,
{1}8,
{1}7,
{1}7h[1:1],,
{2}8,8,
{1}1,
{2}2,2,
{1}3,
{2}4,4,
{1}5,
{1}6,
{1}7-2[4:3],,
{1}3-6[4:3],,
{1}5-8[4:3],,
{1}1-4[4:3],,
{1}5h[1:1],,
{1}4h[1:1],,
{1}3h[1:1],,
{1}2h[1:1],,
{4}1,1,,,
{4}1,1,,,
{1}2h[1:1],,
{4}8,8,,,
{4}8,8,,,
{1}7h[1:1],,
{1}1,
{1}2,
{1}3,
{2}4,4,
{1}5,
{1}6,
{1}7,
{1}8,
{1}1h[1:1],,
{1}8h[1:1],,
{1}7h[1:1],,
{4}6,6,6,,
{4}5,5,5b,,
{2}4,4,
{1}3,
{2}3,3,
{1}2-7[4:3],,
E
&inote_2=(130.0){1},,,,
{1}8,
{1}1,
{2}8,1,
{2}8,1,
{2}8,8,
{2}1,1,
{2}2,1,
{4}2,2,2,,
{2}4,3,
{4}4,4,4,,
{2}6,5,
{4}6,6,6,,
{2}8,7,
{4}8,8,8,8b,
{4},,8,8,
{4},,7,7,
{4},,1,1,
{4},,2,2,
{4},,3,3,
{4},,4,4,
{4},,6,6,
{4},,5,5,
{2}5b,4h[2:1],
{2},5h[2:1],
{2},3h[400:201],
{2},6h[2:1],
{2},2h[2:1],
{2},7h[2:1],
{2},1h[2:1]/8h[2:1],
{2},8/1,
{4}1b/8b,,1,1,
{4}2,,3,3,
{4}4,,5,5,
{4}6,,7,7,
{4}8,,8,8,
{4}7/8,,6,6,
{4}5/6,,4,4,
{4}3/4,,2,2,
{4}1/2,,8,8,
{2}8,1,
{4}8,,8,8,
{4}7,,7,6,
{4}5,,1,1,
{2}1,8,
{4}1,,1,1,
{4}2,,2,3,
{1}4b,
{4},,7,8,
{1}1-4[4:3],
{4},,2,1,
{1}8-5[4:3],
{4},,6,7,
{1}8-5[4:3],
{2},1b,
{1}2h[2:1],
{1}1h[2:1],
{1}8h[2:1],
{1}7-4[4:3],,
E
&inote_3=(130.0){1},,
{4},3/4,,5/6,
{4},7/8,,2/1,
{4},4/3,,5/6,
{4},5/4,3/6,2/7,
{4},8/1,,4/7,
{4},6/3,,2/5,
{4},1/8,2/7,6/3,
{8}4h[4:1]/5h[4:1],,,,2/7,,1,8,
{8}1,,7/2,,6/3,,5,4,
{8}5,,6/3,,4,5,4,5,
{8}4,,5/6,,3/4,,2,1,
{8}2,,7,8,7,,1,8,
{8}1,,2/7,,3/6,,4,5,
{8}4,,6/3,,5,4,5,4,
{4}5,3/4,5/6,4/5,
{4}6/3,,5/4,2/7,
{8}1,,2/8,,3,4,3,,
{8}5,,4/6,,7,8,7,,
{8}1,,2/8,,3,4,3,,
{8}6,5,6,,7,8,7,,
{8}8,,1/7,,6,5,6,,
{8}4,,3/5,,2,1,2,,
{8}8,,1/7,,6,5,6,,
{8}3,4,3,,2,1,2,,
{2}7h[2:1],6h[2:1],
{4}5h[2:1],,4h[4:1],5,
{8}3/6,,2/5,,1,8,7,,
{8}6/3,,7/4,,8,1,2,,
{2}2h[2:1],3h[2:1],
{4}4h[2:1],,5h[4:1],4,
{8}6/3,,2/7,,1,8,1,8,
{4}1,7/8,2/1,1b/8b,
{8}3,4,3,5,5,2,2,,
{8}6,5,6,4,4,7,7,,
{8}8,1,8,2,2,7,7,,
{8}6,6,6/5,,3,3,4/3,,
{8}6,5,6,4,4,7,7,,
{8}3,4,3,5,5,2,2,,
{8}1,8,1,7,7,2,2,,
{8}3,4,5,6,4/5,,2/7,,
{1}3>6[2:1],
{8}4/5,,6,6,5,5,4,4,
{4}3,1/2,3/4,5/6,
{8}3,4,3,,6,5,6,,
{1}6<3[2:1],
{8}4/5,,3,3,4,4,5,5,
{4}6,8/7,5/6,3/4,
{8}2/1,,7/8,,1,8,2,7,
{2}3-5[8:1],6-4[8:1],
{2}2-5[8:1],7-4[8:1],
{2}1-5[8:1],8-4[8:1],
{2}1-6[8:1],8-3[8:1],
{2}1-5[8:1],8-4[8:1],
{2}2-5[8:1],7-4[8:1],
{1}1s5[2:1],
{8}5/4,,6/3,,2,7,1/8,,
{8}2,8,2,,2,4,2,,
{8}7,5,7,,7,1,7,,
{8}2,1,8/3,,7,8,1/6,,
{8}8,1,7,2,6,3,5,4,
E
&inote_4=(130.0){1},,
{16}8,,1,,7,,2,,6,,3,,8,1,,7/2h[16:13],
{8},8,7,6,5^8[8:1],,,,
{673}1,,,,,,,,,,,,,,,,,,,,,,,,,,,,,,,,,,,,,,,,,,,,,,,,,,,,,,,,,,,,,,,,,,,,,,,,,,,,,,,,,,,,,
{8}2,
{961}3,,,,,,,,,,,,,,,,,,,,,,,,,,,,,,,,,,,,,,,,,,,,,,,,,,,,,,,,,,,,,,,,,,,,,,,,,,,,,,,,,,,,,,,,,,,,,,,,,,,,,,,,,,,,,,,,,,,,,,,,,,,,,,,,,,,,,,,,,,,,,,,,,,,,,,,,,,,,,,,,,,,,,,,,,,,,,,,,,,,,,,,,,,,,,,,,,,,,,,,,,,,,,,,,,,,,,,,,,,,,,,,,,,,,,,,,,,,,,,,
{8}8,7,6,,
{8}2,3,4,,7,6,5,,
{16}1,,8,,2,,7,,3,,6,,1,8,,2/7h[16:13],
{8},1,2,3,4^1[8:1],,,,
{8}8,7,6,,
{673}1,,,,,,,,,,,,,,,,,,,,,,,,,,,,,,,,,,,,,,,,,,,,,,,,,,,,,,,,,,,,,,,,,,,,,,,,,,,,,,,,,,,,,
{8}2,
{961}3,,,,,,,,,,,,,,,,,,,,,,,,,,,,,,,,,,,,,,,,,,,,,,,,,,,,,,,,,,,,,,,,,,,,,,,,,,,,,,,,,,,,,,,,,,,,,,,,,,,,,,,,,,,,,,,,,,,,,,,,,,,,,,,,,,,,,,,,,,,,,,,,,,,,,,,,,,,,,,,,,,,,,,,,,,,,,,,,,,,,,,,,,,,,,,,,,,,,,,,,,,,,,,,,,,,,,,,,,,,,,,,,,,,,,,,,,,,,,,,
{8}7,6,5,,2,3,4,,
{8}2,2,1,,7,7,8,,
{4}5/6h[4:1],5,4/3h[4:1],4,
{8}7,7,8,,2,2,1,,
{4}4/3h[4:1],4,5/6h[4:1],5,
{8}2,8,2,,7,1,7,,
{8}4/6,6,4/6,,5/3,3,5/3,,
{8}7,1,7,,2,8,2,,
{8}5/3,3,5/3,,4/6,6,6/4,,
{8}8,1,7h[4:1],,1,8,2h[4:1],,
{8}8,1,7h[4:1],,1,8,2h[4:1],,
{2}8^5[4:1],1^4[4:1],
{2}8^5[4:1],1^4[4:1],
{8}7,8,6h[4:1],,2,1,3h[4:1],,
{8}7,8,6h[4:1],,
{999}2,,,,,,,,,,,,,,,,,,,,,,,,,,,,,,,,,,,,,,,,,,,,,,,,,,,,,,,,,,,,,,,,,,,,,,,,,,,,,,,,,,,,,,,,,,,,,,,,,,,,,,,,,,,,,,,,,,,,,,,,,,,,,
{993}1,,,,,,,,,,,,,,,,,,,,,,,,,,,,,,,,,,,,,,,,,,,,,,,,,,,,,,,,,,,,,,,,,,,,,,,,,,,,,,,,,,,,,,,,,,,,,,,,,,,,,,,,,,,,,,,,,,,,,,,,,,,,
{4}3h[4:1],
{2}7^4[4:1],2^5[4:1],
{2}7^4[4:1],2^5[4:1],
{16}8h[16:3],,,2h[16:3],,,4h[16:3],,,6h[16:3],,,8,,,,
{16}8h[16:3],,,6h[16:3],,,4h[16:3],,,2h[16:3],,,8,,,,
{2}1-5[4:1],8-4[4:1],
{2}2-5[4:1],7-4[4:1],
{16}1h[16:3],,,7h[16:3],,,5h[16:3],,,3h[16:3],,,1,,,,
{16}1h[16:3],,,3h[16:3],,,5h[16:3],,,7h[16:3],,,1,,,,
{1}8<1[4:3],
{16},,,,8,8,,,1,1,,,2b/7b,,,,
{16}1,8,,2,,7,,3h[16:7],,,8,,7,,6,,
{16}5,4,,6,,3,,2/7,,,,,3,,6h[1:1],,
{8},,1,,2,,3,2p1[8:5],{1},
{16}8,1,,7,,2,,6h[16:7],,,1,,2,,3,,
{16}4,5,,3,,6,,7/2,,,,,6,,3h[1:1],,
{8},,8,,7,,6,7q8[8:5],{1},
{16}3/6,,,,1,8,,1/8,,7/2,,6/3,,5/4,,7b/2b,
{8},,1,8,7h[16:3]/2h[16:3],,,2v4[8:3]/7v5[8:3],
{8},,,,,,4/5,6/3h[8:7],
{4},7,8^6[8:1],,
{16}6/3,,,,1,8,,1/8,,2/7,,3/6,,4/5,,2b/7b,
{8},,1,8,2h[16:3]/7h[16:3],,,2v1[8:3]/7v8[8:3],
{8},,,,,,4/5,3/6h[8:7],
{4},2,1^3[8:1],,
{1}3/6p3[2:1],
{8}2/4,,3,4,3,2,1/3,,
{1}6/3q6[2:1],
{8}7/5,,6,5,6,7,8/6,,
{1}3/6p3[2:1],
{8}2/4,,3,4,3,2,3/1,,
{4}6/5,7/8,1/2,4/3,
{16}6,,6/5,,3,,4/3,,7,2,7,2,,1b/8b,,,
{16}8,,1,,7,,2,,6,,3,,8,1,,7/2h[16:13],
{8},8,7,6,5^8[8:1],,,,
{16}1,,8,,2,,7,,3,,6,,1,8,,2/7h[16:13],
{8},1,2,3,4^1[8:1],,,8b,
E
&inote_5=(130.0){1},
{16},,3,4,5,6,,,4/5,,,6,5,4,,8/1,
{16},,3,2,3,1,3,8,3,7,3,6,3,5,3,4h[16:5],
{16},,,,5-2[8:1],,,,7,,,,3,6,4,5,
{16}2h[16:3],,,4,,,7h[8:1],,5,,,,3-8[8:1]/6-1[8:1],,,,
{16},,,,2/7,,,,3,4,3,,6,5,6,,
{16}1/8,,6,7,6,8,6,1,6,2,6,3,6,4,6,5h[16:5],
{16},,,,4-7[8:1],,,,2,,,,6,3,5,4,
{16}7h[16:3],,,6,,,2h[8:1],,3,,,,4-7[8:1]/5-2[8:1],,,,
{16},,,,1/8,,,,6/3,,,4,5,4,5,3h[16:3],
{16},,4,,5/2,,,6h[16:3],,,5,,4/7,,,2h[16:3],
{16},,1,,3/8,,,7h[16:3],,,8,,1/6,,,2h[16:3],
{16},,3,,4/1,,,7h[16:3],,,6,,8/5,,,1h[16:3],
{16},,8,,2/7,,,5/4,,,,5,4,5,4,6h[16:3],
{16},,5,,4/7,,,3h[16:3],,,4,,2/5,,,7h[16:3],
{16},,8,,1/6,,,2h[16:3],,,1,,3/8,,,7h[16:3],
{16},,6,,5/8,,,2h[16:3],,,3,,4/1,,,5h[16:3],
{16},,4,,7/2,,,8-4[8:1],,,,8b,,1b,,,
{16},,3,,2/4,,5,4,,,6,,5/7,,4,5,
{16},,2/7,,8,1,,7/2,,2/7,,,3h[8:1],,6h[8:1],,
{1000}4h[4:1],,,,,,,,,,,,,,,,,,,,,,,,,,,,,,,,,,,,,,,,,,,,,,,,,,,,,,,,,,,,,,,,,,,,,,,,,,,,,,,,,,,,,,,,,,,,,,,,,,,,,,,,,,,,,,,,,,,,,,,,,,,,,,,,,,,,,,,,,,,,,,,,,,,,,,,,,,,,,,,,,,,,,,,,,,,,,,,,,,,,,,,,,,,,,,,,,,,,,,,,,,,,,,,,,,,,,,,,,,,,,,,,,,,,,,,,,,,,,,,,,,,,,,,,,
{313}5h[2000:377],,,,,,,,,,,,,,,,,,,,,,,,,,,,,,,,,,,,,,,,,,,,,,,,,,,,,,,,,,,
{16}1,,,2/7,,,3,4,3,
{16},,2/5,,,6,5,6,,,7/4,,,2/1,,8/7,
{16},,6,,5/7,,4,5,,,3,,2/4,,5,4,
{16},,7/2,,1,8,,7/2,,2/7,,,6h[8:1],,3h[8:1],,
{16}8h[16:3],,,1,,,6,5,6,,,7/4,,,3,4,
{16}3,,,2/5,,,1,8,1,,,2/7,,,4,5,
{2}4q5[4:1],7p6[4:1],
{2}2q3[4:1],8q1[4:1],
{16}2,,,,4,5h[8:5],,6,,6,,6,,6,,6q3[8:1],
{16},,,,,8,7,6<3[16:3],,,,,,,,,
{2}2z6[4:1],7s3[4:1],
{16}2,,,,5,4h[8:5],,3,,3,,3,,3,,3p6[8:1],
{16},,,,1,,,,2/7,,,,3,6,4,5h[16:5],
{16},,,,1,4/8,,,4/8,1/5,,,3b/6b,,1b/8b,,
{16}4,4h[8:3],,3,,2,,1,,,8/3,,7/2,,6/1,,
{623}5,,,,,,,,,,,,,,,,,,,,,,,,,,,,,,,,,,,,,,,
{993}5h[1251:469],,,,,,,,,,,,,,,,,,,,,,,,,,,,,,,,,,,,,,,,,,,,,,,,,,,,,,,,,,,,,,,,,,,,,,,,,,,,,,,,,,,,,,,,,,,,,,,,,,,,,,,,,,,,,,,,,,,,,,,,,,,,
{8}6,7,
{16}8,,,1/6,,2/7,,3/8,,
{8},4^1[8:1],1^6[8:1],,,5^8[8:1],8^3[8:1],,
{8},4^1[8:1],1^6[8:1],,,5,5/4,,
{623}5,,,,,,,,,,,,,,,,,,,,,,,,,,,,,,,,,,,,,,,
{993}5h[1251:469],,,,,,,,,,,,,,,,,,,,,,,,,,,,,,,,,,,,,,,,,,,,,,,,,,,,,,,,,,,,,,,,,,,,,,,,,,,,,,,,,,,,,,,,,,,,,,,,,,,,,,,,,,,,,,,,,,,,,,,,,,,,
{8}6,7,
{16}8,,,6/1,,7/2,,8/3,,
{16}4,4h[8:3],,3,,2,,1,,,3/8,,2/7,,1/6,,
{8},5^8[8:1],8^3[8:1],,,4^1[8:1],1^6[8:1],,
{8},5^8[8:1],8^3[8:1],,,4,5/4,,
{16}2b/7b,,,,1,8,,6/7,,6/8,,1/6<3[4:1],,2/6,,6/3,
{16},,,,4,,5,,6/3,,,1h[16:7],,,8h[4:1],,
{8},,1^4[8:1]/8^5[8:1],,,,5/4,2/7,
{8},2,1,3/8,,7,1/6,,
{16}7b/2b,,,,8,1,,2/3,,1/3,,8/3>6[4:1],,3/7,,6/3,
{16},,,,5,,4,,6/3,,,8h[16:7],,,1h[4:1],,
{8},,1p4[8:1]/8q5[8:1],,,,4/5,7/2,
{8},7,8,1/6,,2,8/3,,
{2}7p4[4:1],2q5[4:1],
{16}6,,,,4/7,,6/3,,5,4,,5/3,,6/4,,2/7,
{2}2q5[4:1],7p4[4:1],
{16}3,,,,5/2,,6/3,,4,5,,4/6,,5/3,,7/2,
{2}7q2[4:1],3q6[4:1],
{16}8,,,,7/1,,8/2,,1,8,,7/2,,6/3,,4>5[16:7]/5<4[16:7],
{8},5/4,,,,,6/3,,
{16}4,5,4,5,,2,7,2,6,3,6,3,,1b/8b,,,
{8}2,3/1,8,1/7,6,7/8,1,2/8,
{8}7,8/6,1,8/2,3,1/2,8,7/1,
{8}6,7/5,3,4/2,1,5/6,8,4/3,
{16}1,8,2,7,3,6,4,5,3,6,2,7,1,,4b/8b,
E
