&title=B.B.K.K.B.K.K.
&artist=nora2r
&wholebpm=170
&demo_seek=11.3
&demo_len=12.5
&lv_1=3
&lv_2=6
&lv_3=8+
&lv_4=12+
&lv_5=14
&des_4=Jack
&des_5=mai-Star
&inote_1=(170.0){1},,,,,
{1}1,
{1}1,
{1}8,
{1}8,
{1}7,
{1}6,
{1}5,
{2}4,4b,
{1}3,
{1}2,
{1}1,
{1}8h[2:1],
{1}1-4[4:3],,
{1}8-5[4:3],,
{1}2-5[4:3],,
{1}7-4[4:3],,
{2}3,3,
{2}4,4,
{2}5,5,
{2}6,6,
{2}7,7,
{2}8,8,
{2}1,1,
{2}2,2,
{2}3,3,
{2}4,4,
{2}5,5,
{2}6,6,
{1}5h[1:1],,
{1}5-8[4:3],,
{1}1,
{1}2,
{1}3,
{1}4,
{1}3,
{1}2,
{1}1,
{1}8,
{2}8,8,
{2}7,7,
{2}6,6,
{2}5,5,
{2}6,6,
{2}7,7,
{2}8,8,
{1}1b/8b,
{4}1,1,1,,
{4}8,8,8,,
{4}7,7,7,,
{4}8,8,8,,
{4}1,1,1,,
{4}2,2,2,,
{4}3,3,3,,
{4}4,4,4,,
{2}5,6,
{2}7,8,
{2}1,1,
{2}8,7,
{2}7,6,
{2}5,4,
{2}3,2,
{1}1h[2:1],
{1}8-5[4:3],,
{1}4-1[4:3],,
{1}7-4[4:3],,
{1}3-8[4:3],,
{1}8/1,
{1}8/1,
{1}2/7,
{1}2/7,
{1}3/6,
{1}3/6,
{2}4/5,4/5,
{1}5/4,
E
&inote_2=(170.0){1},,,,,,,,
{1}5/4,
{2}4,5,
{2}4,5,
{2}4,5,
{2}4,5/4,
{2}5,6,
{2}7,8,
{2}1,2,
{2}3,4,
{4}5,5,5,,
{4}4,4,4,,
{4}6,6,6,,
{4}3,3,3/4,,
{4}2,2,2,,
{4}7,7,7,,
{4}1,1,1,,
{1}1b/8b,
{4}1,1,1,1,
{4}8,8,8,,
{4}1,1,1,1,
{4}8,8,8,,
{4}4,4,4,4,
{4}5,5,5,,
{4}4,4,4,4,
{4}5,5,5,,
{4}4,4,5,5,
{4}4,5,5,,
{4}4,4,5,5,
{4}3,3,6,,
{4}4,4,5,5,
{4}4,5,5,,
{4}4,4,5,5,
{1}4b/5b,
{1}2/1,
{1}4/3,
{1}6/5,
{1}8/7,
{1}8/1,
{1}7/6,
{1}5/4,
{1}3/2,
{2}8/1,2,
{2}2/1,7,
{2}8/7,6,
{2}6/5,3,
{4}3/4,,5,5,
{4}5/4,,1,1,
{4}1/8,,1,8,
{1}1-5[4:1],
{4}3,4,3,,
{4}6,5,6,,
{4}3,4,3,,
{4}6,5,6,,
{4}3,4,3,4,
{4}5,5,6,,
{4}6,5,6,5,
{4}4,4,3,,
{4}2,1,2,1,
{4}8,7,8,,
{4}7,8,7,8,
{4}1,2,1,,
{4}2,2,3,3,
{4}4,4,5/4,,
{4}6,6,7,7,
{1}1h[2:1]/8h[2:1],
{4}1,1,2,2,
{4}1,1,8/7,,
{4}7,8,7,8,
{4}7,6,5/4,,
{4}5,5,6,6,
{4}5,5,4/3,,
{4}3,4,3,4,
{4}3,2,1/8,,
{4}1,2,1,2,
{4}3,4,6/5,,
{4}5,6,5,6,
{4}7,8,2/1,,
{4}1,2,3,4,
{4}5,6,7,8,
{4}1,8,2,7,
{1}1h[4:3]/8h[4:3],
{1}7b/2b,
E
&inote_3=(170.0){1},
{4}7,7,7,7,
{4}7,8,7,,
{4}2,2,2,2,
{4}2,1,2,,
{4}1,1,8,8,
{4}1,8,8,,
{4}4,4,5,5,
{1}4-1[8:3]/5-8[8:3],
{4}2h[4:1],3,7h[4:1],6,
{4}2h[4:1],4,7h[4:1],5,
{4}1h[4:1],3,8h[4:1],6,
{4}1h[4:1],8,1/8,2b/7b,
{2}5-8[8:1],1-4[8:1],
{2}7-4[8:1],3-7[8:1],
{2}8-5[8:1],1-4[8:1],
{2}8-5[8:1],1-5[8:1],
{1}8h[1:1],
{1}6h[1:1],
{1}4h[1:1],
{4}2h[2:1],,8,1b,
{4}6,5/6,6,5/6,
{4}3,4/3,3,4/3,
{4}7,7/8,7,7/8,
{1}2q5[2:1],
{4}3/4,4/3,5/6,6/5,
{4}4/3,6/5,5/6,,
{4}2/3,4/3,6/7,5/6,
{4}3/4,3/4,5/6,5/6,
{4}4/3,3/4,6/5,6/5,
{4}4/3,6/5,6/5,,
{4}2/3,4/3,6/7,5/6,
{8}6/5,,6/5,5/6,5/6,5/6,5/6,5/6,
{4}5/6,6/5,3/4,3/4,
{4}6/5,3/4,4/3,,
{4}6/7,5/6,3/2,3/4,
{4}6/5,5/6,4/3,3/4,
{4}5/6,6/5,3/4,3/4,
{4}6/5,3/4,4/3,,
{4}7/6,5/6,3/2,3/4,
{1}8/1,
{4}8/1,,1,8,
{4}8/1,,2,7,
{4}7/2,,3,6,
{4}6/3,,3/6,5/4,
{4}6/3,,4/3,5/4,
{4}5/6,,7/5,6/4,
{4}5/3,,1/2,8/1,
{4}7/8,,8/1,2/7,
{4}1,1,3,3,
{4}5,5,7,7,
{4}8,8,6,6,
{4}4,4,2,2,
{4}3,3,4,4,
{4}5,5,6,6,
{8}4,4,4,4,5,5,5,5,
{4}3/6,6/3,,,
{4}1/2,1/2,8/7,7/8,
{4}1/2,8/7,7/8,,
{4}2/1,3/8,7/8,1/6,
{4}8/3,1/2,6/1,7/8,
{4}1/2,2/8,7/8,7/1,
{4}1/8,2/7,2/7,,
{4}2/7,7/2,8/1,1/8,
{8}1/8,,8/1,1/8,8/1,8/1,1/8,1b/8b,
{8}1/8,,3/4,,7/8,8/7,8/7,,
{4}1/8,6/5,3/4,3/4,
{8}5/4,,1/2,,5/6,5/6,6/5,,
{4}4/5,7/8,3/4,3b/4b,
{8}3,4,3,,6,5,6,,
{4}7/8,5/6,3/4,2/1,
{1}7h[4:3]/2h[4:3],
{8}1,1,7,7,3,3,5b,,
{4}2/1,3/4,5/6,8/7,
{4}8/7,5/6,3/4,1/2,
{2}7-4[8:1],2-5[8:1],
{4}6,2-5[8:1]/7-4[8:1],,,
{4}3,7/3,7,3/7,
{4}7/3,3/7,2/6,5/1,
{4}1,5/1,5,5/1,
{4}1/5,2/6,3/7,4/8,
{2}1-3[8:1],8-4[8:1],
{2}1-5[8:1],8-6[8:1],
{4}3,2,1,7/8,
{4}6,7,8,2/1,
{2}2-7[8:1],6-3[8:1],
{2}2-7[8:1],6-3[8:1],
{8}4,4,6,6,2,2,8,8,
{2}1b,
{8}2-6[8:1],,,,
E
&inote_4=(170.0){1},
{4}3/5h[2:3],3,8,8,
{4}3,8,8,,
{4}6/4h[2:3],6,1,1,
{4}6,1,1,,
{4}4/5h[2:3],4,7,7,
{4}4,7,7,,
{4}5/4h[1:1],5,2,2,
{4}5,1-5[8:1],8-4[8:1],1b,
{16}2/6,,,5/3,,,4,,7/3,,,6/4,,,5,,
{16}2/6,,,3/5,,,4,,7/3,,,6/4,,,5,,
{16}7/1,,,5/3,,,4,,8/2,,,6/4,,,5,,
{16}1/7,,,2,,,7,,4-7[8:1]/5-2[8:1],,,,,,,,
{16}2/6,,,5/3,,,4,,7/3,,,4/6,,,5,,
{16}2/6,,,5/3,,,4,,3/7,,,6/4,,,5,,
{16}1/7,,,2/6,,,4,,2/8,,,7/3,,,5,,
{16}4/3,,,5/2,,,7/8,,5/6,,,4/7,,,1/2,,
{2}8q5[4:1],2p5[4:1],
{2}7q5[4:1],3p5[4:1],
{2}6q5[4:1],4p5[4:1],
{2}1-5[8:1],4-8[8:1]/6-2[8:1],
{2}1p4[4:1],7q4[4:1],
{2}2p4[4:1],6q4[4:1],
{2}3p4[4:1],5q4[4:1],
{4}8q1[2:1],,,8b,
{8}7,7,6,6,5,5,4,4,
{8}3,2,1-4[8:1],8,7-3[8:1],,,,
{8}2,2,3,3,4,4,5,5,
{8}6,7,8-5[8:1],1,2-6[8:1],,,,
{8}5,5,4,4,6,6,3,3,
{8}7,2,1-6[8:1]/8-3[8:1],,,,4/5,,
{8}7,6,5,4,2,3,4,5,
{8}6,,4/7,4/7,5/2,2/5,8/1,1/8,
{8}2,4,2,4,1,4,1,4,
{8}8,4,8,4,3^6[8:1]/7^2[8:1],,,,
{8}7,5,7,5,8,5,8,5,
{8}1,5,1,5,2^7[8:1]/6^3[8:1],,,,
{16}6h[8:3],,,5,,,7,,8-4[8:1],,,,1,,,,
{16}3h[8:3],,,4,,,2,,1-5[8:1],,,,8,,,,
{8}4/6,4/6,2/5,2/5,7/3,7/3,1/8,1/8,
{4},8-4[8:1],1-5[8:1],8b,
{8}4h[1:1],,,,3,2,1,8,
{8}7h[1:1],,,,6,5,4,3,
{8}2h[1:1],,,,3,4,5,6,
{8}7h[1:1],,,8,1,2,3,4,
{8}5h[1:1],,,,4,3,2,1,
{8}8h[1:1],,,,7,6,5,4,
{8}3h[1:1],,,,2,1,8,7,
{8}6h[1:1],,,7,8,1,2,3,
{8}4,,4,,4,6,4,7,
{8}5/8,,5,,5,3,5,2,
{8}4/1,,4,,4,6,4,7,
{8}1/8,,5,4,5,3,5,2,
{8}1/8,2,1/8,7,8/1,2,8/1,7,
{8}5/4,3,5/4,6,4/5,3,4/5,6,
{8}5/7,5/7,6/4,6/4,5/3,3/5,4/2,2/4,
{1}8b/1b,
{4}2-5[8:1],1,7-4[8:1],8,
{4}3-6[8:1],7-2[8:1],1,,
{4}7-4[8:1],8,2-5[8:1],1,
{4}6-3[8:1],2-7[8:1],8-4[8:1],,
{4}1-5[8:1],2,8-4[8:1],7,
{4}3-6[8:1],7-2[8:1],1,,
{4}8-4[8:1],7,1-5[8:1],2,
{8}6/3,,5/2,5/2,7/4,4/7,1/8,8/1,
{16}2h[16:3],,,4h[16:3],,,5,,6,,5,,4/7,,,,
{16}7h[16:3],,,5h[16:3],,,4,,6/3,,,,8/1,,,,
{16}7h[16:3],,,5h[16:3],,,4,,3,,4,,3,,4,,
{16}2h[16:3],,,4h[16:3],,,5,,3/6,,,7/2,,,1/8,,
{16}7h[16:3],,,8h[16:3],,,1,,2,,1,,3/8,,,,
{16}2h[16:3],,,1h[16:3],,,8,,7/1,,,,2/8,,,,
{16}7/6,,,,3/2,,,,5/4,,,6/1,,,8/3,,
{16}2,,7,,
{12}1,
{995}1,,,,,,,,,,,,,,,,,,,,,,,,,,,,,,,,,,,,,,,,,,,,,,,,,,,,,,,,,,,,,,,,,,,,,,,,,,,,,,,,,,,
{24}1,,8,,,4,,,6b/2b,,,,,,
{16}1,,,2/8,,,3/7,,8,,,7/1,,,6/2,,
{16}5,,,4/6,,,7/3,,4-8[8:1],,5-1[8:1],,,,,,
{16}2,,,1/3,,,4/8,,7,,,8/6,,,5/1,,
{16}4,,,3/5,,,6/2,,7-3[8:1],,8-4[8:1],,,,,,
{16}7,,,8/6,,,1/5,,2,,,3/1,,,8/4,,
{16}5,,,4/6,,,3/7,,2-6[8:1],,1-5[8:1],,,,,,
{16}8,,,7/1,,,2/6,,1,,,2/8,,,3/7,,
{16}4,,,3/5,,,6/2,,4-8[8:1]/5-1[8:1],,,,,,,,
{16}7/4,,6,5,,,8/1,,2/5,,3,4,,,8/1,,
{16}3/6,,5,4,,,1/8,,7,,8,,1,,2,,
{16}3/8,,2,1,,,4/5,,6/1,,7,8,,,5/4,,
{16}7/2,,1,8,,,5/4,,6,,5,,4,,3,,
{16}5/2,,3,4,,,1/8,,7/4,,6,5,,,1/8,,
{16}6/3,,4,5,,,1/8,,2,,4,,5,,7,,
{8}8/2,2/8,7/3,3/7,6/4,4/6,5/1,5/1,
{4}2-5[8:1],7-4[8:1],1-6[8:1],8-3[8:1],
{8}1b,,
E
&inote_5=(170.0){1},
{8}1,8,1,8,1,1,8,8,
{8}1,8,2,7,1/8,,1/8,,
{8}4,5,4,5,3,4,5,6,
{8}2/7,,2/6,3/7,4/8,5/1,,,
{8}1/4,,2/3,,7/6,5/6,4/5,4/3,
{8}5/8,,6/7,7/8,1/8,1/2,,,
{8}1/5,,3/7,,8/4,2/6,3/7,1/5,
{8},,7-3[8:1],7,2-6[16:1],,2b/7,,
{16}1,,3,4,,,6,5,,,1,3,,,8,6,
{16},,4,7,,,5,2,,,1,7,,,6,4,
{16},,2,6,,,8,5,,,1,4,,,5,4,
{16},,1/8,8/1,,,3/6,,7-3[8:1],,,,4-1[8:1],,,,
{4}1-4[8:1],4-1[8:1],1-4[8:1],7-3[8:1],
{4}3-7[8:1],7-3[8:1],3-7[8:1],1-5[8:1],
{4}5-1[8:1],1-5[8:1],5-1[8:1],,
{2}3-6[8:1]/8-5[8:1],1-5[8:1]/2-5[8:1],
{16}1,,2,3h[2:1],,2,,1,,8,,7,,8,1,,
{16}8,,7,6h[2:1],,7,,8,,1,,2,,1,3,,
{16}2/5,,3,4,,7/3,,2/6,,1/5,,8/4,,2,6,,
{16}1/8,,3/6,4/5,,7,,2,7-3[8:1],,,,7b,,,,
{16}3,,8,1h[8:3],,6,,3,,8,,1,,7,2,,
{16}6,,1,8h[8:3],,3,,6,,1,,8,,2,7,,
{16}4,,8,1h[8:3],,6,,5,,4,,3,,5,4,,
{1}2^7[8:3]/6q3[8:3],
{8}3/1,3,6/4,4,3/1,3,6/4,4,
{8}1/3,3,6/4,4,4/6h[4:1],4,3,3,
{8}6/8,6,5/3,5,8/6,6,5/3,5,
{8}6/8,6,8/6,6,5/3,,3/5,,
{8}2/1,2,2/3,2,2/8,2,2/4,2,
{8}7/8,7,7/6,7,7/1h[4:1],8,2,7,
{8}1/3,3,5/3,3,6/8,6,4/6,6,
{8}7/2,,8/6,3/4,6/5,3/1,8/1,4/5,
{8}8-4[8:1],2,4-8[8:1],3,8-4[8:1],2,4-8[8:1],1,
{8}8-4[8:1],2,4,,2v3[8:1]/4q1[8:1],,,,
{8}1-5[8:1],7,5-1[8:1],6,1-5[8:1],7,5-1[8:1],8,
{8}1-5[8:1],7,5,,5p8[8:1]/7v6[8:1],,,,
{8}5/1,1,2/6,6,7/3,3,8/4,8,
{8}4/8,3/7,6/2,5/1,4/3,7/8,6/5,1/2,
{16}8,4,8,4,5,1,5,1,6,2,6,2,3/7,6/2,1/5,4/8,
{8},,7,2,8/1,,7b/6v1[8:1],,
{8}7v4[8:1],,,,7,8,1p4[8:1],2,
{8}3-7[8:1],,,,8,1,7v4[8:1],1,
{8}2-7[8:1],,,,5-8[8:1],8-3[8:1],3-8[8:1],2,
{8}2,,,7,1,8p3[8:1],2p5[8:1],,
{8},,,,2,1,8-4[8:1],7,
{8}6-2[8:1],,,,1,8,2v5[8:1],8,
{8}7-2[8:1],,,,4-1[8:1],1-6[8:1],6-1[8:1],7,
{8}7,,,2/1,3/8,4/7,8/7,6/1,
{8}2^7[8:1]/5q2[8:1],,,,2/8,2,2/4,2,
{8}2v8[8:1]/8<4[8:1],,,,8/6,8,2/8,8,
{8}6>2[8:1]/8v6[8:1],,,,6/4,6,6/8,6,
{8}6/4,,4,2/1,1/8,7/8,3/4,4/5,
{8}6/5,7,6/5,4,6/5,8,6/5,3,
{8}4/2,3,4/2,3,6/8,7,8/6,7,
{16}1,5,1,5,7,5,7,5,3,5,3,5,1,5,3,7,
{8}1b,,8b,7,8^5[8:1],1,2,3,
{4}8/5-2[8:1],5/8-5[8:1],8/2-7[8:1],2/5v4[8:1],
{4}5/7^2[8:1],7,1-5[8:1]/2-5[8:1],,
{4}1/4-7[8:1],4/1-4[8:1],1/7-2[8:1],7/4v5[8:1],
{4}4/2^7[8:1],2,1-5[8:1]/2-5[8:1],,
{4}8/2-6[8:1],2/8-4[8:1],8/6-2[8:1],6/4-8[8:1],
{4}4,1q6[8:1]/7q4[8:1],,,
{4}8/2-6[8:1],2/8-4[8:1],8/6-3[8:1],4p5[8:1],
{8},,1/3,6/5,3/4,6/8,5/4,8/1,
{16}7h[8:3],,,6,,,8,,2q5[4:1],1,,,7,,,,
{16}4,,,8,,,1-4[8:1]/5-8[8:1],,4-1[8:1]/8-5[8:1],,,,,,,,
{16}4/8,,,3/7,,,2-7[8:1]/6-3[8:1],,3-6[8:1]/7-2[8:1],,,,,,,,
{16}2,,2,3,,3,4,,4,5,,5,6,,7,,
{16}2h[8:3],,,
{250}3,,,,,,,,,,,,,,,,,,,,,,,,,,,,,,,,,,,,,,,,,,,,,,,
{249}1,,,,,,,,,,,,,,,,,,,,,,,,,,,,,,,
{16}7p4[4:1],8,,,2,,,,
{16}5,,,1,,,2v5[8:1]/7v4[8:1],,4<8[8:1]/5>1[8:1],,,,,,,,
{16}4/8,,1,5,,3,7,,1/5,,8,4,,6,2,,
{16}8/7,,4/3,,
{12}6/2,
{995}3/7,,,,,,,,,,,,,,,,,,,,,,,,,,,,,,,,,,,,,,,,,,,,,,,,,,,,,,,,,,,,,,,,,,,,,,,,,,,,,,,,,,,
{24}8/4,,1/2,,,5/6,,,2/1,,,,,,
{16}1,,5q2[8:1],4,,,,,4,,8p3[8:1],1,,,,,
{16}2,,7,6,,,1,,5<2[8:1],,4p5[8:1],,,,,,
{16}8,,4p7[8:1],5,,,,,5,,1q6[8:1],8,,,,,
{16}8,,3,4,,,1/6,,1,8,1,8,2/7,,1/8,,
{16}4/5,,3,4,,,6/1,,5/4,,6,5,,,8/3,,
{16}2/1,,7/4,5/6,,,1/5,,2/6,,5/1,,8/4,,7/2,,
{16}8/4,,2,6,,,5/1,,8/3,,5,1,,,2/6,,
{16}6/3,,4,5,,,8/1,,7-3[8:1]/8-3[8:1],,1/6,,,,,,
{16}1h[16:3],,3p6[8:1],3,,,,,8h[16:3],,6q3[8:1],6,,,,,
{16}4h[16:3],,2^7[8:1],2,,,,,4-1[8:1],,7v5[8:1],,,,,,
{16}1,,7-3[8:1],5,,,1,,2,,8-4[8:1],6,,,2,,
{16}1,,8,1,,,2/7,,4,5,4,5,3/6,,4/5,,
{16}1/8,,7,8,,,5/2,,1/8,,2,1,,,7/4,,
{16}6/5,,8/3,2/1,,,8/4,,3/7,,4/8,,5/1,,6/2,,
{16}1,5,3,7,2,6,4,8,1,5,3,7,6/2,3/7,8/4,1/5,
{4}6b/2b,,2-6[8:1],2b/7-3[16:1],
{16}7b,,
E
