&title=緋色のDance
&artist=岸田教団&THE明星ロケッツ
&wholebpm=155
&demo_seek=64
&demo_len=13
&lv_1=2
&lv_2=5
&lv_3=7+
&lv_4=10+
&lv_5=13
&lv_6=13+
&des_4=はっぴー
&des_5=Jack
&des_6=はっぴー
&inote_1=(155.0){1},,,,,
{1}1h[1:1],,
{1}1h[1:1],,
{1}1,
{1}1,
{1}8,
{1}8,
{1}7,
{1}7,
{1}6,
{1}6b,
{1}5h[1:1],,
{1}5h[1:1],,
{1}4,
{1}4,
{1}3h[1:1],,
{1}2,
{1}2,
{1}1,
{1}1,
{1}8,
{1}8,
{1}7h[1:1],,
{1}8/7,
{1}8/7,
{1}8/1,
{1}1/8,
{1}1/2,
{1}1/2,
{1}1/8,
{1}8b/1b,,
{1}1-5[4:3],,
{1}8-4[4:3],,
{1}1,
{1}1,
{1}8h[1:1],,
{1}7-3[4:3],,
{1}2-6[4:3],,
{1}7,
{1}7,
{1}8h[1:1],,
{1}1,
{1}1,
{1}2,
{1}2,
{1}3,
{1}3,
{1}4,
{1}5b/4b,
E
&inote_2=(155.0){1},,,,,
{1}3h[2:1],
{2}4,4,
{1}6h[2:1],
{2}5,5,
{4}4,4,4,,
{4}5,5,5,,
{4}6,6,6,,
{4}7,7,7,,
{4}8,8,8,,
{4}1,1,1,,
{4}8,1,8,,
{1}1b/8b,
{2}2,3,
{1}4h[2:1],
{2}5,4,
{1}3h[2:1],
{1}1-5[4:3],,
{2}6,7,
{1}8/7,
{2}7,6,
{1}5h[2:1],
{2}4,5,
{1}6h[2:1],
{1}8-4[4:3],,
{2}3,2,
{1}1b/2b,
{2}4/3,4,
{2}5/6,5,
{1}4-1[4:3],,
{2}2/1,1,
{2}7/8,8,
{4}1,1,8,8,
{1}7b/2b,,
{4}1,1,2,,
{4}3,3,4,,
{4}5,5,6,,
{1}7h[2:1],
{4}8,8,7,,
{1}5h[2:1]/4h[2:1],
{4}2,2,3,,
{1}5h[2:1]/4h[2:1],
{4}8,8,7,,
{4}6,6,5,,
{4}4,4,3,,
{1}2h[2:1],
{4}1,1,2,,
{1}5h[2:1]/4h[2:1],
{1}6h[2:1]/3h[2:1],
{1}6b/3b,
{4}2,2,2,,
{4}3,3,3,,
{4}4,4,4,,
{4}5,5,5,,
{4}6,6,6,,
{4}7,7,7,,
{4}8,8,8,,
{1}1-5[4:3],,
E
&inote_3=(155.0){1},
{8}4/5,4/5,,,,,2/7,,
{4}3,4,5,6,
{8}4/5,4/5,,,,,7/2,,
{4}6,5,4,3,
{8}1/8,1/8,,,,,3/6,,
{4}2,1,8,7,
{8}1/8,1/8,,,,,6/3,,
{4}7,8,1,2,
{4}3,3/4,,5/6,
{4},2/4,,5/7,
{4}6,5/6,,3/4,
{4},5/7,,4/2,
{4}3,3/4,,2/5,
{4},3/6,,4/7,
{4}6,5/6,,7/4,
{8}8/2,2b/8b,,7/1,7b/1b,,,,
{4}5,4,3,2^5[8:3],
{4},,,3,
{4}4,5,6,7^4[8:3],
{4},,,3,
{4}2,7/8,,6,
{4}7,1/2,,4,
{4}5,6,7,8-4[4:1],
{4},,,5,
{4}6,7,8,1^6[8:3],
{4},,,4,
{4}3,2,1,8^3[8:3],
{4},,,4,
{4}5,6/8,,5,
{4}4,1/3,,2,
{4}1,8,7,6<2[2:1],{1},
{4}3,4,3,5/2,
{4}6,5,6,7/4,
{4}8,1,7,2,
{1}3>7[2:1],
{4}6,5,6,7/4,
{4}3,4,3,2/5,
{4}1,8,2,7,
{8}6/4,6/4,,5/3,5/3,,7b/2b,,
{4},,,5,
{4}4,3,2,1-5[4:1],
{4},,,4,
{4}5,6,7,8-4[4:1],
{4},,,1,
{4}2,3,4,5-1[4:1],
{4},,,8,
{4}7,6,5,4-8[4:1],
{4},,,1,
{4}2/8,3/7,4/6,5-1[4:1],
{4},,,8,
{4}7/1,2/6,5/3,4-8[4:1],
{4},,,1,
{4}2/6,3/7,4/8,1-5[4:1],
{4},,,4,
{4}5/3,6/2,7/1,8-4[4:1],{1},
{4}2,3,4,5/6,
{4}7,6,5,4/3,
{4}2,1,2,3/8,
{4}7,8,7,6/1,
{4}5,4,3,2/7,
{4}3,4,5,6/3,
{4}2,7,3,5/4,
{8}7/1,1b/7b,,2/8,8b/2b,
E
&inote_4=(155.0){1},
{8}8,8-4[8:1],,,,,3/5,,
{8}1,1-5[8:1],,,,,4/6,,
{8}7,7-3[8:1],,,,,2/4,,
{8}2,2-6[8:1],,,,,5/7,,
{8}8/7,7-4[8:1]/8-4[8:1],,,,,5/3,,
{8}2/1,1-5[8:1]/2-5[8:1],,,,,4/6,,
{8}8/7,7-4[8:1]/8-4[8:1],,,,,3/5,,
{8}6,5,,3,4,,2b/7b,,
{8}6,6,,3,4,3,,6,
{8}5,6,,2,4,3,,7,
{8}5,6,,2,5,3,,7,
{8}4,6,,4/3,,2/5,,3,
{8}4,3,,7,5,6,,2,
{8}4,3,,7,4,6,,2,
{8}5,3,,6,3,5,4/5,,
{8}4/3,3/4,,6/5,6/5,,,,
{16}2,,,,4/3,,,,7h[16:3],,,6h[16:3],,,5,,
{8}5,,6/4,,3,5,2/4,,
{16}7,,,,5/6,,,,2h[16:3],,,3h[16:3],,,4,,
{8}4,,5/3,,6,4,5/7,,
{8}2h[4:1],,3,,6,5,7/4,,
{8}7h[4:1],,6,,3,4,5/2,,
{8}7h[8:3],,,8,8h[8:3],,,1,
{1}1<3[2:1],
{16}6/8,,,,6/5,,,,1h[16:3],,,2h[16:3],,,3,,
{8}3,,4/2,,7,6,5/8,,
{16}3/1,,,,3/4,,,,8h[16:3],,,7h[16:3],,,6,,
{8}6,,5/7,,2,3,4/1,,
{8}7h[4:1],,8,,3,4,5/2,,
{8}2h[4:1],,1,,6,5,7/4,,
{8}2h[8:3],,,1,1h[8:3],,,8,
{1}8>6[2:1],
{16}3,,,,2/8,,,,4h[16:3],,,5h[16:3],,,6,,
{16}6,,,,7/1,,,,5h[16:3],,,4h[16:3],,,3,,
{16}3,,,,2/8,,,,4h[16:3],,,5h[16:3],,,6,,
{8}6,,1/7,,6,5,4/6,,
{16}6,,,,1/7,,,,6h[16:3],,,5h[16:3],,,4,,
{16}3,,,,2/8,,,,3h[16:3],,,4h[16:3],,,5,,
{4}3/4,4/7,5b/6b,,
{16}3,4,3,4,,,6,5,6,5,,,1s5[4:1],,,,
{4},,5/4,6b/3b,
{16}7/1,,,,8,,,3,4,,4,,3/5,,,,
{16}8/2,,,,1,,,6,5,,5,,6/4,,,,
{16}7/1,,,,8,,,3,4,,4,,5/3,,,,
{16}2/8,,,,1,,,6,5,,5,,4/6,,,,
{16}1/3,,,,5/6,,,2,1,,1,,2/8,,,,
{16}8/6,,,,3/4,,,7,8,,8,,1/7,,,,
{8}6,5,4,3,,4b/7b,,2b/5b,
{8},8,8-4[8:1],,,,1,2,
{16}3,,,,8,,8,,7h[16:3],,,6h[16:3],,,5,,
{16}5,,,,2/4,,,3,4,,4,,2,,1,,
{16}8,,,,1,,1,,2h[16:3],,,3h[16:3],,,4,,
{16}4,,,,5/7,,,6,5,,5,,7,,8,,
{16}3,,,,8,,8,,7h[16:3],,,6h[16:3],,,5,,
{16}5,,,,4/2,,,3,4,,4,,2,,1,,
{8}8,7,6,5,,2,2-4[8:1],,
{4}8-6[8:1],1-5[8:1],,,
{8}6,5,,2,4,3,,7,
{8}5,6,,2,8,1,,7,
{8}1,8,,2,8,3,,7,
{8}1,6,,3/4,,2/5,,7,
{8}1,8,,2,8,1,,7,
{8}1,6,,2,8,3,,6,
{8}2,8,,3,7,1,8/1,,
{16}3,5,3,5,,,6,4,6,4,
E
&inote_5=(155.0){1},
{8}1/8,8/1,,,1,8,2/7,,
{16}4/5,,3,4,,6,5,,7,,8,,1,,2,,
{8}3/4,3/4,,,3,4,5/2,,
{8}1/8,
{721}7,,,,,,,,,,,,,,,,,,,,,,,,,,,,,,,,,,,,,,,,,,,,,,
{865}8,,,,,,,,,,,,,,,,,,,,,,,,,,,,,,,,,,,,,,,,,,,,,,,,,,,,,,,,,,,,,,,,,,,,,,,,,,,,,,,,,,,,,,,,,,,,,,,,,,,,,,,,,,,
{16}2,1,,3,,4,,5,,6,,
{8}7/8,7/8,,,7,8,1/6,,
{16}4/5,,2,4,,7,5,,6,,8,,1,,3,,
{8}5/4,5/4,,,4,5,3/6,,
{16}2/7,,6,1,,3,8,,2,7,2,7,2,7,2,7,
{8}3,4,3,2/5,6,5,6,4/7,
{8}6,7,8,1/2,3,2,1,7/8,
{8}6,5,6,4/7,3,4,3,2/5,
{8}3,4,5,6/3,2-6[8:1],8-4[8:1],,,
{16}3,,6,5,,3,4,,2,,1,,8,,7,,
{16}6,,3,4,,6,5,,7,,8,,1,,2,,
{16}1/8,,2,1,,7,8,,6,,5,,4,,3,,
{16}2,1,2,1,,,7,8,7,8,,,1b/8b,,,,
{8}3v4[8:1],,,5,5q2[8:1],,,1,
{8}1<4[16:3],,,,,1,8,7,
{8}6v5[8:1],,,4,4p7[8:1],,,8,
{8}8>5[16:3],,,,,7,8,1,
{8}2^7[4:1],,2h[4:1],,,6,5,4,
{8}3^6[4:1],,3h[4:1],,,7,8,1,
{8}2v3[10000:1251],,,1,1p4[8:1],,,8,
{8}8<2[4:1],,,,,1,8,7,
{8}6v5[8:1],,,4,4p7[8:1],,,8,
{8}8>6[4:1],,,,,8,1,2,
{8}3v4[8:1],,,5,5q2[8:1],,,1,
{8}1<3[4:1],,,,,2,1,8,
{8}7^2[4:1],,7h[4:1],,,3,4,5,
{8}6^3[4:1],,6h[4:1],,,2,1,8,
{8}7v6[8:1],,,8,8q5[8:1],,,1,
{8}1>8[4:1],,,,,1b,8b,,
{8}2^5[4:1],2,5^8[4:1],5,8-4[8:1],8,,,
{8}7^4[4:1],7,4^1[4:1],4,1-5[8:1],1,,,
{8}2^7[4:1],2,7-3[4:1],7,3^6[4:1],3,6q3[4:1],6,
{16}3p6[16:3],,3,,,,,,5,6,5,,4,3,4,,
{8}2>6[4:1],2,6-2[4:1],6,2<6[8:1],2,,,
{8}7<3[4:1],7,3-7[4:1],3,7>3[8:1],7,,,
{8}2-6[10000:1251],2,7-3[8:1],7,5-1[8:1],5,8b,,
{16}3,4,3,4,,,6,5,6,5,,,2/7,,,,
{16}1,8,1,8,1,,7,5,,2,4,,1b/8b,,,,
{16}2-5[8:1],,1,,2,,6,4,,3,5,,4/2,,,,
{16}7-4[8:1],,8,,7,,3,5,,6,4,,5/7,,,,
{16}3-8[8:1],,4,,3,,7,1,,2,8,,3/7,,,,
{16}6-1[8:1],,5,,6,,2,8,,7,1,,2/6,,,,
{16}8-4[8:1],,1/7,,8,,3,5,,6,4,,3/7,,,,
{16}1-5[8:1],,2/8,,1,,6,4,,3,5,,2/6,,,,
{16}4/7,,6,5,6,,2-6[8:1],,,,2/8-4[8:1],,,,1b/8b,,
{16},,3/2,,7/6,,,,5/4,,3,6,2,7,1,8,
{16}2-6[8:1],,4,,2,,7,8,,2,1,,8/3,,,,
{16}7-3[8:1],,5,,7,,2,1,,7,8,,6/1,,,,
{16}3-7[8:1],,5,,3,,6,5,,3,4,,2/5,,,,
{16}6-2[8:1],,4,,6,,3,4,,6,5,,4/7,,,,
{16}5-1[8:1],,4/6,,5,,2,8,,7,1,,6/2,,,,
{16}4-8[8:1],,5/3,,4,,7,1,,2,8,,7/3,,,,
{16}7/2,,1,8,1,,3/6,,,,4/5,,2/7,,,,
{16}4/3h[16:3],,,1,,,5/6h[16:3],,,8,,,3b,,7b,,
{16}1b,,2,3,,3,4,,4,5,3,6,4,5,2,,
{16}1/8,,7,6,,6,5,,5,4,6,3,5,4,7,,
{16}1/8,,2,3,,3,4,,4,5,2,7,3,6,1,,
{16}8/1,,7,6,,6,5,,5,4,7,2,6,3,8,,
{16}4/6,,5,3,,5,7,,4,6,3,7,2,8,1,,
{16}5/3,,4,6,,4,2,,5,3,6,2,7,1,8,,
{16}3/6,,4,2,,5,7,,1,8,2,7,3,6,4/5,,
{16}3,4,3,2/5,,,6,5,6,4/7,
E
&inote_6=(155.0){1},
{8}1-5[8:1],5<4[8:3],,,,,,,
{8}8-4[8:1],4>5[8:3],,,,,,,
{8}1-5[8:1],5<4[8:3],,,,,,,
{8}8-4[8:1],4>5[8:3],,,,,,,
{8}1-5[8:1],5<4[8:3],1p4[4:1],,,,,,
{8}8-4[8:1],4>5[8:3],8q5[4:1],,,,,,
{8}1-5[8:1],5<4[8:3],1p4[4:1],,,,,,
{8}8-4[8:1],4>5[8:3],8q5[4:1],,,,,,
{8}2-5[8:1],6-3[8:1],2p8[8:3],,,,,,
{8}7-4[8:1],3-6[8:1],7q1[8:3],,,,,,
{8}2-5[8:1],6-3[8:1],2p8[8:3],,,,,,
{8}7-4[8:1],3-6[8:1],7q1[8:3],,,,,,
{8}2-7[8:1],6-1[8:1],2q4[8:3],,,,,,
{8}7-2[8:1],3-8[8:1],7p5[8:3],,,,,,
{8}2-7[8:1],6-1[8:1],2q4[8:3],,,,,,
{16}7b,8b,7b,8b,,,3b,4b,3b,4b,,,,,,,
{2}2p4[8:1]/8p4[8:1],1q5[8:1]/7q5[8:1],
{1}2p1[2:1]/8<1[2:1],
{2}1q5[8:1]/7q5[8:1],2p4[8:1]/8p4[8:1],
{1}1>8[2:1]/7q8[2:1],
{4}2^5[8:1]/8^5[8:1],2p5[8:3]/8q5[8:3],,,
{4}1^4[8:1]/7^4[8:1],1p4[8:3]/7q4[8:3],,,
{2}3v8[8:1]/8p3[8:1],1q6[8:1]/6v1[8:1],
{1}7p2[8:3]/8<2[8:3],
{2}3q1[8:1]/5q1[8:1],4p8[8:1]/6p8[8:1],
{1}3q4[2:1]/5<4[2:1],
{2}4p8[8:1]/6p8[8:1],3q1[8:1]/5q1[8:1],
{1}4>5[2:1]/6p5[2:1],
{4}3^8[8:1]/5^8[8:1],3q8[8:3]/5p8[8:3],,,
{4}4^1[8:1]/6^1[8:1],4q1[8:3]/6p1[8:3],,,
{2}4p7[8:1]/7v4[8:1],2v5[8:1]/5q2[8:1],
{1}3p6[8:3]/4>6[8:3],
{4}1q5[8:1],8^3[8:1],7q3[8:1],6^1[8:1],
{4}5q1[8:1],4^7[8:1],3q7[8:1],2^5[8:1],
{4}1q5[8:1],8^3[8:1],7q3[8:1],6^1[8:1],
{4}5q1[8:1],4>5[8:3],,,
{4}8p4[8:1],1^6[8:1],2p6[8:1],3^8[8:1],
{4}4p8[8:1],5^2[8:1],6p2[8:1],7^4[8:1],
{4}8p4[8:1],1>8[8:3],,,
{16}6b,5b,6b,5b,,,3b,4b,3b,4b,,,
{4}2b/7b,{1},
{4}2^4[8:1]/7^5[8:1],2^8[8:1],2^4[8:1]/5^7[8:1],2^8[8:1],
{4}2^4[8:1]/7^5[8:1],2^8[8:1],2^4[8:1]/5^7[8:1],,
{4}2^4[8:1]/7^5[8:1],7^1[8:1],4^2[8:1]/7^5[8:1],7^1[8:1],
{4}2^4[8:1]/7^5[8:1],7^1[8:1],4^2[8:1]/7^5[8:1],,
{4}2-4[8:1]/7-5[8:1],2-8[8:1],2-4[8:1]/5-7[8:1],,
{4}2-4[8:1]/7-5[8:1],7-1[8:1],4-2[8:1]/7-5[8:1],,
{2}1-5[8:1]/6q2[8:1],3p7[8:1]/8-4[8:1],
{1}2v8[8:3]/6v4[8:3],
{4}1^3[8:1]/6^4[8:1],1^7[8:1],1^3[8:1]/4^6[8:1],1^7[8:1],
{4}1^3[8:1]/6^4[8:1],1^7[8:1],1^3[8:1]/4^6[8:1],,
{4}3^5[8:1]/8^6[8:1],8^2[8:1],5^3[8:1]/8^6[8:1],8^2[8:1],
{4}3^5[8:1]/8^6[8:1],8^2[8:1],5^3[8:1]/8^6[8:1],,
{4}1-3[8:1]/6-4[8:1],1-7[8:1],1-3[8:1]/4-6[8:1],,
{4}3-5[8:1]/8-6[8:1],8-2[8:1],5-3[8:1]/8-6[8:1],,
{2}2q6[8:1]/5-1[8:1],4-8[8:1]/7p3[8:1],
{4}6-1[8:1],3-8[8:1],5-1[8:1],,
{8}2-5[8:1],6-3[8:1],2-7[8:1],6-1[8:1],2^5[8:1],,,,
{8}7-4[8:1],3-6[8:1],7-2[8:1],3-8[8:1],7^4[8:1],,,,
{8}2-7[8:1],6-1[8:1],2-5[8:1],6-3[8:1],2^7[8:1],,,,
{8}7-2[8:1],3-8[8:1],7-4[8:1],3-6[8:1],7^2[8:1],,,,
{8}2-5[8:1],6-3[8:1],2-7[8:1],6-1[8:1],2^5[8:1],,,,
{8}7-4[8:1],3-6[8:1],7-2[8:1],3-8[8:1],7^4[8:1],,,,
{8}1-4[8:1],5-2[8:1],1-6[8:1],5-8[8:1],1^4[8:1],,,,
{16}2b,1b,2b,1b,,,6b,5b,6b,5b,
E
