&title=毒占欲
&artist=DECO*27
&wholebpm=117
&demo_seek=90
&demo_len=19.4
&lv_1=2
&lv_2=3
&lv_3=7
&lv_4=10+
&lv_5=13
&des_4=rioN
&des_5=mai-Star
&inote_1=(117.0){1},,,,,
{1}1,
{1}1,
{1}8,
{1}8,
{2}1,1,
{2}8,8,
{1}1h[2:1],
{1}8h[2:1],,
{1}1b,
{1}2,
{1}3,
{1}4,
{1}5,
{1}6,
{1}7,
{1}8,
{1}1/8,
{1}1-4[2:1],,
{1}8-5[2:1],,
{1}4h[1:1],,
{1}5h[1:1],,
{1}6,
{1}7,
{1}8,
{1}1,
{1}2b,
{1}2-7[2:1],,
{1}6-3[2:1],,
{1}2,
{1}2,
{1}1,
{1}1h[1:1],,
{2}8b,8,
{2}7,7,
{1}6h[2:1],
{1}5h[2:1],
{2}4,4,
{2}3,3,
{1}2h[2:1],
{1}1h[2:1],
{1}1-5[2:1],,
{1}8b,
E
&inote_2=(117.0){1},,,
{1}7,
{1}6,
{2}5,4,
{2}3,2,
{2}1,8,
{4}7,,6,6,
{2}5,3,
{4}1,,7,7,
{2}6,4,
{4}2,,8,8,
{1}7h[4:3],
{2},6,
{2}6,5,
{2}4/5,4,
{2}3,3,
{4}2,2,2,,
{2}1,8,
{4}7,7,7,,
{2}8,1,
{1}1b,
{4}8,,8/7,8/7,
{4},,6/5,6/5,
{4},,4/3,4/3,
{4},,2/1,2/1,
{2},2,
{2}3,4,
{2}4/5,5,
{2}6,7,
{4}8,8,8,,
{2}1/8,1/8,
{4}1,1,8,8,
{4}1,1,1b,,
{1}2h[2:1],
{1}1-4[4:3],,
{1}3-6[4:3],,
{1}5-8[4:3],,
{1}7-2[4:3],,
{2}1,1b,
{4}1/2,,2,2,
{4}2/3,,3,3,
{2}4/3,3/2,
{2}1/2,8,
{4}8/7,,7,7,
{4}6/7,,6,6,
{2}6/5,6/7,
{4}8/7,,1,1,
{1}1h[2:1],
{2}1/8,1,
{1}2b,
E
&inote_3=(117.0){1},
{2}4,5,
{2}3,6,
{2}3/5,4/6,
{8}3/4,,5/6,,8/1,1/8,1/8,,
{4}2,1/2,7,7/8,
{8}1,,1/8,,2/7,2/7,2/7,,
{4}3,3/4,6,6/5,
{8}4,,4/5,,2/7,2/7,2/7,,
{8}3,3,3,,5,5,5,,
{8}4,4,4,,6,6,6,,
{8}7,1,7,,2,8,2,,
{8}8,1,8,,1/8,1/8,
{4}1-4[2:1]/8-5[2:1],{1},
{4}3,3,4,4,
{8}5/6,,5/6,,4/7,,8,8,
{4}8,6,5,6,
{8}4/3,,4/3,,2/5,,1,1,
{8}1,,2/8,,1,1,1/8,,
{4}7,8/7,2,1/2,
{8}8,,1/7,,8,8,8/1,,
{4}2,1/2,7,8/7,
{4}1h[2:1]/8h[2:1],,,8b/1b,
{8}2,1,8,,7,8,1,,
{8}2,3,4,,5,4,5,,
{8}7,8,1,,2,1,8,,
{8}7,6,5,,4,5,3,6,
{4}2,1/3,8,1/7,
{8}6,,5/7,,4/6,,5,6,
{4}7,8/6,1,2/8,
{8}3,,2/4,,5/3,,4,3,
{4}2,2/1,7,7/8,
{4}6/5,4/3,2/1,7/8,
{8}1,1,8,8,2,2,7,7,
{4}1,2/7,6/3,4-1[2:1]/5-8[2:1],{1},
{2}2h[2:1],1h[2:1],
{2}8h[2:1],7h[2:1],
{2}6h[2:1],5h[2:1],
{4}4,3/6,7/2,1/8,
{2}7h[2:1],8h[2:1],
{2}1h[2:1],2h[2:1],
{4}3h[2:1],,4h[4:1],5,
{1}2h[4:3]/7h[4:3],
{8}3/4,,5/6,,8/1,1b/8b,,,
{8}2,2,2,2,1,1,1,1,
{8}8,8,8,8,7,7,7,,
{8}7/2,3,4,2/5,,6,5,7/4,
{8},3,3,2,2,1,8,,
{8}6,6,6,6,5,5,5,5,
{8}4,4,4,4,3,3,3,,
{8}3/6,7,8,6/1,,2,1,3/8,
{8},4/5,,3,2,1,8,7,
{2}6-3[8:1],2-5[8:1],
{2}7-4[8:1],1-5[8:1],
{1}8z4[4:3],,
E
&inote_4=(117.0){1},,,
{4}1,4,2,3,
{4}8,5,7,6,
{8}1,1,1,,5,5,5,,
{8}3,3,3,,7,7,7,,
{8}2,2,1/3,,6,6,5/7,,
{8}4,4,3/5,,8,8,7/1,,
{8}2,8/1,2/7,,6,4/5,6/3,,
{8}3,4/1,3/2,,7,8/5,7/6,,
{8}7/8,6/1,4/3,,5/6,4/7,1/2,,
{8}4/3,2/5,7/8,,2/1,3/8,5/6,,
{1}7h[4:3]/3h[4:3],
{8},2,2,2,1/4,1,1,1,
{8}5/8,8,8,8,6/7,8,1,2,
{8}3,6,6,6,5/8,5,5,5,
{8}1/4,4,4,4,2/3,4,5,6,
{8}7-2[16:1],,3-6[16:1],,1,8,7,,
{8}6,6,5,5,4,4,3,3,
{8}2-7[16:1],,6-3[16:1],,8,1,2,,
{8}3,3,4,4,5,5,6,6,
{4}7,2,7/2,6b/3b,
{16}1,,1,1,,,,,5,,5,5,,,,,
{16}3,,3,3,,,,,7,,7,7,,,,,
{16}1,,4,3,,,,,5,,8,7,,,,,
{16}3,,6,5,,,,,7,,2,1,,,,,
{8},3,3,3,5h[8:1],6h[8:1],7h[8:1],8h[8:1],
{8}1h[8:1],3h[8:1],4h[8:1],8h[8:1],7h[8:1],5h[8:1],2h[1681:215],4h[8:1],
{8}6b,6,6,6,4h[8:1],3h[8:1],2h[8:1],1h[8:1],
{8}8h[8:1],6h[673:85],5h[8:1],1h[8:1],2h[8:1],4h[8:1],7h[8:1],5h[8:1],
{8}3b,,6b,,7,6/8,5/1,,
{8}2/6,7/3,4/8,3/6,1/8,7/2,6/3,5/4,
{8}2,4,8,6,3,5,1,7,
{4}2h[4:1],6h[4:1],3h[4:1],5h[1:1],
{1}4h[4:3],
{2}1v2[8:1],8v7[8:1],
{2}3v4[8:1],6v5[8:1],
{2}1q8[8:1],7q6[8:1],
{2}2p3[8:1],5q4[8:1],
{2}1s5[8:1],8z4[8:1],
{2}2z6[8:1],7s3[8:1],
{4}2-4[5000:469],8-6[5000:469],1-5[8:1],7-5[5000:469],
{4}1-3[5000:469],8-4[8:1],1-5[8:1],8,
{8},7/2,7/2,7/2,8b/1b,8b/1b,,,
{16}5,,6,6,,,8/7,,4,,3,3,,,2/1,,
{16}1/8,,7/2,2/7,,,5/4,,1-5[16:1]/8-4[16:1],,,,,,,,
{8}4,3,2,1,5,6,7,8,
{8}8/1,2/8,8/3,4/8,8b/4b,4/7,4/6,4/5,
{16}4,,6,5,,,7/8,,7,,3,4,,,2/1,,
{16}4/5,,3/6,2/7,,,5/4,,2-6[16:1]/7-3[16:1],,,,,,,,
{8}1/5,6/2,7/3,4/8,1/5,8/4,7/3,6/2,
{8}1h[8:1],2h[8:1],3h[8:1],4h[8:1],5h[4:1],,7h[4:1],,
{1}2h[1:1],
{2}6h[2:1],3h[2:1],
{833}5h[1:1],,,,,,,,,,,,,,,,,,,,,,,,,,,,,,,,,,,,,,,,,,,,,,,,,,,,,,,,,,,,,,,,,,,,,,,,,,,,,,,,,,,,,,,,,,,,,,,,,,,,,,,,,,,,,,,,,,,,,,,,,,,,,,,,,,,,,,,,,,,,,,,,,,,,,,,,,,,,,,,,,,,,,,,,,,,,,,,,,,,,,,,,,,,,,,,,,,,,,,,,,,,,,,,,4h[833:625],,,,,,,,,,,,,,,,,,,,,,,,,,,,,,,,,,,,,,,,,,,,,,,,,,,,,,,,,,,,,,,,,,,,,,,,,,,,,,,,,,,,,,,,,,,,,,,,,,,,,,,,,,,,,,,,,,,,,,,,,,,,,,,,,,,,,,,,,,,,,,,,,,,,,,,,,,,,,,,,,,,,,,,,,,,,,,,,,,,,,,,,,,,,,,,,,,,,,,,,,,,,,,,,,,,,,,,,,,,,,,,,,,,,,,,,,,,,,,,,,,,,,,,,,,,,,,,,,,,,,,,,,,,,,,,,,,,,,,,,,,,,,,,,,,,,,,,,,,,,,,,,,,,,,,,,,,,,,,,,,,,,,,,,,,,,,,,,,,,,,,,,,,,,,,,,,,,,,,,,,,,,,,,,,,,,,,,,,,,,,,,,,,,,,,,,,,,,,,,,,,,,,,,,,,,,,,,,,,,,,,,,,,,,,,,,,,,,,,,,,,,,,,,,,,,,,,,,,,,,,,,,,,,,,,,,,,,,,,,,,,,,,,,,,,,,,,,,,,,,,,,,,,,,,,,,,,,,,,,,,,,,,,,,,,,,,,,,,,,,,,,,,,,,,,,,,,,,,,,,,,,,,,,,,,,,,,,,,,,,,,,,,,,,,,,,,,,,,,,,,,,,,,,,,,,,,,,,,,,,,,,,,,
E
&inote_5=(117.0){1},
{4}1,2,3,1/8,
{4}8,7,6,1/8,
{4}2,1/3,7,6/8,
{4}2/3,6/7,1-5[16:1]/8-4[16:1],,
{16}2,,4,3,,4,,3,7,,5,6,,5,,6,
{16}3,,4,2,,4,,2,6,,5,7,4,6,3,5,
{16}2,,6,5,,6,,5,6,5,,7,2,6,3,5,
{16}4,,6,4,,5,,3,4,,2,4,3,5,4,6,
{16}3b,,1,2,,1,,2,6,,8,7,,8,,7,
{16}2,,8,1,,8,,1,7,,4,5,3,6,2,7,
{16}1,,7,8,,7,,8,7,1,,8,1,7,2,6,
{16}3,,5,4,,3/6,,2,1,,8,1,7,2,6,3,
{4}5v8[8:1],4v1[8:1],6q3[8:1],,
{16},,2,,2-7[8:1],4,2,4,2,,6,6,,4,5,4,
{16}7,7,7,7,,4,5,3,6,2,7,1,8-4[5000:469],4,6,2,
{16}8b,,2-6[8:1],,4,,2,8,,4,6,2,,8,2,8,
{16}5,8,1,4,1,8,5,7,6,7,2,3,2,6,3,8,
{16}1,,7,5,6,4,,2,8-4[8:1],4,6,2,8,,2,1,
{16}2,,7,8,,7,1,7,5,,7,3,5,1,8,,
{16}8,,2,4,3,5,,7,2-6[8:1],6,4,8,2,,7,8,
{16}7,,2,1,,4,8,2,6,,1,8,,2,7,3,
{4}6q3[8:1],1q6[8:1],,8b,
{16}2/5,,3-6[16:1],4,,8,8,,7/4,,6-3[16:1],5,,1,1,,
{16}2/6,,3p6[16:1],7,,8,8,,2/7,,6,6,5,5,4,4,
{16}3b,,8-5[16:1],8-3[16:1],,8,8,,6,,1-4[16:1],1-6[16:1],,1,1,,
{16}3,,7-4[16:1],7-2[16:1],,7,7,,6,,2-5[16:1],2-7[16:1],,2,2,,
{8},1h[8:1],2h[8:1],3h[8:1],4h[8:1],5h[8:1],6h[8:1],7,
{8}8-5[16:1],8-4[16:1],8-3[16:1],8-5[16:1],8-4[16:1],8-3[16:1],8-5[16:1],,
{8},3h[8:1],2h[8:1],1h[8:1],8h[8:1],7h[8:1],6h[8:1],5,
{8}8-5[16:1],8-3[16:1],8^5[16:1],8^3[16:1],8-5[16:1],8q3[8:1],,,
{16}5,,4,4,,7,,3,4,3,6,5,6,5,7,4,
{16}8,3,1,2,7,8,6,1,5,,1,8,2,7,3,6,
{16}4,8,8,8,2,2,2,6,6,6,4,4,4,8,2,6,
{16}2h[8:1],,7,3h[8:1],,5,1h[8:1],,8h[16:3],,,6h[16:3],,,4,,
{1}2p5[2:1]/4p7[2:1],
{16}8-4[16:1],,,8,1-5[16:1],,,1,4-7[16:1],,,4,5-2[16:1],,,5,
{16}7-3[16:1],,,7,2-6[16:1],,,2,3-8[16:1],,,3,6-1[16:1],,,6,
{16}8^5[16:1],,,8,1^4[16:1],,,1,5v8[1000:63],,,5,4v1[16:1],,,4,
{16}8^5[16:1],,,8,1^4[16:1],,,1,5b,,,,,,,,
{16}8/1,,2,8,,6/3,,7,1,,6,4,,5,,5,
{16}4/6,,3,1,,5/3,,6,8,,4,6,3,5,2,7,
{16}1/8,,2,4,,6/3,,7,5,,8,1,,4,,4,
{16}3/5,,7,6,,4/5,,2,3,,1,8,4,5,2,7,
{16}3/6,,2,1,3,8,4,7,8,7,1,6b,,,,,
{16}2h[16:3],,1,1h[16:3],,8,8h[8:1],,4h[16:3],,5,5h[16:3],,6,6h[8:1],,
{16}7h[16:3],,3,3h[16:3],,4,4h[8:1],,5h[16:3],,,8h[16:3],,,1,,
{16}7b/2b,,6,5,7,4,8,1,,4,3,5,2,6,1,7,
{8}8,1-3[16:1],7-5[16:1],1-5[16:1],7-3[16:1],1s5[8:1],7,1b,
{16}8h[16:3],,1,1h[16:3],,2,2h[8:1],,6h[16:3],,5,5h[16:3],,4,4h[8:1],,
{16}3h[16:3],,8,8h[16:3],,7,7h[8:1],,6h[16:3],,,1h[16:3],,,2h[8:1],,
{16}3b,,2,1,3,8,4,7,,3,4,2,5,1,6,8z4[8:1],
{16},,8,,,,2,,6,,1,5,,,8/4,,
{16}2/6,,7,3,,5/1,,3,7,,1,8,2,7,3,6,
{16}4h[16:3],,2,2h[16:3],,8,8h[8:1],,6h[16:3],,1,1h[16:3],,5,5,,
{16}2,3,2,4,2,5,2,5h[2:1],2,,,3,,,,4b,
E
