&title=不毛!
&artist=ぽてんしゃる0
&wholebpm=200
&demo_seek=68.2
&demo_len=19.4
&lv_1=2
&lv_2=3
&lv_3=8
&lv_4=10
&lv_5=12+
&des_4=某S氏
&des_5=はっぴー
&inote_1=(200.0){1},,,,,,,,,
{1}1,,
{1}2,,
{1}3,,
{1}4,,
{1}5,,
{1}6,,
{1}7,,
{1}8,,
{1}1,
{1}1,
{1}1,,
{1}8,
{1}8,
{1}8,,
{1}1,
{1}1,
{1}1,,
{1}8,
{1}8,
{1}8,,
{1}1h[1:1],,
{1}2h[1:1],,
{1}3h[1:1],,
{1}4h[1:1],,
{1}5h[1:1],,
{1}6h[1:1],,
{1}7h[1:1],,
{1}8h[1:1],,
{1}7,
{1}6,
{1}5,
{1}4,
{1}3,
{1}2,
{1}1/8,,
{1}7,
{1}6,
{1}5,
{1}4,
{1}3,
{1}2,
{1}1b,,
{1}2,
{1}3,
{1}4,
{1}5,
{1}6,
{1}7,
{1}1/8,,
{1}2,
{1}3,
{1}4,
{1}5,
{1}6,
{1}7,
{1}8b,,
{1}1-4[4:7],,,,
{1}5-8[4:7],,,,
{1}7,
{1}6,
{1}5,
{1}4,
{1}3,
{1}2,
{1}1/8,
{1}1/8,
E
&inote_2=(200.0){1},,,,,,,,,
{2}1,1,
{1}1,
{2}2,2,
{1}2,
{2}3,3,
{1}3,
{2}4,4,
{1}4,
{2}5,5,
{1}5,
{2}6,6,
{1}6,
{2}7,7,
{1}7,
{2}8,8,
{1}8b,
{1}1,
{1}1/8,
{1}2,
{1}2/1,
{1}3,
{1}3/4,
{1}4,
{1}4/5,
{1}5,
{1}5/4,
{1}6,
{1}6/5,
{1}7,
{1}7/8,
{1}8,
{1}8/1,
{1}1-4[4:5],,,
{1}5,
{1}5-8[4:5],,,
{1}1b,
{1}1-5[4:5],,,
{1}6,
{1}6h[1:1],,
{2}5,5,
{2}4,4,
{2}3,3,
{2}2,2,
{2}1,1,
{1}8/1,
{2}7,7,
{2}6,6,
{2}5,5,
{1}5/4,
{2}5,5,
{2}6,6,
{2}7,7,
{2}8,8,
{2}1,1,
{2}2,2,
{2}3,3,
{1}4/5,
{2}6,6,
{2}7,7,
{2}8,8,
{1}1h[2:1],
{2}2,2,
{2}3,3,
{2}4,4,
{1}5h[2:1],
{2}4,4,
{2}3,3,
{2}2,2,
{2}1,1,
{2}8,8,
{2}7,7,
{2}6,6,
{1}5b/4b,
{1}4-1[4:5],,,,
{1}5-8[4:5],,,,
{2}1,1,
{1}1/8,
{2}2,2,
{1}2/1,
{2}3,3,
{1}3/4,
{2}4,4,
{2}5,5b,
E
&inote_3=(200.0){1},,,,,
{2}3,2,
{2}1,8,
{2}7,6,
{4}5,5,4,4,
{4}5,5,5,,
{4}6,6,6,,
{4}7,7,7,,
{4}8,8,8,,
{4}1,1,1,,
{4}2,2,2,,
{4}3,3,3,,
{4}4,4,4,,
{4}3,3,4,,
{4}6,6,5,,
{4}7,7,8,,
{4}2,2,1,,
{4}3,4,3,,
{4}2,1,2,,
{4}7,8,7,,
{4}6,5,6,,
{4}4,4,3,3,
{4}2,2,1,,
{4}8,8,7,7,
{4}6,6,5,,
{4}5,6,7,8,
{4}1,2,3,4,
{4}3,2,1,8,
{4}7,6,4/5,,
{4}5,5,6,6,
{4}7,7,8,,
{4}1,1,2,2,
{4}3,3,4,,
{4}4,3,2,1,
{4}8,7,6,5,
{4}6,7,8,1,
{4}2,3,4/5,,
{2}3h[2:1],4,
{4}3,3,3,,
{2}6h[2:1],5,
{4}6,6,6,,
{2}2h[2:1],1,
{4}2,2,2,,
{2}7h[2:1],8,
{4}7,7,7,,
{2}5h[2:1],6,
{4}5,5,5/6,,
{2}4h[2:1],3,
{4}4,4,4/3,,
{2}5h[2:1],4h[2:1],
{4}5,5,5/4,,
{1}5-8[2:1],
{1}1-4[2:1],
{4}5,5,6,6,
{4}7,7,8,8,
{4}1,1,2,2,
{4}3,3,5/4,,
{4}2,2,1,1,
{4}8,8,7,7,
{4}6,6,
{2}5q2[4:3],{1},
{4}1,2,3,4,
{4}8,7,6,5,
{4}5,6,7,8,
{4}4,3,2,1,
{4}7,8,1,2,
{4}6,5,4,3,
{4}3,4,5,6,
{4}7,8,1/8,,
{4}1,1,2/1,2/1,
{4}3,3,4/3,4/3,
{4}5,5,6/5,6/5,
{4}7,7,8/7,,
{4}8,8,8/7,8/7,
{4}6,6,5/6,6/5,
{4}4,4,
{2}3s7[4:3],{1},
{4}8,7,1,2,
{4}4,3,5,6,
{4}4,2,8,6,
{4}5,7,1,3,
{4}4,4,4,3/4,
{4}5,5,5,5/6,
{4}6,7,8,1,
{4}2,3,5/4,,
{1}4>5[4:5],,
{1}5<4[4:5],,
{1}4^1[2:1],
{1}5^8[2:1],
{1}1^4[2:1],
{1}8^5[2:1],
{4}3,4,4/3,,
{4}6,5,5/6,,
{4}7,8,7/8,,
{4}2,1,1/2,,
{4}8,1,2/7,,
{4}1/8,2/7,3/6,,
{4}5/4,4/5,6/3,6/3,
{4}7/2,2/7,8b/1b,
E
&inote_4=(200.0){1},
{2}4/3,4/3,
{2}6/5,6/5,
{2}4/3,4/3,
{1}6^3[4:1],
{2}2/1,2/1,
{2}8/7,8/7,
{2}2/1,2/1,
{4}8,8,8,6b,
{4}2h[4:3],5,,5,
{4}7h[4:3],4,,4,
{4}1h[4:3],5,,5,
{4}1,3,5,7,
{4}8h[4:3],3,,3,
{4}1h[4:3],6,,6,
{4}7h[4:3],3,,3,
{4}7,8,1,2/1,
{4}3h[4:3],1,,7,
{4}6h[4:3],8,,2,
{4}4h[4:3],1,,7,
{4}4,2,8,6,
{4}5h[4:3],8,,2,
{4}4h[4:3],1,,7,
{4}6h[4:3],8,,2,
{4}6,5,4,3b/4b,
{4}2,1,3/8,4,
{4}7,8,6/1,5,
{4}2,1,8/3,4,
{4}7/8,6/1,2/5,4/3,
{4}3,4,2/5,1,
{4}6,5,7/4,8,
{4}1,2,3,4,
{1}5q6[2:1],
{4}7,8,1/6h[4:1],3,
{4}2,1,8/3h[4:1],6,
{4}7,8,1/6h[4:1],3,
{4}2/1,3/8,4/7,6/5,
{4}6,5,4/7h[4:1],2,
{4}3,4,5/2h[4:1],7,
{4}8,1,2,3,
{1}4-1[4:1]/5-8[4:1],
{8}3,,5,5,4,,8/7,,
{8}6,,4,4,5,,1/2,,
{8}3,,5,5,4,,1/7,,
{8}6,,4,4,5,,8/2,,
{4}2h[4:1],1,7h[4:1],8,
{4}3h[4:1],4,6h[4:1],5,
{4}4,5,6h[4:1]/3h[4:1],,
{4}8/1,1-5[8:1]/8-4[8:1],,,
{8}3,,8,8,1-5[8:1],,,,
{8}6,,1,1,8-4[8:1],,,,
{8}1,,8,8,2-5[8:1],,,,
{8}8,,1,1,7-4[8:1],,,,
{4}2,3/1,7,6/8,
{4}3,2/4,6,7/5,
{4}4h[4:1],2h[4:1],1h[4:1],8h[4:1],
{4}6h[4:1],5h[4:1],4b,2b/7b,
{8}8,8,,1,1,,2,2,
{8},3,3,,4,4,,5,
{8}5,,6,6,,7,7,,
{4}1/7,1/7,8/2,8/2,
{8}1,1,,8,8,,7,7,
{8},6,6,,5,5,,4,
{8}4,,3,3,,2,2,,
{2}1h[2:1],7-2[8:1],
{8}1-4[8:1],,,8-5[8:1],,,2-5[8:1],,
{8},7-4[8:1],,,1-4[8:1],,,8-5[8:1],
{8},,2-5[8:1],,,7-4[8:1],,,
{8}1-4[8:1],,,8-5[8:1],,,2-5[8:1],,
{8},7-4[8:1],,,1-4[8:1],,,8-5[8:1],
{8},,2-5[8:1],,,7-4[8:1],,,
{4}1,2,3,4,
{4}7b/5,4/6b,5b/3,,
{8}1,1,,2/8,2/8,,7,7,
{8},1/6,1/6,,3,3,,7/4,
{8}7/4,,6,6,,5/3,3/5,,
{4}2/8,2/8,7/1,7/1,
{8}8,8,,1/7,1/7,,2,2,
{8},3/8,3/8,,6,6,,5/2,
{8}2/5,,3,3,,6/4,4/6,,
{1}1^4[4:1]/5^8[4:1],
{8}2-5[8:1],,,1-6[8:1],,,8-3[8:1],,
{8},7-4[8:1],,,8-3[8:1],,,1-6[8:1],
{8},,2-5[8:1],,,1-6[8:1],,,
{8}8-3[8:1],,,7-4[8:1],,,8-3[8:1],,
{8},1-6[8:1],,,2-5[8:1],,,1-6[8:1],
{8},,8-3[8:1],,,7-4[8:1],,,
{4}1,2,3,4,
{4}5/7b,6b/4,3/5b,,
{1}5h[2:3]/3>6[4:5],,
{1}4h[2:3]/6<3[4:5],,
{1}3>6[4:7]/6v3[4:7],,,
{4}4,5,4,7b/2b,
{8}2,2h[2:3],,1,,1,,8,
{8},8,,1,,1,,,
{8}6,6h[2:3],,8,,8,,2,
{8},2,,8,,8,,,
{8}4,4h[2:3],,2,,1,,8,
{8},7,,6,,5,,,
{4}2/1,2/1,7/8,8/7,
{4}1b/8b,4b/5b,2b/6b,
E
&inote_5=(200.0){1},
{8}2,2h[4:1],,3h[4:1],,4h[4:1],,5h[4:1],
{8},6p5[8:3],,,,,,,
{8}6,6h[4:1],,4h[4:1],,2h[4:1],,1-7[4:1],
{8},8-4[4:1],,,,,,,
{8}4,4h[4:1],,3h[4:1],,2h[4:1],,1h[4:1],
{8},8p3[8:3],,,,,,,
{8}1,1>8[8:3],,,,,,,
{4}1b,2b,3b,4b,
{8}6,,6/5,,1,2,,8/3,
{16},,6/5,,,,3,4,3,,,,6,,6,,
{8}3,,3/4,,8,7,,6/1,
{16},,3/4,,,,6,5,6,,,,4,,3,,
{8}2,,1/2,,5,6,,4/7,
{16},,2/1,,,,7,8,7,,,,3,,2,,
{8}7,,7/8,,4,3,,5/2,
{16},,7/8,,,,2,1,2,,,,7,,7,,
{8}3h[4:1],,4,,8,7,,6/1,
{16},,4/3,,,,6,5,6,,,,4,,3,,
{8}6h[4:1],,5,,1,2,,3/8,
{16},,5/6,,,,3,4,3,,,,6,,6,,
{8}2h[4:1],,1,,5,6,,4/7,
{16},,2/1,,,,7,8,7,,,,3,,2,,
{8}7h[4:1],,8,,4,3,,2/5,
{16},,7/8,,,,2,1,2,,,,5b/4b,,,,
{8}2-5[8:1],8,8,,7-4[8:1],1,1,,
{8}2-5[8:1],8,8,,7-4[8:1],1,1,,
{8}2-6[8:1],8,8,,7-3[8:1],1,1,,
{4}2,5/6,3/7,4/3,
{8}7^4[8:1],8,8,,2^5[8:1],1,1,,
{8}7^4[8:1],8,8,,2^5[8:1],1,1,,
{8}7p3[8:1],8,8,,2q6[8:1],1,1,,
{4}7,4/3,6/2,6/5,
{8}6-1[8:1],5,5,,3-8[8:1],4,4,,
{8}6-1[8:1],5,5,,3-8[8:1],4,4,,
{8}6-2[8:1],5,5,,3-7[8:1],4,4,,
{4}5,6/5,7/3,4/3,
{8}3^8[8:1],4,4,,6^1[8:1],5,5,,
{8}3^8[8:1],4,4,,6^1[8:1],5,5,,
{4}4,3/4,5/2,6/5,
{4}4/5,8/1,7b/2b,,
{8}7h[4:1],,8,8,5/6,,5/3,,
{8}2h[4:1],,1,1,4/3,,4/6,,
{8}7h[4:1],,8,8,6/5,,3/5,,
{8}2h[4:1],,1,1,4/3,,6/4,,
{8}7h[4:1],,6,6,4/5,,3/6,,
{8}2h[4:1],,3,3,5/4,,6/3,,
{8}7h[4:1],,6,6,5/4,,3/6,,
{4}8-4[8:1],1-5[8:1],8b,,
{8}2h[4:1],,1,1,5/6,,8/2,,
{8}7h[4:1],,8,8,3/4,,1/7,,
{8}2h[4:1],,1,1,5/6,,1p4[2:1]/8q5[2:1],,
{4},,,7/1,
{8}2h[4:1],,1,1,5/4,,1/6,,
{8}7h[4:1],,8,8,4/5,,3/8,,
{4}2/7,4-1[8:1]/5-8[8:1],,3/6,
{4}1-4[8:1]/8-5[8:1],,7b/1b,2b/8b,
{8}7-2[8:1],7,,3-6[8:1],3,,7-2[8:1],7,
{8},3-6[8:1],3,,7v2[8:1],7,,3^6[8:1],
{8}3,,7^2[8:1],7,,3v6[8:1],3,,
{8}7^4[8:1],,1,1,2,,4/3,,
{8}6-3[8:1],6,,2-7[8:1],2,,6-3[8:1],6,
{8},2-7[8:1],2,,6v3[8:1],6,,2^7[8:1],
{8}2,,6^3[8:1],6,,2v7[8:1],2,,
{4}4-8[8:1],,1,2b/3b,
{4}1-4[8:1],5-8[8:1],2-5[8:1],6-1[8:1],
{4}3-6[8:1],7-2[8:1],4-7[8:1],8-5[8:1],
{4}4-1[8:1],7-4[8:1],3-8[8:1],6-3[8:1],
{4}2-7[8:1],5-2[8:1],1-6[8:1],8-3[8:1],
{4}2-5[8:1],7-4[8:1],3-8[8:1],6-1[8:1],
{4}4-8[8:1],5-1[8:1],2^7[8:1],,
{8}5/6,,2,5,3/4,,8/2,,
{4}5/4,1-5[8:1]/8-4[8:1],,6/3,
{8}6-1[8:1],6,,2-5[8:1],2,,6-1[8:1],6,
{8},2-5[8:1],2,,6v1[8:1],6,,2^5[8:1],
{8}2,,6^1[8:1],6,,2v5[8:1],2,,
{8}7^4[8:1],,1,1,2,,3/4,,
{8}7-4[8:1],7,,3-8[8:1],3,,7-4[8:1],7,
{8},3-8[8:1],3,,7v4[8:1],7,,3^8[8:1],
{8}3,,7^4[8:1],7,,3v8[8:1],3,,
{4}6-3[8:3],,,2b/7b,
{4}3-8[8:1],4-7[8:1],2^5[8:1],1^6[8:1],
{4}3-8[8:1],6-1[8:1],5-2[8:1],7^4[8:1],
{4}8^3[8:1],6-1[8:1],2^5[8:1],1^6[8:1],
{4}4-1[8:1],5-8[8:1],3^6[8:1],2^7[8:1],
{4}6-3[8:1],7-2[8:1],3-8[8:1],6^3[8:1],
{4}1-7[8:1],5-1[8:1],3v4[8:1],,
{2}1-7[8:1]/2-6[8:1],1^7[8:1]/8p3[8:1],
{4}1h[2:1],5,8b,,
{8}6,6^1[4:1],,1^4[4:1],,4^7[4:1],,7^2[4:1],
{8},2q4[2:1],,4,,,,,
{8}3,3^8[4:1],,8^5[4:1],,5^2[4:1],,2^7[4:1],
{8},7p5[2:1],,5,,,,,
{8}7,7^4[4:1],,4^1[4:1],,1^6[4:1],,6^3[4:1],
{8},3p1[2:1],,1,,,,,
{8}2,2^5[4:1],,5^8[4:1],,8^3[4:1],,3^6[4:1],
{8},6^1[4:1],,1,,,6b/3b,,
{8}3,3^8[4:1],,8^5[4:1],,5^2[4:1],,2^7[4:1],
{8},7p5[2:1],,5,,,,,
{8}6,6^1[4:1],,1^4[4:1],,4^7[4:1],,7^2[4:1],
{8},2q4[2:1],,4,,,,,
{8}2,2^5[4:1],,5^8[4:1],,8^3[4:1],,3^6[4:1],
{8},6q8[8:3],,8,,,,,
{8}8/3,,3,4,1/6,,6,5,
{8},2/7,,1/8,2/7,2/7,7b/2b,
E
