&title=ファミリーパーティー
&artist=きゃりーぱみゅぱみゅ [PV]
&wholebpm=142.0
&lv_1=1
&lv_2=4
&lv_3=6
&lv_4=7
&lv_5=10+
&des_4=はっぴー
&des_5=某S氏
&inote_1=
(142.0){1},,
{1}1,
{1}1,
{1}2,
{1}2,
{1}3,
{1}3,
{1}4,
{1}4,
{1}4/5,,
{1}8,
{1}8,
{1}7,
{1}7,
{1}6,
{1}6,
{1}5,
{1}5,
{1}4,
{1}4,
{1}3,
{1}3,
{1}2,
{1}2,
{1}1,
{1}1b,
{1}8-5[4:3],,
{1}4-1[4:3],,
{1}8h[1:1],,
{1}1h[1:1],,
{2}8,8,
{1}8,
{2}1,1,
{1}1,
{1}2,
{1}1,
{1}8,
{1}7,
{2}8,8,
{1}8,
{2}1,1,
{1}1,
{1}2,
{1}3,
{1}4,
{1}5,
{1}5/4,,
{1}6,
{1}7,
{1}8,
{1}1,
{1}2,
{1}3,
{1}4,
{1}5,
{1}4,
{1}5,
E
&inote_2=
(142.0){1},,
{4}1,1,1,,
{1}2/1,
{4}8,8,8,,
{1}8h[2:1]/7h[2:1],
{4}1,1,2/1,,
{4}8,8,8/7,,
{1}7h[2:1]/2h[2:1],
{2}7/2,2/7,
{1}1-5[4:3],,
{2}6/5,6/5,
{2}7,7,
{2}4/3,4/3,
{2}2,2,
{2}4,5,
{2}5/6,4/3,
{2}6/5,4/3,
{4}1,1,1b,,
{2}2/1,2/1,
{2}8,8,
{2}8/7,8/7,
{2}1,1,
{2}1,8,
{2}8/7,2/1,
{2}8/7,1/2,
{4}8,8,8b,,
{4},4,,7,
{4},4,,7,
{4},4,,7,
{4},4,,7,
{4},5,,2,
{4},5,,2,
{2}2,8,
{1}7b/2b,
{2}5,2,
{2}2/8,3/1,
{2}4,7,
{2}7/1,7,
{2}3/4,2,
{2}5/6,7,
{1}4h[1:1]/3h[1:1],
{4},,2,2,
{2}4,7/8,
{2}7/1,6/8,
{2}5,2/1,
{2}2/8,2,
{2}6/5,7,
{2}4/3,2,
{1}6h[1:1]/5h[1:1],
{2},7b,
{4}8,8,
{2}8,{1},
{1}6h[2:1]/5h[2:1],
{1}4h[2:1]/3h[2:1],
{4}5,6,7,,
{4}4,3,2,,
{1}8h[1:1],
{2},1,
{1}2-5[4:3],
{2},6,
{1}7-4[4:3],
{2},3,
E
&inote_3=
(142.0){1},,
{4}3,3,4,4,
{4}5,5,6,6,
{4}5,5,4,4,
{4}3,3,2,1/2,
{4}3,2,1,7/8,
{4}6,7,8,1/2,
{4}3,4,5,6,
{4}7,8,1,2,
{1}2q5[1:1],,
{4}7,6,5,4,
{1}3^6[8:3],
{4}2,3,4,5,
{1}6^3[8:3],
{4}1,8,2,7,
{4}3,6,4,5,
{8},,3/4,3/4,,,5/6,6/5,
{4},2/7,1/8,,
{4}1,7,2,6,
{1}3^8[8:3],
{4}8,2,7,3,
{1}6^1[8:3],
{4}2,3,4,5,
{4}7,6,5,4,
{8},,1/2,1/2,,,7/8,7/8,
{4},3/6,7/2,1b,
{4}6,5,6,5/6,
{4}3,4,3,4/3,
{4}6,5,6,4/7,
{4}3,4,3,5/2,
{4}1,2,3,4/5,
{4}6,7,8,2/1,
{4}3,3/4,6,5/6,
{4}2/7,,8/7,2/1,
{4}6/3,6/3,5h[4:1]/4h[4:1],,
{2}3h[4:1]/6h[4:1],7h[4:1]/2h[4:1],
{4}3/6,3/6,8h[4:1]/1h[4:1],,
{4}2h[4:1]/7h[4:1],,6,5,
{4}4/2,,3,4,
{4}7/5,,6,5,
{4}4,3^8[8:3],,,
{4}7,7,4/3,6/5,
{4}2/7,7/2,6h[4:1]/3h[4:1],,
{2}7h[4:1]/2h[4:1],8h[4:1]/1h[4:1],
{4}7/2,2/7,2h[4:1]/7h[4:1],,
{4}3h[4:1]/6h[4:1],,6,5,
{4}4/7,,3,4,
{4}2/5,,3,4,
{4}5,6^1[8:3],,,
{4}2,2,5/4,3^8[8:3],{1},
{4}7,8,7,1/6,
{4}2,1,2,8/3,
{4}4,5,4,3/6,
{4}4,4/3,5,6/5,
{4}3,2/4,6,7/5,
{4}2,1/2,7,7/8,
{4}6,3,2/7,1/8,
{2}2h[2:1],3h[2:1],
{2}4h[2:1],5h[2:1],
{2}6h[2:1],7h[2:1],
{4}8h[2:1],,1,1,
E
&inote_4=
(142.0){1},,
{4}6,6/5,3,3/4,
{4}7,7/8,2,2/1,
{4}5,6/5,4,3/4,
{4}8,7/8,1,2/1,
{4}7h[4:3],4,1,5,
{4}2h[4:3],5,8,4,
{4}6h[4:3],8,4,1,
{4}3h[4:3],1,5,8,
{2}7h[2:1],8,
{2}2h[2:1],1,
{4}5,6,7,8,
{1}1s5[2:1],
{4}4,3,2,1,
{1}8z4[2:1],
{4}2/7,1/6,7/2,3/8,
{4}2/7,8h[2:1],,1b,
{4},8h[4:1]/6h[4:1],,1h[4:1]/3h[4:1],
{4},8/2,7b/1b,,
{4}8,1,2,3,
{1}4p5[2:1],
{4}1,8,7,6,
{1}5q4[2:1],
{4}6,6,3,3,
{4}6,5,3,4,
{4},5h[4:1]/7h[4:1],,4h[4:1]/2h[4:1],
{4},5/3,6b/4b,,
{4}2,6/4,8,1/3,
{4}2,6/4,8,1/3,
{4}7,5/3,1,6/8,
{4}7,3/5,1,6/8,
{4}7,5,3,2/4,
{4}2,4,6,5/7,
{4}7,8,1,2,
{1}3q6[8:3],
{4}7h[4:7],5,8,2,
{4}8,3,8,2,
{4}6h[4:5],5,8,2,
{4}8,3,1,1-4[4:1],
{4},,8,7^2[4:1],
{4},,3,4,
{4}6,6/5,3,4/3,
{4}1h[2:1],,7,7,
{4}2h[4:7],4,1,7,
{4}1,6,1,7,
{4}3h[4:5],4,1,7,
{4}1,6,8,8-5[4:1],
{4},,2,3-7[4:1],
{2},6h[4:5],
{4}3,2,1,8,
{2}2h[4:3],7h[4:1],
{1}1^4[4:1]/8^5[4:1],
{4}6,7,6,5,
{4}4,3,4,5,
{2}6h[4:3],3h[4:1],
{1}4^1[4:1]/5^8[4:1],
{4}1/7,2,3,4,
{4}2/8,7,6,5,
{4}5/4,3/6,7/2,8/1,
{2}7h[1:1],8,
{2}2h[1:1],1,
{2}7h[1:1],8,
{2}2h[2:1],1-5[4:1],,
E
&inote_5=
(142.0){1},
{16}3,,3,,6,,6,,3,,3,,6,,6,3,
{8}5,4,3,2,1<5[8:1],,2,,
{4}8>4[8:1],7,1<5[8:1],2,
{16}2,6,3,5,4,,,,7,3,6,4,5,,,,
{8}1,8,7p4[4:1],,,,2,,
{16}1,,6,5,6,,1,,6,5,6h[4:1],,,,1,,
{16}8,,3,4,3,,8,,3,4,3h[4:1],,,,8,,
{16}1,8,4,5,3>6[4:1],,,,,,,,,,,,
{4}1/8,8/1,8/1,8/1,
{8}6,5,4,5,6,5,4,4,
{8}3,4,5,4,3,4,5,,
{4}1p4[8:1],7,8q5[8:1],2,
{8}1,8,7,6q3[8:1],,4,4,,
{4}7q4[8:1],1,2p5[8:1],8,
{8}6,5,4,3p6[8:1],,5,5,,
{4}8^5[4:1],5^2[4:1],2^7[4:1],7^4[4:1],
{8}1-6[8:1],1-4[8:1],,,,2,5,4/6,
{8},,3/4^7[8:1],2,,,6/5^2[8:1],7,
{4},8h[4:1],1,7b/2b,
{4}4q1[8:1],7,5p8[8:1],2,
{8}4,5,6,7p2[8:1],,1,1,,
{16}6p1[8:1],,,4,4,,,,3q8[8:1],,,5,5,,,,
{8}7,8,1,2q7[8:1],,8,8,,
{4}1^4[4:1],4^7[4:1],7^2[4:1],2^5[4:1],
{8}8-3[8:1],8-5[8:1],,,,7,4,3/5,
{8},,7/8q4[8:1],6,,,2/1p5[8:1],3,
{4},8p6[4:1],1,2b,
{4}4/3h[4:3],6,7-2[8:1],7,
{4}4/3h[4:3],6,7-2[8:1],7,
{4}5/6h[4:3],3,2-7[8:1],2,
{4}5/6h[4:3],3,2-7[8:1],2,
{4}4h[4:1],3h[4:1],1-6[8:1],1,
{4}5h[4:1],6h[4:1],8-3[8:1],8,
{4}1/2,6/8,2/4,5/6,
{4}3/8b,8b/3,4/5b,7b/2,
{8}2,2,6,6,4p8[4:1],,8p4[4:1],,
{4}4p8[4:1],8p4[4:1],4p8[4:1],8,
{8}6,6,2,2,8p4[4:1],,4p8[4:1],,
{8}8p4[4:1],,4,,1,2,3,2,
{8}1p4[8:1],,,7,6,5,6,7,
{8}8q5[8:1],,,1,2,3,4,5,
{8}5/6,7/4,8/3,1-4[4:1]/2-7[4:1],,,,,
{8},2,1,2,1,1,8,8,
{8}6,6,2,2,7p3[4:1],,3p7[4:1],,
{4}7p3[4:1],3p7[4:1],7p3[4:1],3,
{8}2,2,6,6,3p7[4:1],,7p3[4:1],,
{8}3p7[4:1],,7,,5,6,7,6,
{8}5p8[8:1],,,3,2,1,2,3,
{8}4q1[8:1],,,5,6,7,8,1,
{8}1/2,3/8,4/7,5-8[4:1]/6-3[4:1],,,,,
{8},5,6,5,6,6,3,3,
{1}1<5[2:1],
{16}1,,6,5,7,,,,8,,3,4,2,,,,
{16}6,5,6,7,6,,,,3,4,3,2,3,,,,
{8}8/1p2[4:1],8/1,1/8q7[4:1],,,,1b,,
{16}2,,6,5,6,,2,,6,5,6h[4:1],,,,2,,
{16}7,,3,4,3,,7,,3,4,3h[4:1],,,,7,,
{16}3,7,2,6,1<4[4:1],,,,,,,,,,,,
{4}1/8,1/8,8/1,8/1,
{8}3,5,7,5,1,5,7,5,
{16}3,,5,,7,,5,,1,,5,,7,,5,4,
{8}5,4,2,4,8,4,2,4,
{8}6,4,2,4,8,4,2,4,
E
