&title=ピーマンたべたら
&artist=カタオカツグミ
&wholebpm=178
&demo_seek=33.5
&demo_len=16.3
&lv_1=3
&lv_2=5
&lv_3=7+
&lv_4=11
&lv_5=13+
&des_4=Jack
&des_5=Revo@LC
&inote_1=(178.0){1},,,,,,,,,
{1}1,,
{1}2,,
{1}3,,
{1}4,,
{1}5,,
{1}6,,
{1}7,,
{1}8,,
{1}1h[1:1],,
{1}8h[1:1],,
{1}1h[1:1],,
{1}8h[1:1],,
{1}1b,
{1}8b,
{1}1b,,
{1}1-4[4:3],,
{1}5-8[4:3],,
{1}1h[1:1],,
{1}8h[1:1],,
{1}8,
{1}7,
{1}6,
{1}5,
{1}4,
{1}3,
{1}2,
{1}1,
{1}1/8,
{4}1,1,
{2}1,{1},
{4}2,2,
{2}2,{1},
{4}3,3,
{2}3,{1},
{4}4,4,
{2}4,{1},
{1}5b,
{1}5,
{1}6b,
{1}6,
{1}7b,
{1}7,
{1}8,
{1}8,
{4}1,1,,,
{4}8,8,,,
{4}1,1,,,
{4}8,8,,,
{1}1-5[4:3],,
E
&inote_2=(178.0){1},4/3,
{1}6/5,
{1}4-1[4:3],,
{1}8b,
{1}8/7,
{1}1,
{1}2/1,
{2}3,3,
{1}3/4,
{2}5,5,
{1}5/6,
{2}7,7,
{2}8,8,
{1}8/1,
{1}8h[2:1],
{2}6,6,
{1}6/5,
{2}4,4,
{1}3/4,
{2}2,2,
{2}1,1,
{1}8/1,
{1}1h[2:1],
{4}2,2,2,,
{4}3,3,3,,
{4}4,4,4,,
{1}5h[2:1],
{4}7,7,7,,
{4}6,6,6,,
{4}5,5,5,,
{1}4h[2:1],
{1}4-8[4:3],,
{1}5-1[4:3],,
{1}1/8,
{1}2,
{1}3,
{1}4,
{2}5,5,
{1}4/6,
{2}4,4,
{1}3/5,
{2}3,3,
{1}4/3,
{2}6,6,
{1}5/6,
{2}7,7,
{2}8,8,
{1}8h[2:1]/1h[2:1],
{2}1/8,1/8,
{1}1b/8b,
{4}2,2,3,,
{4}4,4,5,,
{4}6,6,7,,
{1}8h[2:1],
{4}7,7,6,,
{4}5,5,4,,
{4}3,3,2,,
{1}1h[2:1],
{1}8h[1:1]/7h[1:1],,
{1}2h[1:1]/1h[1:1],
{4},,1/8,1/8,
{1}1h[1:2]/8h[1:2],,,,
{2}2/1,2/1,
{2}4/3,3/4,
{2}6/5,6/5,
{2}8/7,8/7,
{4}1/8,1b/8b,
E
&inote_3=(178.0){1},
{2}3,4,
{2}5,6,
{4}7,8,1,2,
{4}3,4,5,6,
{1}7p6[4:3],,
{1}2q3[4:3],,
{4}2,2,1,1,
{4}8,8,7,,
{4}6,6,5,5,
{4}4,4,3,,
{2}2h[2:1],3,
{4}1,1,8,8,
{4}1,1,8,8,
{16}1,,,,,8,,,1,,,,,,,,
{4}7,7,8,8,
{4}1,1,2,,
{4}3,3,4,4,
{4}5,5,6,,
{2}7h[2:1],6,
{4}8,8,1,1,
{4}8,8,1,1,
{4}8,1,8,,
{4}1,2,3,4,
{4}2,3,4,5,
{4}3,4,5,6,
{4}5/4,6/3,7/2,,
{4}8,7,6,5,
{4}7,6,5,4,
{4}6,5,4,3,
{4}5/4,6/3,7/2,,
{1}1>8[1:1],,
{1}8<1[1:1],,
{2}8h[2:1],7h[2:1],
{2}6h[2:1],5,
{2}4h[2:1],3h[2:1],
{2}2h[2:1],1,
{1}8^5[2:1],
{1}4^1[2:1],
{4}8,7,6,5,
{4}4,3,2,1,
{4}1,2,3,4,
{4}6/5,6/5,6/7,,
{4}8,7,6,5,
{4}4/3,3/4,3/2,,
{1}4h[2:1]/5h[2:1],
{4}5,6,7,8,
{4}4,3,2,1,
{1}8z4[4:3],,
{4}3,4,3,4,
{4}2,5,2,5,
{4}1,6,1,6,
{4}7/8,6/1,5/2,,
{4}6,5,6,5,
{4}7,4,7,4,
{4}8,3,8,3,
{4}1/2,8/3,7/4,,
{1}5^2[4:3]/6p1[4:3],
{4},,,1/2,
{1}1^6[4:3]/2p5[4:3],
{4},,5/6,4/5,
{1}4/5q8[1:1],,
{4}1,2,3,4,
{4}8,7,6,5,
{4}4,4b,5,5b,
{4}3,3b,6,6b,
{4}2,2b,7,7b,
{4}1,1b,8,8b,
{4},1b/8b,
E
&inote_4=(178.0){1},
{2}2q6[8:1],7p3[8:1],
{2}1q6[8:1],8p3[8:1],
{4}1/2,4/3,5/6,7/8,
{8}1,8,2,7,3,6,5/4,,
{8}7,8/7,,2,2/1,,8,1/8,
{8},5/6,,3/4,,1/8,,7,
{8}6,4/5,,3,3/4,,6,6/5,
{8},7/8,,2/1,,5/4,,2/7,
{2}3^6[8:1],7p3[8:1],
{8}2^7[8:1],,,5,,7/1,,,
{2}6^3[8:1],2q6[8:1],
{8}7^2[8:1],,,4,,8/2,,,
{8},7,4,5,2,,1/8,,
{8}2,5,3,6,4,7,5,8-4[8:1],
{8},,,1-5[8:1],,,,3/6,
{8},4,5,3,6,2,7,1,
{2}8p4[8:1],1q5[8:1],
{8}6^3[8:1],,,2,,7/8,,,
{2}1q5[8:1],8p4[8:1],
{8}3^6[8:1],,,7,,2/1,,,
{8}8,4,7,3,6,,8/1,,
{8}2,5,3,6,4,7,5,8-3[8:1],
{8},,,1-6[8:1],,,,5/4,
{8},7/2,7/2,7/2,2/7,,1b/8b,,
{8}2h[4:1],,1,,3,4,5/2,,
{8}6,5,7/4,,8,1,7/2,,
{8}3,3,4,4,5,5,,7/8,
{8},6/5,4/7,,3,4,2/5,,
{8}7h[4:1],,8,,6,5,4/7,,
{8}3,4,5/2,,1,8,7/2,,
{8}6,6,5,5,4,4,,1/2,
{8},3/4,2/5,,6,5,7/4,,
{4}3h[2:3],1,8,7,
{4}6,5,4,2/5,
{8}6h[4:3],,8,,1,,2,2,
{8},3,4,5,6,,4-1[8:1]/5-8[8:1],,
{8},,2,2,,7,7,,
{8}2,2h[4:1],,4h[4:1],,5h[4:1],,7,
{8}7,,2,2,,3,3,,
{8}6,6h[4:1],,8h[4:1],,1h[4:1],,3,
{8}2,1/2,,7,7/8,,3/6,3/6,
{8},4/5,,2/7,,1/8,1/8,1/8,
{8}2,6,4,8,1,,7/2,2/7,
{6}3/5,6/4,2/7,6/5,3/4,8/1,
{2}3^6[8:1],7^2[8:1],
{8}3p6[8:1],,,5,,1/8,,,
{2}6^3[8:1],2^7[8:1],
{8}6q3[8:1],,,4,,1/8,,,
{8}3,6,4,5,2,,1/8,,
{8}2,5,3,6,4,7,5,8^5[8:1],
{8},,,1^4[8:1],,,6,7/5,
{8},8,4,7,3,6,2,5,
{8}1b,,4/5,,1,8,7/2,,
{8}3h[4:1],,4,,2,1,3/8,,
{8}7,8,6/1,,5,4,6/3,,
{8}2,5,4,7,3,6,,1/8,
{8},7/8,6/1,,2,1,3/8,,
{8}7h[4:1],,8,,1,8/2,7/3,,
{8}8,1/7,2/6,,8/1,7/2,3/6,,
{8}7,4,5,2,6,3,,1/8,
{8},7/8,6/1,,2,1,8/3,,
{8}7,7,6,6,5,5,4,4,
{8}3,3,2,2,8/1,,5/4,,
{8}6,6,7,7,8,8,1,1,
{8}2,2,6/3,,4,5,3/6,,
{8}2,2/1,,7,8/7,,1,1/8,
{8},3/4,,5/6,,1/8,,2,
{8}3,4/5,,6,5/7,,3,4/2,
{8},5,4,6,3,7,2,8,
{2}1-5[8:1]/2-4[8:1],7-5[8:1]/8-4[8:1],
{2}1-6[8:1]/2-5[8:1],7-4[8:1]/8-3[8:1],
{2}1-7[8:1]/2-6[8:1],7-3[8:1]/8-2[8:1],
{2}1-4[8:1]/8-5[8:1],4^1[4:1]/5^8[4:1],
{4},8b/1b,
E
&inote_5=(178.0){1},
{4}1/2,3/4,5/6,7/8,
{8}1,2,3,4,5,6,7,8,
{16}1,2,3,4,5,6,7,8,1,2,3,4,5,6,7,8,
{16}1,2,3,4,5,6,7,8,
{641}1,,,,,,,,,,,,,,,,,,,,
{639}2,,,,,,,,,,,,,,,,,,,,3,,,,,,,,,,,,,,,,,,,,
{641}4,,,,,,,,,,,,,,,,,,,,5,,,,,,,,,,,,,,,,,,,,
{639}6,,,,,,,,,,,,,,,,,,,,7,,,,,,,,,,,,,,,,,,,,
{641}8,,,,,,,,,,,,,,,,,,,,
{8}1b,,
{8}2,2,2,7,7,7,4,5,
{8},1/3,,6/8,,3/6,1b/8b,,
{8}1/3,2,2,6/8,7,7,3/4,5/6,
{8},1/3,,6/8,,4b/5b,,2b/7b,
{16}4,,6,5,6,,3,4,3,,6,5,6,,3,4,
{16}3,,6,5,6,,1/2,,,,8/7,,,,,,
{16}5,,3,4,3,,6,5,6,,3,4,3,,6,5,
{16}6,,3,4,3,,7/8,,,,2/1,,,,,,
{8},3h[8:1],4h[8:1],5h[8:1],6h[4:1],,,,
{16}4,3,2,1,8,7,6,5,3/4,,2/5,,6/1,,7-5[16:1]/8-4[16:1],,
{8},,,1-5[16:1]/2-4[16:1],,,,4/5,
{8},8/7,1/2,3/4,5/6,7/4,3/8,2/1,
{16}7,,2,4,2,,7,5,7,,2,4,2,,7,5,
{16}7,,2,4,2,,5b/7b,,,,8b/6b,,,,,,
{16}2,,7,5,7,,2,4,2,,7,5,7,,2,4,
{16}2,,7,5,7,,2b/4b,,,,3b/1b,,,,,,
{16}4,,7,,5,6,5,6,5-1[8:1],,,,,,,,
{2}2v5[5000:627]/8v5[8:1],3-7[8:1]/6-4[8:1],
{8}8<8[2:1],,,,,,,7h[4:1],
{8},8,1/6,2/5,3-8[8:1]/4-7[8:1],,,,
{4}1q7[4:1],7p1[4:1],1q7[4:1],7p1[4:1],
{4}1q7[4:1],7p1[4:1],8,8^5[4:1],
{4}5^2[4:1],2^7[4:1],7<2[8:3],,
{8},,8/1,,6/3,3/6,4/5,,
{4}8p2[4:1],2q8[4:1],8p2[4:1],2q8[4:1],
{4}8p2[4:1],2q8[4:1],1,1^4[4:1],
{4}4^7[4:1],7^2[4:1],2>7[8:3],,
{8},,1/8,,7/2,2/7,4/5,,
{16}4b,5,4,5,4,5,4,5,4,,,,6/3,,,,
{16}2b,7,2,7,2,7,2,7,2,,,,6/3,,,,
{16}1b,8,2,7,1b,8,2,7,1b,8,2,7,1b,,7/2,,
{8},1/8,8/1,7/2,4/5,,1-4[8:1]/8-5[8:1],,
{1000}1b,8b,,,,,,,,,,,,,,,,,,,,,,,,,,,,,,,,,,,,,,,,,,,,,,,,,,,,,,,,,,,,,,,,,,,,,,,,,,,,,,,,,,,,,,,,,,,,,,,,,,,,,,,,,,,,,,,,,,,,,,,,,,,,,,,,,,,,,,,,,,,,,,,,,,,,,,,,,,,,,,,,,,,,,,,,,,,,,,,,,,,,,,,,,,,,,,,,,,,,,,,,,,,,,,,,,,,,,,,,,,,,,,,,,,,,,,,,,,,,,,,,,,,,,,,,,2,,,,,,,,,,,,,,,,,,,,,,,,,,,,,,,,,,,,,,,,,,,,,,,,,,,,,,,,,,,,,,,,,,,,,,,,,,,,,,,,,,,,,,,,,,,,,,,,,,,,,,,,,,,,,,,,,,,,,,,,,,,,,1,,,,,,,,,,,,,,,,,,,,,,,,,,,,,,,,,,,,,,,,,,,,,,,,,,,,,,,,,,,,,,,,,,,,,,,,,,,,,,,,,,,,,,,,,,,,,,,,,,,,,,,,,,,,,,,,,,,,,,,,,,,,,,,,,,,,,,,,,,,,,,,,,,,,,,,,,,,,,,,,,,,,,,,,,,,,,,,,,,,,,,,,,,,,,,,,,,,,,,,,,,,,,,,,,,,,,,,,,,,,,,,,,,,,,,,,,,,,,,,,,,,,,,,,,,6,,,,,,,,,,,,,,,,,,,,,,,,,,,,,,,,,,,,,,,,,,,,,,,,,,,,,,,,,,,,,,,,,,,,,,,,,,,,,,,,,,,,,,,,,,,,,,,,,,,,,,,,,,,,,,,,,,,,,,,,,,,,,5,,,,,,,,,,,,,,,,,,,,,,,,,,,,,,,,,,,,,,,,,,,,,,,,,,,,,,,,,,,,,,,,,,,,,,,,,,,,,,,,,,,,,,,,,,,,,,,,,,,,,,,,,,,,,,,,,,,,,,,,,,,,,4,,,,,,,,,,,,,,,,,,,,,,,,,,,,,,,,,,,,,,,,,,,,,,,,,,,,,,,,,,,,,,,,,,,,,,,,,,,,,,,,,,,,,,,,,,,,,,,,,,,,,,,,,,,,,,,,,,,,,,,,,,,,,
{8},7-5[8:1],,7-1[8:1],,7-3[8:1],,7,
{8}1,,7,8,,3,4,5,
{8},2-4[8:1],,2-8[8:1],,2-6[8:1],,2,
{8}7,3,8,2,8,,1,1-4[8:1],
{8},1-6[8:1],,1-5[8:1],,8b,8b,8b,
{8}2,6,1,
{313}7,,,,,,,,,,,,,,,,,,,,,,,,,,,,,,,,,,,,,,,
{627}1,,,,,,,,,,,,,,,,,,,,,,,,,,,,,,,,,,,,,,,,,,,,,,,,,,,,,,,,,,,,,,,,,,,,,,,,,,,,,,,,,,,,,,,,,,,,,,,,,,,,,,,,,,,,,,,,,,,,,,,,,,,,,,,,,,,,,,,,,,,,,,,,,,,,,,,,,,,,,
{8}8,8,
{6}2/6,7/3,4b/8b,7/3,2/6,5b/1b,
{16}5/4,,3,4,3,,6,5,6,,2,4,3,,7,5,
{16}6,,1,8,1,,4b/5b,,,,7b/2b,,,,,,
{16}4/5,,6,5,6,,3,4,3,,7,5,6,,2,4,
{16}3,,8,1,8,,3b/6b,,,,1b/8b,,,,,,
{4}4v7[8:1]/5-7[8:1],4-2[8:1]/5v2[8:1],4/5,,
{4}3^5[8:1]/7^5[8:1],3^1[8:1]/7^1[8:1],3/7,3^8[2:1]/7^4[2:1],
{8}7/3,,,,,,7/2,2/7,
{8},1,
{957}1-3[8:1],,,,,,,,,,,,,,,,,,,,,,,,,,,,,,,,,,,,,,,,,,,,,,,,,,,,,,,,,,,,,,,,,,,,,,,,,,,,,,,,,,,,,,,,,,,,,,,,,,,,,,,,,,,,,,,,,,,,,,
{588}1$,
{8}1?-7[8:1],
{556}1?-4[8:1],
{625}1$,,,,,,,,,,,,,,,,,,,,,,,,,,,,,,,,,,,,,,,,,,,,,,,,,,,,,,,,,,,,,,,,,,,,,,,,,,,,,
{8}1-6[8:1],1q3[4:1],1,
{8}1b,,,,4,5,3/6,,
{4}1q7[4:1],7p1[4:1],1q8[4:1],8p2[4:1],
{4}2q8[4:1],8p1[4:1],1,8^5[4:1],
{4}5^2[4:1],2^7[4:1],7<2[8:3],,
{8},,7/8,,1/6,6/1,4/3,,
{4}8p2[4:1],2q8[4:1],8p1[4:1],1q7[4:1],
{4}7p1[4:1],1q8[4:1],8,1^4[4:1],
{4}4^7[4:1],7^2[4:1],2>7[8:3],,
{8},,1/2,,8/3,8/3,5/6,,
{16}6,,3,4,3,,6,5,6,,3,4,3,,6,5,
{16}6,,2,4,2,,7,5,7,,2,4,2,,7,5,
{16}7,,1,3,1,,8,6,8,,1,3,1,,8,6,
{8}8,,8/1,,5/4,5/4,2/7,,
{16}1b,8,1b,8,2b,7,2b,7,3b,6,3b,6,4b,5,4b,5,
{8},6/1,,8/3,,6/1,8/3,,
{16}2b,1,2b,1,3b,8,3b,8,4b,7,4b,7,5b,6,5b,6,
{8},3/6,,7/2,,6/3,1/8,,
{4}1b/2-5[8:1],1b/2,8b/7-4[8:1],7/8b,
{4}1b/2-5[8:1],1b/2,8b/7-4[8:1],7/8b,
{8}1b/2-5[8:1],1b,1b/2,,8b/7-4[8:1],8b,7/8b,,
{8}1b/2-5[8:1],1b,1b/2b,,8b/7-4[8:1],8b,7b/8b,,
{2}5-8[4:1]/8>5[4:1],,
E
