&title=ダブルラリアット
&artist=アゴアニキ
&wholebpm=138
&demo_seek=62
&demo_len=14
&lv_1=2
&lv_2=5
&lv_3=6
&lv_4=10+
&lv_5=13
&des_4=某S氏
&des_5=Jack
&inote_1=(138.0){1},,,,,,,,,,
{1}5,
{1}5,
{1}4,
{1}4,
{1}3,
{1}3,
{1}2,
{1}2,
{2}1,1,
{1}1,
{2}8,8,
{1}8,
{2}1,1,
{1}1,
{2}2,2,
{1}2,
{1}1-4[4:3],,
{1}5-8[4:3],,
{1}2-5[4:3],,
{1}6-1[4:3],,
{1}1,
{1}8/1,
{1}1,
{1}2,
{1}3,
{1}4,
{1}5,
{1}6,
{1}7,
{1}8,
{2}8,8,
{1}7,
{2}7,7,
{1}6,
{2}6,6,
{1}5,
{2}5,5,
{1}4b,
{1}4h[1:1],,
{1}3h[1:1],,
{1}2h[1:1],,
{1}1h[1:1],,
E
&inote_2=(138.0){1},,
{1}2h[2:1],
{1}3h[2:1],
{1}4h[2:1],
{1}5h[2:1],
{1}7h[2:1],
{1}6h[2:1],
{1}5h[2:1],
{1}4h[2:1],
{2}2,2,
{2}1,1,
{2}8,8,
{4}7,7,7,,
{2}6,6,
{2}5,5,
{2}4,4,
{4}3,3,3,,
{4}2,2,2,,
{4}3,3,3,,
{4}4,4,4,,
{1}5h[2:1],
{4}7,7,7,,
{4}6,6,6,,
{4}5,5,5,,
{4}4,4,4/5,,
{1}4h[2:1]/3h[2:1],
{4}2,2,2,,
{2}3,4,
{4}5,4,5,,
{1}6h[2:1]/5h[2:1],
{4}7,7,7,,
{2}6,5,
{4}4,5,4,,
{1}4h[2:1]/5h[2:1],
{4}4,5,6b/3b,,
{4}1,1,2,2,
{4}3,3,5/4,,
{4}5,5,6,6,
{4}7,7,1/8,,
{4}8,8,7,7,
{4}6,6,5/4,,
{4}4,4,3,3,
{4}2,2,1/8,,
{4}1/2,1/8,8/7,,
{4}8/7,8/1,1/2,,
{4}1,1,8,8,
{4}1,8,7/2,,
{4}5/6,4/5,3/4,,
{4}4/3,4/5,6/5,,
{4}8,8,1,1,
{4}8,1,7b/2b,,
{1}1h[2:1],
{1}7h[2:1],
{1}6h[2:3]/2h[2:3],,
{1}1^4[4:3],,
{1}5^8[4:3],,
E
&inote_3=(138.0){1},,
{2}1h[4:1],3h[4:1],
{2}5h[4:1],7h[4:1],
{2}8h[4:1],6h[4:1],
{2}4h[4:1],2,
{2}1/2,7/8,
{4}8,1,2,,
{2}5/6,4/3,
{4}4,5,6b,,
{4}8,8,4,4,
{4}6,6,2,2,
{4}7,7,3,3,
{4}7,2,8/1,,
{2}2h[2:1],1h[2:1],
{2}8h[2:1],7,
{2}7h[2:1],8h[2:1],
{2}1h[2:1],2,
{1}1^4[8:3],
{1}5^8[8:3],
{1}1p4[2:1],
{1}8q5[2:1],
{2}1,5,
{4}1/5,2/6,3/7,,
{2}8,4,
{4}8/4,7/3,6/2,1b/5b,
{4}2,2/1,,1/2,
{4},7/8,,7/8,
{4},3/4,,3/4,
{4},5/6,,5/6,
{4}3,4,5,6,
{4}6,5,4,3,
{4}2,2,7,7,
{4}1,1,8,8,
{4}1/8,7/2,6/3,5/4,
{1}4-1[4:1]/5-8[4:1],
{4}1b,2,3,4,
{4}5,6,7,8,
{4}2,1,8,7,
{4}7/8,8/1,1/2,,
{4}8,7,6,5,
{4}4,3,2,1,
{4}3,4,5,6,
{4}5/6,5/4,4/3,,
{2}1h[4:1],3h[4:1],
{2}5h[4:1],7h[4:1],
{2}8h[4:1],6h[4:1],
{2}4h[4:1],2b,
{2}6/7,4/5,
{2}2/3,1/8,
{4}6,5,4,3,
{4}2,1,8,7,
{1}2^7[2:1],
{1}6^3[2:1],
{1}1p4[2:1],
{1}8q5[2:1],
{2}5/1,6/2,
{2}7/3,8/4,
{1}8p5[8:5],
{2}4,4,
E
&inote_4=(138.0){1},,
{2}2h[1:1],4,
{2}6h[1:1],8,
{2}3h[2:1],1h[2:1],
{4}8,7,6/5,,
{2}7h[1:1],5,
{2}3h[1:1],1,
{2}6h[2:1],8h[2:1],
{4}1,2,3/4,7/2,
{2}2^5[8:1],7^4[8:1],
{2}1^4[8:1],8^5[8:1],
{2}8^3[8:1],1^6[8:1],
{4}3,2,8/1,7,
{2}6^1[8:1],3^8[8:1],
{2}5^8[8:1],4^1[8:1],
{2}4^7[8:1],5^2[8:1],
{4}6,7,8b/1b,,
{4}1/2,3/4,5/6,7/8,
{4}1/2,3/4,7h[4:1]/5h[4:1],,
{4}6/5,4/3,2/1,8/7,
{4}6/5h[4:1],4,3/4h[4:1],5,
{4}7/6,8/1,2/3,5/4,
{4}7/6,8/1,2h[4:1]/4h[4:1],,
{4}4/5,3/2,8/1,6/7,
{4}5/4h[4:1],3h[4:1],2,5/1,
{8}2h[8:3],,,6,6h[8:3],,,4,
{8}7,3,6,2,5h[4:1],,1,,
{4}6h[2:1],5,3h[2:1],4,
{8}2,2,1,1,2/7,,8/4,,
{8}7h[8:3],,,3,3h[8:3],,,5,
{8}2,6,3,7,4h[4:1],,8,,
{4}3h[2:1],4,6h[2:1],5,
{4}7h[4:1],8h[4:1],1h[4:1],2h[4:1],
{8}3h[2:3],,,,,1,8,7h[8:5],
{4},,,8b/1b,
{4}1^4[8:1],6,6^1[8:1],3,
{4}3^6[8:1],8,8^3[8:1],5,
{4}5h[4:1],3h[4:1],1h[4:1],7h[4:1],
{8}4,5,3,6,4,,7/3,,
{4}4^1[8:1],7,7^4[8:1],2,
{4}2^7[8:1],5,5^2[8:1],8,
{4}8h[4:1],2h[4:1],4h[4:1],6h[4:1],
{8}1,8,2,7,1b,,7/3,,
{2}1^4[8:1]/5^8[8:1],1^6[8:1]/5^2[8:1],
{2}1^4[8:1]/5^8[8:1],1^6[8:1]/5^2[8:1],
{4}1h[4:1],7h[4:1],5h[4:1],3h[4:1],
{8}2,1,3,8,2,,4/8,,
{2}2^5[8:1]/6^1[8:1],3^8[8:1]/7^4[8:1],
{2}2^5[8:1]/6^1[8:1],3^8[8:1]/7^4[8:1],
{4}6h[4:1],2h[4:1],4h[4:1],8h[4:1],
{8}6,5,7,4,6b,,1/5,,
{1}1<2[4:3],
{1}1<2[4:3],
{1}1<2[4:3],
{4}1h[4:1],8h[4:1],7b,4/5,
{1}5>6[4:3],
{1}5>6[4:3],
{1}5>6[4:3],
{4}5h[4:1],4h[4:1],3b,
E
&inote_5=(138.0){1},
{8},,,,,,1^6[8:1],1,
{8},,8^3[8:1],8,,,7^4[8:1],7,
{8},,2^5[8:1],2,,,6,4/5,
{8},3h[4:3],4,2,,1,,8,
{8},3/7,6/2,5/1,4/8,,5^2[8:1],5,
{8},,4^7[8:1],4,,,3^8[8:1],3,
{8},,6^1[8:1],6,,,2,1/8,
{8},7h[4:3],8,6,,5,,4,
{8},3/7,8/4,1/5,6/2,4/5,1b/8b,,
{8}2/7,,3p6[8:1],4,,7^2[8:1],6,7,
{8},3^6[8:1],2,3,,,6q3[8:1],5,
{8},2^7[8:1],3,2,,6^3[8:1],7,6,
{8},2p5[8:1],1q6[8:1],,,,7p2[8:1],8,
{8},3^6[8:1],2,3,,7^2[8:1],6,7,
{8},3^6[8:1],2,3,,,2q7[8:1],1,
{8},6^3[8:1],7,6,,2^7[8:1],3,2,
{8},7q4[8:1],8p3[8:1],,,,,1,
{8}1^6[8:1],1,1,1,1^4[8:1],1,1,1,
{8}1<5[16:3],1,1>5[16:3],1,1h[8:3],,,8,
{8}7,6,5^8[8:1],4,5^2[8:1],,5<4[8:3],,
{8},,,,,,,8,
{8}8^3[8:1],8,8,8,8^5[8:1],8,8,8,
{8}8>4[16:3],8,8<4[16:3],8,8h[8:3],,,1,
{8}2,3,4^1[8:1],5,4<8[16:3],,4>5[8:3],,
{8},,,8,8b/4b,,3>7[16:3],,
{8}3h[8:3],,,6<2[16:3],6h[8:3],,,3,
{8}4,5,6^1[8:1],7,8,,,2h[8:5],
{8}3,4,5,6,7h[2:1],6,5,4,
{8}3h[8:1],2,6h[8:1],7,8/1,,6<2[16:3],,
{8}6h[8:3],,,3>7[16:3],3h[8:3],,,6,
{8}5,4,3^8[8:1],2,1,,,7h[8:5],
{8}6,5,4,3,2h[2:1],3,4,5,
{4}6,7-5[8:1],2-4[8:1],5v4[8:1],
{8}3q8[8:1],,,,1/7,6/2,5/3,4/8,
{8},6b/7b,2b/3b,5b/4b,1b/8b,,,,
{2}1^4[8:1]/5^8[8:1],4^1[8:1]/8^5[8:1],
{2}4p8[8:1]/8p4[8:1],1q5[8:1]/5q1[8:1],
{2}1^4[8:1]/5p8[8:1],4q1[8:1]/8^5[8:1],
{8}6/2,7/3,4/8,1/5,2^7[8:1]/6^3[8:1],,2/6,,
{4}4^1[8:1]/8^5[8:1],4/8,1^4[8:1]/5^8[8:1],1/5,
{4}1q5[8:1]/5q1[8:1],1/5,4p8[8:1]/8p4[8:1],4/8,
{4}4^1[8:1]/8q5[8:1],4/8,1p4[8:1]/5^8[8:1],1/5,
{8}8/4,3/7,6/2,1/5,4q1[8:1]/8q5[8:1],,,,
{4}2^7[8:1],6^3[8:1],1^6[8:1],5^2[8:1],
{4}8^5[8:1],4^1[8:1],7^4[8:1],3^8[8:1],
{4}6^3[8:1],2^7[8:1],5-1[8:1],,
{8}8/2,7/3,4/6,1/5,4^1[8:1]/8^5[8:1],,8b/4b,,
{4}7^2[8:1],7/3^6[8:1],3/8^3[8:1],8/4^7[8:1],
{4}4/1^4[8:1],1/5^8[8:1],5/2^5[8:1],2/6^1[8:1],
{4}6/3^6[8:1],3/7^2[8:1],7/4-8[8:1],4,
{8}1/7,6/2,3/5,4/8,1^4[8:1]/5^8[8:1],,1b/5b,,
{8},,1^6[8:1],1,,,2^5[10000:1241],2,
{8},,7^4[8:1],7,,,3,4/5,
{8},6h[4:3],5,7,,8,,3h[8:5],
{8},4,2,1,8,,4^7[8:1],4,
{8},,5^2[8:1],5,,,6^1[8:1],6,
{8},,3^8[8:1],3,,,7,8/1,
{8},3h[2:1],4,2,,1,,2/7,
{8},6,5,4,3,
E
