&title=みかんのうた
&artist=SEX MACHINEGUNS [cover]
&wholebpm=288.0
&lv_1=2
&lv_2=4
&lv_3=6
&lv_4=9
&lv_5=12
&des_4=はっぴー
&des_5=はっぴー
&inote_1=
(288.0){1},,
{1}1,,
{1}1,,
{1}8,,
{1}8,,
{1}1h[1:2],,,,
{1}1,,
{1}1,,
{1}2,,
{1}2,,
{1}3,,
{1}3,,
{1}4,,
{1}4/5,,
{1}5h[1:2],,,,
{1}6h[1:2],,,,
{1}7h[1:2],,,,
{1}8h[1:2],,,,
{1}1/8,,
{1}8/1,,
{1}8/7,,
{1}8/7,,
{1}1/8,,
{1}8/1,,
{1}1/2,,
{1}2-6[4:7],,,,
{1}8-4[4:7],,,,
{1}1,,
{1}2,,
{1}3,,
{1}4,,
{1}5h[1:2]/4h[1:2],,,,
{1}5,,
{1}5b,,
{1}6,,
{1}6,,
{1}7,,
{1}7,,
{1}8,,
{1}8b,,
{1}1h[1:2],,,,
{1}2h[1:2],,,,
{1}3h[1:2],,,,
{1}4h[1:2],,,,
{1}5,,
{1}5,,
{1}4,,
{1}4b,,
{1}4/5,,
{1}4/5,,
{1}4/5,
{1}4/5,
{1}4-1[4:7],,,,
{1}5-8[4:7],,,,,,
{1}8/1,
E
&inote_2=
(288.0){1},,
{2}1,1,
{1}1,
{2}2,2,
{1}2,
{2}8,8,
{1}8,
{2}7,7,
{1}7,
{1}1h[1:1],,
{1}2h[1:1],,
{1}4/3,
{1}4/3,
{1}4/3,,
{1}6/5,
{1}6/5,
{1}6/5,,
{1}5/3,
{1}5/3,
{1}5/3,,
{1}6/4,
{1}6/4,
{1}6/4,,
{1}7-3[4:5],,,,
{1}2-6[4:5],,,,
{1}8-4[4:5],,,,
{1}1h[1:3],,
{1}8h[1:1],,
{1}1,
{1}1,
{2}2,2,
{1}2,
{1}3,
{1}3,
{2}4,4,
{1}4,
{1}5,
{1}5,
{2}6,6,
{1}6,
{2}7,7,
{1}8,
{1}8/1,
{1}2/1,
{1}8/1,
{1}8/7,
{1}1/8,
{1}2/1,
{1}1/8,
{1}8/7,
{2}1,1,
{1}2,
{2}3,3,
{1}5/4,
{2}5,5,
{1}6,
{2}7,7,
{1}8/1,
{1}7h[1:1],,
{1}6h[1:1],,
{1}5/6,
{1}5/4,
{1}6h[1:1]/5h[1:1],,
{1}4/3,
{1}5/4,
{1}4h[1:1]/3h[1:1],,
{1}6/4,
{1}6/4,
{1}6h[1:1]/4h[1:1],,
{1}5/3,
{1}5/3,
{1}5h[1:1]/3h[1:1],,
{1}2-6[4:5],,,,
{1}7-3[4:5],,,,
{1}1-5[4:5],,,,
{1}8h[1:3],,
{1}1h[1:1],,
{2}8,8,
{1}7,
{2}6,6,
{1}5,
{2}4,4,
{1}3,
{2}2/1,2/1,
{1}2/1,
{2}3,3,
{1}4,
{2}5,5,
{1}6,
{1}7/1,
{1}2/8,
{1}8b/1b,
{1}8/7,
{1}1/8,
{1}1/2,
{1}8/1,
{1}7/2,
{1}1/8,
{1}8h[1:3]/1h[1:3],,,,
E
&inote_3=
(288.0){1},,
{2}4,4/5,
{2}3,3/6,
{2}2,2/7,
{2}8/1,7/2,
{2}5,5/4,
{2}6,6/3,
{2}7,7/2,
{2}8,1,
{1}7-4[4:3],,
{1}2-5[4:3],,
{4}3/4,3/4,,,
{4}5/6,5/6,,,
{2}6,5,
{2}4,3,
{4}5/2,5/2,,,
{4}4/7,4/7,,,
{2}3,4,
{2}5,6,
{4}7/8,7/8,,,
{4}1/2,2/1,,,
{2}2,1,
{2}8,7,
{4}6/8,8/6,,,
{4}3/1,3/1,,,
{2}2,7,
{4}1,8,1,,
{2}2,3,
{2}4,5/6,
{2}7,6,
{2}5,3/4,
{2}2,1,
{2}8,5/6,
{2}7,8,
{2}1,3/4,
{2}2,1,
{2}2,8/1,
{2}7,8,
{2}7,1/8,
{2}2,3,
{2}4,5-1[4:5],{1},,
{2}3,3/4,
{2}6,6/5,
{2}7,7/8,
{2}2,2/1,
{2}3/4,5/6,
{2}7/8,1/2,
{2}7/8,1/2,
{1}1b/8b,
{2}2,2/1,
{2}7,7/8,
{2}5/6,3/4,
{1}4/5,
{1}3h[1:1]/6h[1:1],,
{1}2b/7b,
{8}2/1,,,2/1,,,
{4}2/1,{1},
{8}7/8,,,7/8,,,
{4}7/8,{1},
{8}2/7,,,2/7,,,
{4}2/7,{1},
{1}1b/8b,
{2}8,7,
{2}6,4/5,
{2}3,2,
{4}1,8,1,,
{2}1,2,
{2}3,4/5,
{2}6,7,
{4}8,1,8,,
{1}2-6[4:3],,
{1}7-3[4:3],,
{4}5/6,5/6,,,
{4}3/4,3/4,,,
{2}3,4,
{2}5,6,
{4}7/4,4/7,,,
{4}5/2,5/2,,,
{2}6,5,
{2}4,3,
{4}1/2,2/1,,,
{4}7/8,8/7,,,
{2}7,8,
{2}1,2,
{4}1/3,3/1,,,
{4}8/6,8/6,,,
{1}1-5[4:3],,
{2}6,7,
{2}8,1/2,
{2}3,2,
{2}1,8/7,
{2}6,5,
{2}4,1/2,
{2}3,4,
{2}5,7/8,
{2}2,4,
{2}6,1/8,
{2}7,5,
{2}3,1/8,
{2}2,8,
{2}6,7/2,
{2}3/4,6/5,
{4}4,5,4,,
{2}6,5/7,
{2}3,2/4,
{2}7,6/8,
{2}2,3/1,
{2}6/5,3/4,
{2}1/2,7/8,
{2}8/1,5/4,
{1}7b/2b,
{2}2,1/3,
{2}7,6/8,
{2}4/7,2/5,
{1}3/6,
{1}2h[2:3],
{1}7h[2:1],
{1}2b/7b,
{8}1/7,,,7/1,,,
{4}1b/7b,{1},
{8}8/2,,,2/8,,,
{4}2b/8b,{1},
{8}7/2,,,2/7,,,
{4}2b/7b,{1},
{8}3/6,,,,,2/7,,,
{4},8/1,,,{1},
{2}1>8[4:13],{1},,,,
E
&inote_4=
(288.0){1},,
{4}6,5,6,6,
{4}3,4,3,3,
{4}6,5,6,6,
{4}4,4,5,5,
{4}3,4,3,3,
{4}6,5,6,6,
{4}3,4,3,3,
{4}5,5,4,4,
{8}2b/5b,,,7b/4b,,,1b/6b,,
{4},5/6,6/5,,
{8}4b/7b,,,5b/2b,,,3b/8b,,
{4},3/4,4/3,,
{4}8/7,6/1,,,
{4}1/2,8/3,,,
{4}2/6,3,4,5,
{4}7/3,6,5,4,
{4}1/2,8/3,,,
{4}8/7,1/6,,,
{4}7/3,6,5,4,
{4}2/6,3,4,5,
{4}5/6,7/4,,,
{4}4/3,2/5,,,
{4}7/3,2,1,8,
{4}2/6,7,8,1,
{4}4/3,2/5,,,
{4}5/6,7/4,,,
{4}2/6,7,8,1,
{1}3^8[2:1]/7^4[2:1],
{4}7/1,1/7,,3/4,
{4},5/7,,1/2,
{4},4/6,,7/8,
{4},5/2,3,4,
{4},8/2,,5/6,
{4},2/4,,7/8,
{4},3/5,,1/2,
{4},7/4,6,5,
{4},3/1,,5/6,
{4},3/8,2,1,
{4},8/6,,3/4,
{4},1/6,7,8,
{4},3/5,,6/4,
{4},3,6,4,
{1}5s1[4:5],,
{4}8,8,,7,
{8}6h[8:3],,,5h[8:3],,,4,,
{4}2,2,,3,
{8}2h[8:3],,,1h[8:3],,,8,,
{4}7,7,,6,
{8}5h[8:3],,,4h[8:3],,,3,,
{2}2,5/4,
{1}7b/2b,
{4}1,1,,2,
{8}3h[8:3],,,4h[8:3],,,5,,
{4}7,7,,6,
{8}7h[8:3],,,8h[8:3],,,1,,
{4}2h[4:3],,,3,
{4}3,4,4,5,
{1}5-1[2:1],
{8}8b/7b,,,3b/4b,,,
{4}1b/6b,{1},
{8}2b/1b,,,5b/6b,,,
{4}8b/3b,{1},
{8}3b/4b,,,8b/7b,,,
{4}5b/2b,{1},
{8}5b/6b,,,7b/3b,,,,,
{4}3,4,3,4/3,
{4}6,5,6,6/5,
{4}3,4,3,3/4,
{4}5,6,5,4,
{4}6,5,6,5/6,
{4}3,4,3,3/4,
{4}6,5,6,6/5,
{4}4,3,4,5,
{8}4b/7b,,,5b/2b,,,3b/8b,,
{4},4/5,5/4,,
{8}2b/5b,,,7b/4b,,,1b/6b,,
{4},4/5,5/4,,
{8}6,6,,5/7,,,,,
{8}3,3,,4/2,,,,,
{4}2/6,3,4,5,
{4}7/3,6,5,4,
{8}6,6,,5/7,,,,,
{8}3,3,,4/2,,,,,
{4}7/3,6,5,4,
{4}2/6,3,4,5,
{8}2,2,,1/3,,,,,
{8}7,7,,8/6,,,,,
{4}3/7,2,1,8,
{4}2/6,7,8,1,
{8}7,7,,6/8,,,,,
{8}2,2,,3/1,,,,,
{4}4/5,6/3,7/2,1^4[2:1]/8^5[2:1],{1},
{4}5/2,,7/8,7-4[4:1]/8-3[4:1],
{4},,,1,
{2}2h[2:1],3h[2:1],
{2}4h[2:1],5,
{4}7/4,,1/2,1-6[4:1]/2-5[4:1],
{4},,,8,
{2}7h[2:1],6h[2:1],
{2}5h[2:1],4,
{4}3/6,,8/1,1-4[4:1]/8-5[4:1],
{4},,,6,
{2}6h[2:1],5h[2:1],
{4}4h[2:1],,3,3-7[2:1],{1},
{4},3,4,5,
{1}6-2[2:1],,
{4}8,7,,5,
{8}5,,3,4,,4,3,,
{4}6,5,,4,
{8}4,,6,5,,5,6,,
{4}3,4,,5,
{8}5,,3,4,,4,3,,
{2}8b/1b,5b/4b,
{1}2b/7b,
{4}4,3,,1,
{8}1,,7,8,,8,7,,
{4}2,1,,8,
{8}8,,2,1,,1,2,,
{1}6h[4:3]/3h[4:3],
{1}4h[4:3]/5h[4:3],
{1}7b/2b,
{8}7b/1b,,,5b/3b,,,
{4}6b/2b,{1},
{8}8b/2b,,,4b/6b,,,
{4}7b/3b,{1},
{8}1b/6b,,,3b/8b,,,
{4}2b/7b,{1},
{8}1/8,,,,,7/2,,,
{4},1-5[1:1]/8-4[1:1],,,{1},
{1}2b/7b,
E
&inote_5=
(288.0){1},
{8}1,8,1,8,1,8,1,,
{8}4/7,,6,5,,5,7,,
{8}2/5,,3,4,,4,2,,
{8}4/7,,6,5,,5,7,,
{8}3,4,2,5,3,4,3,,
{8}2/5,,3,4,,4,2,,
{8}4/7,,6,5,,5,7,,
{8}2/5,,3,4,,4,2,,
{8}6,5,7,4,6,5,6,,
{8}1/2,,,5/7,,,2/6,,
{4},3,4,3/4,
{8}7/8,,,2/4,,,3/7,,
{4},6,5,6/5,
{8}2,1,2^5[4:1],1^6[8:1],,,,,
{8}7,8,7^4[4:1],8^3[8:1],,,,,
{8}2,,3,,4,,6,5,
{8},5,7-4[8:1],,1-5[8:1],,,,
{8}7,8,7^4[4:1],8^3[8:1],,,,,
{8}2,1,2^5[4:1],1^6[8:1],,,,,
{8}7,,6,,5,,3,4,
{8},4,2-5[8:1],,8-4[8:1],,,,
{8}2,1,2p5[4:1],1^6[8:1],,,,,
{8}7,8,7q4[4:1],8^3[8:1],,,,,
{8}2,,3,,4,,6,5,
{8},5,7^4[8:1],,1-5[8:1],,,,
{8}7,8,7q4[4:1],8^3[8:1],,,,,
{8}2,1,2p5[4:1],1^6[8:1],,,,,
{8}7,,6,,5,,3,4,
{8},4,3,,2b/7b,,,,
{4}2/5,1/6,3/4,7^4[4:1]/8^3[4:1],
{4},,,6,
{2}6v4[8:1],6v3[8:1],
{2}6q2[8:1],6-1[8:1],
{4},3/8,6/5,1^6[4:1]/2^5[4:1],
{4},,,3,
{2}3v5[8:1],3v6[8:1],
{2}3p7[8:1],3-8[8:1],
{4},7/2,4/5,1^4[4:1]/8^5[4:1],
{4},,,6,
{2}6^3[8:1],2q6[8:1],
{2}7p3[8:1],2^7[8:1],
{1}5s1[4:3],
{4},8b/2b,1b/7b,8b/2b,
{8}1b/7b,,6,5,,3,4,,
{8}6/5,,5,6,4,5,3,4,
{4}2,5/2,1,1/5,
{8}2,,6,5,,5,7,,
{4}7,4/7,8,8/4,
{8}7,,3,4,,4,2,,
{4}2,2/5,1,1/5,
{8}2,,6,5,,5,7,,
{4}7,7/4,8,4/8,
{8}2b/7b,,8,7b/1b,,1,8b/2b,,
{4}7,4/7,8,8/4,
{8}7,,3,4,,4,2,,
{4}2,2/5,1,1/5,
{8}2,,6,5,,5,7,,
{4}1-6[4:1]/2-5[4:1],,,4/7,
{4}2/5,7-4[4:1]/8-3[4:1],,,
{8}2,7,1,8,2,7,1,8,
{8}2^5[8:1],2,,7^2[8:1],7,,4b,,
{8}7,2,8,1,7,2,8,1,
{8}7^4[8:1],7,,2^7[8:1],2,,5b,,
{8}1,6,8,7,1,6,8,7,
{8}1^4[8:1],1,,6^1[8:1],6,,5b,,
{8}8,3,1,2,8,3,1,2,
{8}8h[8:5],,,1h[4:1],,,7b/2b,,
{8}6,5,6,7p2[8:1],,,,,
{8}3,4,3,2q7[8:1],,,,,
{8}6,5,6,7p2[8:1],,,,,
{8}3,4,2,5,3,4,2/5,,
{8}2,1,2,3p6[8:1],,,,,
{8}7,8,7,6q3[8:1],,,,,
{8}2,1,2,3p6[8:1],,,,,
{8}6,5,7,4,6,5,4/7,,
{8}7b/1b,,,4b/3b,,,4b/8b,,
{4},3/6,4/5,2/7,
{8}2b/8b,,,6b/5b,,,1b/5b,,
{4},7/2,8/1,6/3,
{8}1,8,7^4[4:1],6^1[8:1],,,,,
{8}8,1,2^5[4:1],3^8[8:1],,,,,
{8}6,,5/6,,6,,3,4,
{8},4,2,,6/5,,2/7,,
{8}8,1,2^5[4:1],3^8[8:1],,,,,
{8}1,8,7^4[4:1],6^1[8:1],,,,,
{8}3,,3/4,,3,,6,5,
{8},5,7,,3/4,,7/2,,
{8}4,5,6^1[4:1],7^4[8:1],,,,,
{8}5,4,3^8[4:1],2^5[8:1],,,,,
{8}7,,7/8,,7,,2,1,
{8},1,3,,8/7,,6/3,,
{8}5,4,3^8[4:1],2^5[8:1],,,,,
{8}4,5,6^1[4:1],7^4[8:1],,,,,
{4}2/4,8/6,3/1,5-1[4:1]/7-3[4:1],{1},
{4}8,6/5,1,3/4,
{4}8,5/3,1,6/4,
{4}5/2,1-5[4:1]/7-2[4:1],,,
{4}8/4,1v4[4:1]/6v4[4:1],,,
{4}1,3/4,8,5/6,
{4}1,4/6,8,6h[2:1]/8p3[4:1],
{2},1b/2b,
{1}3v1[2:1]/7v5[2:1],
{8}7/5,,3,4,,4,2,,
{8}4/2,,6,5,,5,7,,
{8}5/6,,8,,2,4,2,,
{8}3/4,,1,,7,5,7,,
{8}1/3,,7,8,,8,6,,
{8}1,,4/3,,7,5,7,,
{8}3b/6b,,3,4b/2b,,6,5b/7b,,
{8}4/3,,4,3,5,4,6,5,
{4}7,5/6,2,4/3,
{1}4<8[2:1]/5>1[2:1],
{1}1p4[2:3]/8q5[2:3],,
{4}7,4,5,2,
{4}7,
{8}2,
{627}1,,,,,,,,,,,,,,,,,,,,,,,,,,,,,,,,,,,,,,,,,,,,,,,,,,,,,,,,,,,,,,,,,,,,,,,,,,,,,,,,,,,,,,,,,,,,,,,,,,,,,,,,,,,,,,,,,,,,,,,,,,,,,,,,,,,,,,,,,,,,,,,,,,,,,,,,,,,,,
{313}1,,,,,,,,,,,,,,,,,,,,,,,,,,,,,,,,,,,,,,,
{4}3,
{4}7b/4b,1b,5b/2b,8b,
{1}2b/7b,
{4}3,8,1,6,
{8}3,,6,5,,5,7,,
{1}1-5[2:1],
{1}2v3[2:1]/7v6[2:1],
{1}6p5[2:1],
{1}1^4[2:1]/5^8[2:1],
{4}2-4[8:1]/8-6[8:1],2-5[4:1]/8-5[4:1],,,
{8}4b/6b,,,5b/2b,,,7b/4b,,
{8}2,1,3,8,2,,1-6[8:1]/2-5[8:1],,
{8}2b/1b,,,3b/8b,,,1b/6b,,
{8}7,8,6,1,7,,7-4[8:1]/8-3[8:1],,
{8}8b/7b,,,5b/6b,,,5b/2-8[4:1],,
{4}7-3[4:1],4-6[4:1],,,
{8}8-5[4:1],,,,,7q4[4:1],,,
{16},,,,7h[4:1]/5-2[4:1],,,,,,,,,,3,4,
{1}2,
{1}2b/7b,
E
