&title=おこちゃま戦争
&artist=ギガ/れをる
&wholebpm=175
&demo_seek=49.5
&demo_len=23.2
&lv_1=2
&lv_2=6
&lv_3=7
&lv_4=10+
&lv_5=13
&des_4=某S氏
&des_5=はっぴー
&inote_1=(175.0){1},,,,,
{1}7,
{1}7,
{1}6,
{1}6,
{1}5,
{1}5,
{1}4,
{1}4,
{1}3,
{1}3,
{1}2,
{1}2b,
{1}2h[1:1],,
{1}1h[1:1],,
{1}8h[1:1],,
{1}7h[1:1],,
{1}8-5[4:3],,
{1}4-1[4:3],,
{1}2,
{1}3,
{1}4,
{1}5,
{1}5h[1:1],,
{1}6h[1:1],,
{1}7,
{1}8,
{2}7,7,
{1}8,
{1}2,
{1}1,
{2}2,2,
{1}1,
{2}8,8,
{1}7,
{2}6,6,
{1}5,
{1}4-1[4:3],,
{1}8-5[4:3],,
{1}8,
{1}7,
{1}6,
{2}5,5,
{1}4,
{1}3,
{1}2,
{1}1,
{1}1,
{1}2,
{1}1,
{2}2,2,
{1}1,
{1}7,
{1}8,
{2}7,7,
{1}8,
{2}1,1,
{1}2,
{2}3,3,
{1}4,
{1}5-8[4:3],,
{1}1-4[4:3],,,
{1}6,
{1}7,
{1}8,
{1}1,
{1}2,
{1}3,
{1}4,
{1}5/4,
E
&inote_2=(175.0){1},,,
{2}4,5,
{1}4/5,
{4}4,4,4,,
{4}5,5,5,,
{4}3,3,3,,
{4}6,6,6,,
{2}6/5,5,
{2}4/3,4,
{2}6/5,5,
{2}4/3,4,
{1}6h[2:1],
{1}3h[2:1],
{1}8h[2:1]/1h[2:1],
{4}7,7,7b,,
{4}1,1,8,,
{4}7,7,6/5,,
{4}4,4,5,,
{4}4,4,4/5,,
{4}5,5,4,,
{4}3,3,2/1,,
{4}1,1,8,,
{4}1,1,8/1,,
{1}2h[2:1],
{1}3h[2:1],
{4}4,4,5,,
{4}6,6,7,,
{1}8-4[4:3],,
{1}2-6[4:3],,
{2}1/8,1/8,
{1}7h[2:1]/2h[2:1],
{4}4,5,4,,
{1}3b/6b,
{4}5,6,5/6,,
{4}4,3,4/3,,
{1}2h[2:1],
{1}1h[2:1],
{4}8,7,8/7,,
{4}1,2,2/1,,
{1}7h[2:1],
{1}8h[2:1],
{4}1,1,2,,
{4}8,8,7,,
{4}1,1,2,2,
{4}3,3,4/3,,
{4}4,4,3,,
{4}5,5,6,,
{2}5/6,4/3,
{4}5/4,5/4,5b/4b,,
{1}3h[2:1],
{1}2h[2:1],
{4}2,2,1,,
{4}8,8,7,,
{1}6h[2:1],
{1}7h[2:1],
{4}7,7,8,,
{4}1,1,
{2}2,{1},
{4}5,4,4/3,,
{4}4,5,6/5,,
{1}4h[2:1]/3h[2:1],
{1}5h[2:1]/6h[2:1],
{4}8,1,2/1,,
{4}1,8,8/7,,
{1}8h[2:1]/7h[2:1],
{1}1h[2:1]/2h[2:1],
{4}2,1,3,,
{4}7,8,6,,
{4}6,6,5,5,
{4}4,4,5/4,,
{4}3,4,2,,
{4}6,5,7,,
{2}6/4,5/3,
{4}5/4,5/4,5/4,,
{4}4,5,3b/6b,,
{2}2,3/1,
{2}7,8/6,
{1}1-4[4:3],,
{4}5,4,6,,
{4}4,5,3,,
{4}6,6,7,,
{4}8,1,8,7/2,
E
&inote_3=(175.0){1},,,,
{1}4-8[2:1],
{4}7,7,6,6,
{4}5,5,4,3/4,
{4}2,2,3,3,
{4}4,4,5,5/6,
{2}7-5[4:1],1-3[4:1],
{1}8-4[8:3],
{2}2-4[4:1],8-6[4:1],
{1}1-5[8:3],
{2}6h[2:1],5h[2:1],
{2}4h[2:1],2h[4:5],
{1}7h[4:3],
{4}3,6,4,5,
{4}3,4,5/4,,
{4}6,5,4/5,2b/7b,
{4}6,6,5,5,
{4}4,4,3,3,
{4}7,6,5/4,,
{4}2,3,4/5,,
{4}2,2,1,1,
{4}8,8,7,7,
{4}3,4,3,5/2,
{4}6,5,6,7/4,
{4}2,1,2,3/8,
{4}7,8,7,1/6,
{4}2,1b/8b,7,8b/1b,
{4}3,7,2,8b/1b,
{4}6,5,4,3,
{4}6,2,7,8b/1b,
{2}7/2,5/4,
{4}3/6,7/2,8/1,,
{4}7,2,7,2,
{4}1/8,2/7,6/3,4/5,
{4}2,3,4,5/6,
{4}7,6,5,4/3,
{2}1/2,5/4,
{4}7/8,,4/5,7/2,
{4}6,7,8,1/2,
{4}3,2,1,8/7,
{2}5/6,1/8,
{4}3/4,,1/8,6/3,
{4}5,4,3,1/2,
{4}4,5,6,8/7,
{4}1,8,2,7,
{4}3,6,4/5,7/2,
{4}3,4,3,5/2,
{4}6,5,6,7/4,
{4}8,1,8,7/2,
{4}4,5,3/6,1b/8b,
{2}2h[2:1],3,
{4}4,5,6/5,,
{4}7,7,8,8,
{4}1,1-5[4:1],,,
{2}7h[2:1],6,
{4}5,4,4/3,,
{4}2,2,1,1,
{4}8,8-4[4:1],,,
{4}3,4,5,6,
{4}7,6,5,3/4,
{4}2,3,4,6/5,
{2}4/7,8/1,
{4}2/5,,1/8,7/2,
{4}3,2,1,8/7,
{4}6,7,8,2/1,
{2}3/8,4/5,
{4}6/1,,5/4,2/7,
{4}4,5,6,8/1,
{4}5,4,3,1/8,
{4}2,7,3,6,
{4}4,5,3/6,8/1,
{4}2,1,3,8/4,
{4}7,8,6,5/1,
{2}3/4,5/6,
{4}5/4,5/4,4/5,2/7,
{8}1,8,1,8,1-5[4:1],,,,
{4}6,6,6,6/5,
{4}3,3,3,3/4,
{4}5,5,3,3,
{4}7,7,1,8/1,
{4}3,4,5,7/2,
{4}6,5,4,2/7,
{4}4,5,6,1/8,
{4}6,3,2/7,8b/1b,
E
&inote_4=(175.0){1},
{8}6,,,5,,,8/1,,
{8}4,,,3,,1,2,,
{4}4/2,5/3,6/4,7/5,
{8}8b/1b,,,2,2,,4,,
{8}6,,6,5,,5,,4,
{8},4,3,,2,1,2,,
{8}3,,3,4,,4,,5,
{8},5,6,,7,8,7,,
{12}1h[2:1],,,,,,8,,,7,,4,
{4}5,4,6/3,2,
{12}8h[2:1],,,,,,1,,,2,,5,
{4}4,5,6/3,7,
{2}1h[2:1],2h[2:1],
{2}6h[2:1],4h[2:1],
{1}5-1[4:1],
{4}8b,8b,8b,,
{8}3,,4,3,,2,,4h[4:1],
{8},6,,7,8,7,8,,
{8}1,6,1,,7,4,7,,
{8}2,1,,7,8,,7/2,,
{8}6,,5,6,,7,,5h[4:1],
{8},3,,2,1,2,1,,
{4}1/6,8/3,2/5,4/7,
{8}3,4,3,4h[4:1],,5h[4:1],,6,
{8},7,1,7,6,6,4,4,
{8},2,8,2,3,3,5,5,
{8},7,1,7,1h[4:1],,3,3h[4:1],
{8},5,6,5,6,,7/4,,
{2}1/2-5[8:1],8/7-4[8:1],
{8}1,2,8,7,,6,,5,
{8}4h[4:1],,3,4h[4:1],,5,,7,
{8}1,1,8,8,6,,4/5,,
{2}6h[4:1]/3h[4:1],6h[4:1]/3h[4:1],
{4}1/8,1-5[8:1]/8-4[8:1],,,
{4}1/2,7/8,8/2,1/7,
{4}2b/7b,,3,3,
{8}4h[4:1],,6h[4:1],,8,8,,,
{8}5h[4:1],,3h[4:1],,1,1,,,
{8}3h[4:1],,4h[4:1],,5,6,5,,
{8}6h[4:1],,5h[4:1],,4,3,4,,
{8}1h[4:1],,7h[4:1],,5,5,,,
{8}8h[4:1],,2h[4:1],,4,4,,,
{8}6h[4:1],,8h[4:1],,1,2,1,,
{8}3h[4:1],,1h[4:1],,8,7,8,,
{8}1s5[4:1],,,,7,7,,,
{8}8z4[4:1],,,,2,2,,,
{2}1^4[8:1],5^8[8:1],
{4}1<4[4:1],,,8b,
{8}7p6[4:1],,,,1,1,,,
{8}2q3[4:1],,,,8,8,,,
{8}7/1,1/7,,,2/8,8/2,,,
{8}1,8,3,6,2-6[8:1],,7b,,
{8}8h[8:3],,,4,4h[8:3],,,6,
{16}6,,,8,,,2,,,,4,,5,,,,
{4}3p7[8:1],5,6q2[8:1],4,
{8}4,8,3,7,2,6,1,,
{4}2h[4:1],3,6h[4:1],7,
{4}4h[4:1],3,8h[4:1],7,
{4}2,8/1,6,4/5,
{8}1,2,3,4,5,6,7,,
{4}8b/1b,,6,6,
{8}5h[4:1],,3h[4:1],,1,1,,,
{8}4h[4:1],,6h[4:1],,8,8,,,
{8}1h[4:1],,7h[4:1],,5,6,5,,
{2}7-2[8:1],3-6[8:1],
{8}8h[4:1],,2h[4:1],,4,4,,,
{8}1h[4:1],,7h[4:1],,5,5,,,
{8}6h[4:1],,7h[4:1],,8,1,8,,
{8}4,5,4,,2-5[8:1]/7-4[8:1],,,,
{8}3,,2-6[8:1],,8,8,,,
{8}6,,7-3[8:1],,1,1,,,
{2}8^5[8:1],4^1[8:1],
{4}8>5[4:1],,,1b,
{8}2q4[4:1],,,,7,7,,,
{8}7p5[4:1],,,,2,2,,,
{8}5/1,2/6,,,4/8,7/3,,,
{8}1,1,7,7,2,2,6,6,
{8}4/5,4/5,3/6,3/6,1-4[8:1]/8-5[8:1],,,,
{8}1h[4:1],,7,7h[4:1],,5,6,,
{8}2,1,2/8,,6,5,4/6,,
{4}1/5,4/7,5/2,6/4,
{8}5,,3/7,,1,8,6/2,,
{8}8h[4:1],,2,2h[4:1],,4,3,,
{8}7,8,7/1,,3,4,5/3,,
{8}1h[4:1],,7,7h[4:1],,4,6,5,
{8},7,,1,8,,2b/6b,
E
&inote_5=(175.0){1},
{8}5,,,4,,,4/5,,
{16}6,,5,,4,,3,,,,5,4,5,,3,,
{4}3,4,5,6,
{16}3/4,,7,8,7,,1,,2,,3,,4,,5,,
{8}7h[4:1],,6,6,,1/2,,5/6,
{8},2/4,3,,6,7,8,1,
{8}2h[4:1],,3,3,,7/8,,3/4,
{8},5/7,6,,3/5,2/4,3/4,,
{12}4,
{995}5,,,,,,,,,,,,,,,,,,,,,,,,,,,,,,,,,,,,,,,,,,,,,,,,,,,,,,,,,,,,,,,,,,,,,,,,,,,,,,,,,,,
{12}4,5,,,4/5,,,4/5,,6,
{12}5,
{995}6,,,,,,,,,,,,,,,,,,,,,,,,,,,,,,,,,,,,,,,,,,,,,,,,,,,,,,,,,,,,,,,,,,,,,,,,,,,,,,,,,,,
{12}5,6,,,4/5,,,4/5,,3,
{12}4,
{995}3,,,,,,,,,,,,,,,,,,,,,,,,,,,,,,,,,,,,,,,,,,,,,,,,,,,,,,,,,,,,,,,,,,,,,,,,,,,,,,,,,,,
{12}4,3,,,5/4,,,5/4,,6,
{12}3,
{995}6,,,,,,,,,,,,,,,,,,,,,,,,,,,,,,,,,,,,,,,,,,,,,,,,,,,,,,,,,,,,,,,,,,,,,,,,,,,,,,,,,,,
{12}3,6,,2,7,,,1/8,,,
{2}7h[4:3],5h[4:3],
{2}4h[4:3],2h[4:5],
{1}7h[4:3],
{8}1b,,1b,,1b,8,7,6,
{8}4h[4:1],,2,2,,6h[2:1],,3h[4:1],
{4},3/6,4-1[8:1]/5-8[8:1],4/5,
{16}7/2,,3,4,3,,6,5,6,,3,,2,,1h[4:1],,
{8},2,2-6[8:1],,1-5[8:1],,,,
{8}5h[4:1],,7,7,,1,2,3,
{8},6,6,,5/3,,4/6,,
{16}3/6,,7,8,7,,2,1,2,,8,,7,,6,,
{8}5,4,3,2q7[8:1],,,,6,
{16}7/4,,6,5,6,,7,,8,,1,,2,,3,,
{16}5/2,,3,4,3,,2,,1,,8,,7,,6,,
{16}4/7,,6,5,6,,7,,8,,1,,2,,3-8[8:1],,
{8},5-1[8:1],,4-8[8:1],,1b,1b,,
{8}7/6,,3/2,,6/7,,2,2,
{16}3,,6,5,6,,4,,3,,2h[4:1],,,,1,,
{8}1,,7,8/7,,1/6,,2,
{16}2,,3,4,3,,7,,6q3[8:1],,,,,,,,
{2}4h[4:1]/6h[4:1],5h[4:1]/3h[4:1],
{4}6/5,4/3,6/4,5/3,
{8}5,,4,,7,8,1,2,
{16}4/3,,6,5,6,,1,,2,,3,,4,,5,,
{16}1/7,,2,1,2,,5,,6,,7-3[8:1],,,,7b,,
{16},,2,1,2,,5,,6,,7,,,,1h[4:1],,
{8},2,1,8,7,8,1,2,
{16}3/4,,2,4,3,,6,,5-1[8:1],,,,,,,,
{16}8/2,,7,8,7,,4,,3,,2-6[8:1],,,,2b,,
{16},,7,8,7,,4,,3,,2,,,,8h[4:1],,
{8},7,8,1,2,1,8,7,
{16}5/6,,7,5,6,,3,,4-8[8:1],,,,,,,,
{8}5/6,2,4/3,7,5/6,2h[4:1],,1,
{8},8/7,3,1/2,6,7/8,,3h[4:1],
{8},4,8,6/5,1,3/4,8,5/6,
{16},,1/2,,,,7,,5,,6,,3/4,3/4,,,
{8}6,7,1/8,2,3/4,2,,6h[4:1],
{8},7,8,1,2,,4,4/3,
{8},5/6,3,3/4,6,5/6,2,3/4,
{8}7,5/6,1,4/3,5/2q8[8:1],,2b,,
{16}8,,7,,6,,5,,3,4,3,,,,4/6,,
{16}3/5,,,6/5,,,4/3,,,,7,5,6,4,5,3,
{16}4,,,2/1,,,6/5,,1,,2,,3,,4,,
{16}6,5,6,,7,,5,,3,,2,1,2,,7/1,,
{16}8/2,,,,4/5,,,,3,5,4,6,5,,8^5[8:1],,
{8}8,2v3[8:1],2,1p4[8:1],1,,,2/3,
{16}1h[16:3],,,2h[16:3],,,3,,2,,1,,8,,7,,
{16}2,4,3,6,4,7,5,6,4,,4/5,,2b/7b,,,,
{16}6/5,,3,4,3,,8,,7,,6,,5,,4,,
{8}3p4[8:1],3,1^6[8:1],1,2v7[8:1],2,,6,
{8}6q5[8:1],6,8^3[8:1],8,7v2[8:1],7,,,
{16}2/5,,3,4,3,,8,,1,,6,5,6,,1,,
{16}8,,3,4,3,,5/4,,2-6[8:1]/7-3[8:1],,,,,,,,
{8}8v7[8:1],8,5^2[8:1],5,6v8[8:1],6,,1,
{8}1v2[8:1],1,4^7[8:1],4,3v1[8:1],3,,,
{16}7/4,,6,5,6,,1,,8,,3,4,3,,8,,
{16}1,,6,5,6,,5/4,,1/8,,5/4,,7b/2b,,,,
{8}4/3,7,6/5,2,3/4,7h[4:1],,8,
{8},1/2,6,7/8,3,2/1,,6h[4:1],
{8},5,1,4/3,8,5/6,1,4/3,
{16},,7/8,,,,2,,4,,3,,5/6,6/5,,,
{8}3,2,8/1,7,6/5,4,,3h[4:1],
{8},2,1,8,7,,5,5/6,
{8},3/4,5,5/6,3,4/3,7,5/6,
{8}2,3/4,8,6/5,7/4,4/3,2/5,4/3,
{8}5/6,2/7,1/8,6/3,4^2[8:1]/5^7[8:1],,5b/4b,,
{16}5/3,,2,1,2,,7,8,7,,2,,1,,8,,
{16}3,4,3,2,3,,7,,5/6,,4,,6/5,,7,,
{16}1,5,2,6,3,7,4,8,2,7,1,6,2,7,3,8,
{16}1,,7,8,7,,2,1,2,,8,1,7/2,,,,
{8}2,1-3[8:1],8,7-5[8:1],,8-4[8:1],,,
{8},1,1,,3,4,5,6,
{8}7,8-6[8:1],1,2-4[8:1],,1-5[8:1],,,
{8},8/7,,4/3,5/2-6[8:1],,2b,,
E
