&title=おいでよ!妖精の森
&artist=「gdgd妖精s」
&wholebpm=220.0
&lv_1=2
&lv_2=4
&lv_3=6
&lv_4=9
&lv_5=11
&des_4=はっぴー
&des_5=はっぴー
&inote_1=
(220.0){1},,,
{1}1,,
{1}2,,
{1}3,,
{1}4,,
{1}5,,
{1}6,,
{1}7,,
{1}8,,
{1}1h[1:1],,
{1}8h[1:1],,
{1}7h[1:1],,
{1}6h[1:1],,
{1}5,
{1}4,
{1}4,
{1}3,
{1}3,
{1}2,
{1}2,
{1}1,
{1}1b,
{2}8,8,{1},
{2}1,1,{1},
{1}2,
{1}3,
{1}4,
{1}5,
{1}6,
{1}7,
{1}8-5[1:1],,,,
{1}4-1[1:1],,,,
{1}1/8,,
{2}1,1,{1},
{2}8,8,{1},
{1}7,
{1}6,
{1}5,
{1}4b,
{2}3,3,{1},
{2}2,2,{1},
{1}1,
{1}8,
{1}1,
{1}1/8,
{1}1/8,
{1}1/8,
{1}1b,
{1}2,
{1}3,
{1}4,
{1}5,
{1}6,
{1}7,
{1}8,
{4}8-4[1:1],{1},,
E
&inote_2=
(220.0){1},,,
{2}1,1,
{1}2,
{2}3,3,
{1}4/5,
{2}5,5,
{1}6,
{2}7,7,
{1}8b/1b,
{2}1,2,
{1}2/1,
{2}3,3,
{1}4,
{2}5,6,
{1}6/5,
{2}7,7,
{1}7b,
{1}8-4[4:3],,
{1}1-5[4:3],,
{1}7-3[4:3],,
{2}2,2,
{1}2/1,,
{4}1,1,1,,
{1}2/1,
{4}8,8,8,,
{1}8/7,
{2}8,7,
{2}6,5,
{2}4,3,
{1}2,
{4}8,8,8,,
{1}7/8,
{4}1,1,1,,
{1}1/2,
{2}7,6,
{2}5/4,5/4,
{2}3,2,{1},
{2}5/4,3h[2:1]/6h[2:1],{1},
{1}2-7[4:3],,
{1}6-3[4:3],,
{1}2h[2:1],
{1}1h[2:1],
{1}7/8,
{1}5/6,
{1}3/4,
{1}2/1,
{2}2,1,
{1}2h[2:1]/8h[2:1],
{2}7,8,
{1}7h[2:1]/1h[2:1],
{2}1,2,
{2}3,4,
{2}5,6,
{1}7b/8b,
{4}2,2,1,,
{1}2/1,
{4}7,7,8,,
{1}7/8,
{2}7,6,
{2}5/4,5/4,
{2}3,2,{1},
{2}5/4,6h[2:1]/3h[2:1],{1},
{2}2,2,
{2}3,3,
{2}4,4,
{2}5/4,5/4,
{2}5,5,
{2}6,6,
{2}7,7,
{2}8,8,
{2}1h[2:3],
{1}8h[1:1],,
E
&inote_3=
(220.0){1},,,
{4}1,1,8,,
{4}8,8,1,,
{4}2,2,7,,
{4}7,7,2,,
{4}3,3,6,,
{4}6,6,3,,
{4}4,4,5,,
{4}7/2,2/7,7/2,,
{2}3,3^8[8:5],{1},
{2}6,6^1[8:5],{1},
{2}4,4-1[4:3],{1},
{4}8,8,7,,
{4}1,1,2,,
{1}1h[2:1]/8h[2:1],
{4}6,6,6,,
{1}1h[2:1]/8h[2:1],
{4}3,3,3,,
{1}1h[2:1]/8h[2:1],
{4}5,5,5,,
{1}1h[2:1]/8h[2:1],
{4}4,4,
{2}4v2[4:3],{1},
{4}8,1,8,1,
{1}8-4[16:5],
{4}1,8,1,8,
{1}1-5[16:5],
{4}7,7,7/8,,
{4}2,2,1/2,,
{4}6,6,6/5,,
{4}3,3,3/4,,
{4}8,1,8,1,
{1}8-3[16:5],
{4}1,8,1,8,
{1}1-6[16:5],
{4}7,7,8/7,,
{4}2,2,2/1,,
{4}6,6,5/6,,
{4}3,3,4/3,,
{1}8h[2:1]/1h[2:1],
{1}4-2[8:3]/5-7[8:3],
{4}2,2,1,,
{4}7,7,8,,
{4}1,8,2,7,
{4}6/3,3/6,3/6,,
{4}7,7,8,,
{4}2,2,1,,
{4}8,1,7,2,
{4}3/6,6/3,6/3,,
{4}5,4,6,3,
{4}7/2,7/2,2/7,,
{4}5,5,5,5,
{1}3h[2:1],
{4}4,4,4,4,
{1}6h[2:1],
{2}3,3/4,
{2}6,6/5,
{2}2,1/2,{1},
{4}8/1,1/8,1/8,1/8,
{2}2h[4:1],3h[4:1],
{4}8/1,1/8,8/1,8/1,
{2}7h[4:1],6h[4:1],
{4}2,2,2/1,,
{4}7,7,7/8,,
{4}3,3,4/3,,
{4}6,6,5/6,,
{1}8h[2:1]/1h[2:1],
{1}4-2[8:3]/5-7[8:3],
{4}1,1,8,8,
{4}2,2,7,7,
{4}3,3,6,6,
{4}4,4,5,,
{4}1,8,1,8,
{4}2,7,2,7,
{4}3,6,3,6,
{4}5/4,5/4,6/3,,
{2}5/6,4/3,
{4}1/8,1/8,2b/7b,
E
&inote_4=
(220.0){1},
{2}1,2,
{4}1,8,1,2b/7b,
{4}8,7,6,5/7,
{4}1,2,3,2/4,
{4}8,7,6,5/7,
{4}4,3,2,1/3,
{4}1,2,3,2/4,
{4}8,7,6,5/7,
{4}1,2,3,2/4,
{8},5,4,5,6b/3b,,,,
{4}1/2,4/3,5/6,7/8>6[4:3],{1},
{4}1/3,7,6/8,2,
{4}3/5,4/6,3/5,,
{4}7/5,6,8,1,
{4}2/4,3,1,8,
{4}7/5,3,2/4,8q1[4:3],{1},
{4}2h[2:1],3,3,,
{4}7h[2:1],6,5,,
{4}3,7,
{2}1s5[4:3],{1},
{4}7h[2:1],6,6,,
{4}2h[2:1],3,4,,
{4}8,2,
{2}6p3[4:3],{1},,
{4}5/6,8/2,5/6,2/8,
{4}5/3,6/4,5/3,6/4,
{4}3/4,1/7,3/4,1/7,
{1}2^7[4:1],
{4}7,5,6,4/3,
{4}2,4,3,6/5,
{8}2,,8,,1,1p6[8:7],,,{1},
{4}4/3,1/7,3/4,1/7,
{4}6/4,3/5,6/4,5/3,
{4}5/6,8/2,5/6,8/2,
{1}7^2[4:1],
{4}2,7,3,5/6,
{4}8,2,6,3/4,
{8}7/2,,7/2,,1,8,2,7q6[8:3],
{4},,,5/4,
{8}7/2,,7/2,,8,1,7,2p3[8:3],
{4},,,2b/7b,
{4}6h[4:1],5h[4:1],4h[4:1],3,
{4}3h[4:1],4h[4:1],5h[4:1],6,
{4}5h[4:1],4h[4:1],3h[4:1],2,
{4}4h[4:1],5h[4:1],6h[4:1],7,
{4}6h[4:1],7h[4:1],8h[4:1],1,
{4}3h[4:1],2h[4:1],1h[4:1],8,
{4}2,1/3,7,8/6,
{4}2,1/3,8h[4:1],7h[4:1],
{4}6h[4:1],5,4/3,5/6,
{8}4/5,4/5,,3/6,,,,,
{2}7h[2:1],6>8[1:1],{1},
{2}2h[2:1],3<1[1:1],{1},
{2}8h[4:3],1h[4:1],
{4}2/7,3/6,4/5,,
{2}1/8,2>7[4:3],{1},
{4}5/3,6/1,5/3,6/1,
{4}4/6,5/3,6/4,5/3,
{4}4/6,3/8,6/4,3/8,
{1}7p2[8:3],
{4}2,7,3,4/6,
{4}8,2,6,5/3,
{8}7/2,,7/2,,1,8,2,7p3[8:3],
{4},,,4/5,
{8}2/7,,2/7,,8,1,7,2q6[8:3],
{4},,,2b/7b,
{4}1,7,6,5/7,
{4}8,2,3,4/2,
{4}1,7,6,7/5,
{4}4,3,2,1/3,
{4}8,2,3,4/2,
{4}1,7,6,7/5,
{4}8,2,3,2/4,
{4}5/6,4/3,7/5,2/4,
{8}8/1,,,,3/6,,,5/4,
{4},7b/2b,2b/7b,
E
&inote_5=
(220.0){1},
{2}1,2,
{4}1,2,3,5b,
{4}6/8,5/6,3/5,3/4,
{4}1/3,4/3,4/6,6/5,
{4}6/8,5/6,3/5,3/4,
{8}2/5,,3/6,,7/4,8,8,,
{4}5/7,7/8,2/8,1/2,
{4}2/4,1/2,1/7,7/8,
{8}5/7,,7/8,,2/8,,1/2,2/1,
{8},1/8,1/8,2/7,1b/8b,,,,
{4}4,6,8,2,
{8}1^6[4:1]/8^3[4:1],2b/7b,1b/8b,,,,,,
{2}1-4[8:1],8q4[8:1],
{4}6q3[4:1],3p6[8:3],,,
{4}8b/3b,6b/1b,4b/5b,2b/7b,
{8}8b/1b,8b/1b,,6b/3b,,5,6,7,
{8}8h[4:1],,1h[4:1],,3,3>6[8:3],,,
{8}5p3[4:1],,,,,,7,6,
{8}5>1[4:1],,,8,8,,3/5,,
{8}4<8[4:1],,,1,1,,4/6,,
{8}1/8,,6/3,,2,4,5,7,
{8},6b/3b,,8b/1b,,7,1,8,
{2}1v4[8:1]/7v4[8:1],3-5[8:1]/6-2[8:1],
{4}8s4[8:3],8-2[8:1],,,
{4}1-7[8:1],6-3[8:1],1-4[8:1],,
{8},7,6,5,4,3,2,1p8[2:1],{1},
{4}1-6[8:1]/2-5[8:1],1/2,7-4[8:1]/8-3[8:1],8/7,
{4}2-5[4:1],5-1[4:1],1-7[8:1],,
{4}7-4[8:1]/8-3[8:1],7/8,1-6[8:1]/2-5[8:1],2/1,
{8}3>6[4:1],3,,,,7,8,1,
{4}2-6[4:1],6-1[4:1],1-5[4:1],5-2[4:1],
{8}2>1[8:3],,,,,,5,4,
{8}3,,2/4,,5/7,7/5,,6z2[8:3],{1},
{4}7-4[8:1]/8-3[8:1],8/7,1-6[8:1]/2-5[8:1],2/1,
{4}7-4[4:1],4-8[4:1],8-2[8:1],,
{4}1-6[8:1]/2-5[8:1],2/1,7-4[8:1]/8-3[8:1],8/7,
{8}8/1,6^3[8:1],,,,2,1,8,
{4}7-3[4:1],3-8[4:1],8-4[4:1],4-7[4:1],
{8}7<8[8:3],,,,,,6/4,3/5,
{4}6/4,2/7^2[8:1],3q6[4:1],,
{8},7,8,7,1/6,,3/5,4/6,
{4}3/5,7/2^7[8:1],6p3[4:1],,
{8},2,1,2,3/8,,2b/7b,,
{4}8-5[4:1],5-2[4:1],2-7[4:1],7-4[4:1],
{4}4-1[4:1],1-6[4:1],6-3[4:1],3b,
{4}1^6[4:1],6^3[4:1],3p6[4:1],6^3[4:1],
{4}3^8[4:1],8q5[4:1],5q2[4:1],2b,
{4}8^5[4:1],5q1[4:1],1^4[4:1],4p8[4:1],
{4}8^5[4:1],5p2[8:3],,,
{8}3,4,5/2,,6,5,4/7,,
{8}1,8,2/7,,7,6,5,4,
{16}3,,,,6,5,6,,3,4,3,,6,5,6,,
{8}3,7b/2b,,7b/2b,,,,,
{4}5/3,6,5/3,4,
{8}6,6h[4:1],,5h[4:1],,4,3,,
{4}6/4,3,6/4,5,
{8}7-1[8:1],7h[4:1],,,,2,1,8,
{2}7^4[8:1],2^5[8:1],
{8}4,5,,6/3,,,1/8,7v2[8:1],
{8}2>7[8:3],,,,,,,5/4,
{16},,,6h[16:3],,,5h[16:3],,,4h[16:3],,,3b,,,,
{4}7-4[8:1]/8-3[8:1],8b/7b,1-6[8:1]/2-5[8:1],1b/2b,
{8}7,8,,4/3,,2,1,,
{4}1-6[8:1]/2-5[8:1],1b/2b,7-4[8:1]/8-3[8:1],8b/7b,
{8}2,1,,5/6,,5,4,3,
{4}2-4[8:1],6-8[8:1],1-5[8:1],8-4[8:1],
{8}2,2q3[4:1],,,,,7,8,
{8}1,,8/3,,2^5[8:1],1,,,
{8},8/7,8/7,7/8,6b/1b,,2,1,
{8}8,,1/6,,7^4[8:1],8,,,
{8},1/2,2/1,1/2,3b/8b,,2b/7b,,
{8}8,7^2[8:1],6,,,5,4,3,
{8}4,5^2[8:1],6,,,4,5,6,
{8}5,4^7[8:1],3,,,2,3,4/1,
{8},7,6,5/8,,4/5,2/7,,
{8}8,7v2[8:1],6,,,5,4,3,
{8}4,5v2[8:1],6,,,4,5,6,
{8}5,4v7[8:1],3,,,6/5,5/6,7b/4b,
{8},8,7,6,5,4,3,2,
{8}1/3,,,,6/8,,,5/4,
{8},6/4,3/5,6/4,7b/2b,
E
