&title=Tachyon
&artist=mamenoi(MANYO & やなぎなぎ)
&wholebpm=176.0
&lv_1=2
&lv_2=3
&lv_3=7
&lv_4=8+
&lv_5=11
&des_4=Jack
&des_5=mai-Star
&inote_1=
(176.0){1},1,,
{1}1,,
{1}8,,
{1}8,,
{1}7,,
{1}8,,
{1}1,,
{1}2,,
{1}1h[1:1],,
{1}8h[1:1],,
{1}7h[1:1],,
{1}8h[1:1],,
{1}1,,
{1}2,,
{1}3,,
{1}4,,
{1}5,,
{1}6,,
{1}7,,
{1}8b,,
{1}1-4[4:3],,
{1}5-8[4:3],,
{1}1,
{1}1,
{1}8,
{1}8,
{1}1b,
{1}2,
{1}3,
{1}4,
{1}5,
{1}6,
{1}7,
{1}8,
{1}8h[1:1],,
{1}1h[1:1],,
{1}2h[1:1],,
{1}1h[1:1],,
{1}8,
{1}7,
{1}6,
{1}5,
{1}4,
{1}3,
{1}2,
{1}1,
{1}1-5[4:3],,
{1}8-4[4:3],,
{1}1,,
{1}8,,
{1}1,,
{1}8,,
{1}1/8,
E
&inote_2=
(176.0){1},,,,,,,,,
{1}4h[4:3],,
{1}3h[4:3],,
{1}2h[4:3],,
{1}1,
{1}8/1,
{1}2,
{1}1/2,
{1}3,
{1}4/3,
{1}4,
{1}5,
{1}5h[1:1]/6h[1:1],,
{1}6,
{1}6/5,
{1}7,
{1}8/7,
{1}8,
{1}1,
{1}2h[1:1]/1h[1:1],,
{1}2-5[4:3],,
{1}8,
{1}8,
{1}7-4[4:3],,
{1}1,
{1}8b/1b,
{2}1,1,
{1}1,
{2}3,3,
{1}3,
{1}6/5,
{1}6/5,
{2}7,7,
{1}7,
{2}8,8,
{1}8,
{2}6,6,
{1}6,
{1}3/4,
{1}4/3,
{2}2,2,
{2}1,1,
{1}8h[1:1],,
{2}1,1,
{1}2,
{2}3,3,
{1}4,
{2}5,5,
{1}6/5,
{2}6,6,
{1}7,
{2}8/7,8/7,
{1}8/7,
{2}7,7,
{1}6,
{2}5,5,
{2}5/4,5/4,
{1}6h[1:2]/3h[1:2],,,,
{1}3,
{1}3,
{1}2,
{1}2,
{2}1,1,
{1}1,
{2}8,8,
{1}8,
{1}7-3[4:3],,
{1}1h[1:1],,
{1}2-6[4:3],,
{1}8h[1:1],,
E
&inote_3=
(176.0){1},1<5[4:3],,
{1}8>4[4:3],,
{1}5<4[8:11],,
{1}3^8[8:5],
{1}7^2[8:5],
{1}1s5[1:1],,
{1}8z4[1:1],,
{1}7-4[2:1],,
{1}2-5[2:1],
{1}8-4[2:1],
{4}1,1,,1,
{4},3,,3,
{4},5,,5,
{4},7,,7,
{4}8,8,,7,
{4},6,,5,
{4},4,,3,
{4},2,,1b,
{4}5,6,4,3,
{4}7,8,2,1,
{4}2,3,4,5,
{4}1,8,7,5/6,
{4}3,4,3,4/3,
{4}6,5,6,5/6,
{2}2h[2:1],1h[2:1],
{2}8h[2:1],7b,
{1}3^6[2:1],
{1}7^2[2:1],
{1}5-2[8:3],
{1}1-6[8:3],
{1}3h[2:3],
{1}7h[2:1],
{1}3^1[8:3]/7^5[8:3],
{1}2b/6b,
{4}1,3,5,7,
{4}8,6,4,2,
{4}7,8,1,2,
{4}6,5/6,3,3/4,
{1}1/8^5[8:3],
{1}5/1^4[8:3],
{1}4-1[8:3]/5-8[8:3],
{2}1-5[16:3],8-4[16:3],
{4}2,5,1,7,
{4}4,8,2,6,
{8}2h[8:3]/7h[8:3],,,,,,,1-4[8:3]/8-5[8:3],{1},
{4}3h[4:3],4,,4,
{4}6h[4:3],5,,5,
{2}2h[2:1],7,
{4}2b,1b,8b,7b,
{1}6^1[2:1],
{1}3^8[2:1],
{1}5-2[8:3],
{1}1-6[8:3],
{4}3/6,3/6,5/4,,
{4}2/7,2/7,1/8,,
{4}2,3,4,5,
{4}6,7,8,1b,
{4}1/8,2,3,4,
{4}1/8,7,6,5,
{8}8h[8:3]/1h[8:3],,,,,,,2-4[4:1]/7-5[4:1],{1},
{4}2h[4:3],1,,1,
{4}7h[4:3],8,,8,
{2}3h[2:1],6,
{4}3b,4b,5b,6b,
{1}7^2[8:5],
{1}3^6[8:5],
{1}7^2[8:5],
{1}3^6[8:5],
{1}8-4[2:1],
{1}1-5[2:1],
{1}7-4[2:1],
{1}2-5[2:1],
{4}6/3,2,,1,
{4},8,,7,
{1}7h[2:1]/2h[2:1],
{1}8h[2:1]/1h[2:1],
{1}2^5[4:3],,
{1}7^4[4:3],,
{1}1p4[4:3],,
{1}8q5[4:3],,
E
&inote_4=
(176.0){1},
{4}2^5[8:3],,,8^5[8:3],{1},
{4}7^4[8:3],,,1^4[8:3],{1},
{4}2^5[8:3],,,7^4[8:3],{1},
{1}3>7[2:1],
{1}6<2[2:1],
{4}1^4[8:3],,,1^6[8:3],{1},
{4}8^5[8:3],,,8^3[8:3],{1},
{4}3^6[8:3],,,7p2[8:3],{1},
{1}2<6[2:1],
{1}7>3[2:1],
{4}2,5,1,6,
{8}8,7,,6/1,,,,,
{4}7,4,8,3,
{8}1,2,,8/3,,,,,
{4}1,3,8,6,
{4}3,4,5,6,
{8}2/7,,,,6,5,4,3-8[8:3],{1},
{4}7,3,5,1,
{8}7,2,,8/1,,,,,
{4}2,6,4,8,
{8}2,7,,1/8,,,,2,
{8}2,,7,7,,,3,5,
{4}4,,5/6,3/4,
{2}2h[2:1],7h[2:1],
{8}1h[2:1],,,8,8,,,,
{4}7,6,5-1[8:3],,
{2},1,
{1}2q5[4:3],
{4},,,7,
{4}6,5,4-8[8:3],,
{2},6-3[16:5],
{1}2-7[16:5],
{8}8b/1b,,,,3,6,1,,
{4}8-4[16:3],2-5[16:3],,6<3[8:3],
{4},,,4h[4:1],
{8}5,,7,2,,8,,1s5[2:1],{1},
{8},,,4,5,3,6,2,
{8},,8,7/1,,2/8,,,
{8}2^5[16:3],,,8^5[16:3],,,1-5[16:3],,
{8},,,,6,3,8,,
{4}1-5[16:3],7-4[16:3],,3>6[8:3],
{4},,,4h[4:1],
{8}5,,6,8b/7b,,8b/1b,,1b/2b,
{8},,,,4,5,6,7h[8:3],
{8},,1,1-5[4:1],,,,,
{8},,,,5,4,3,2h[8:3],
{8},,8,8,,,,4,
{4}5,3/4,6/5,7p4[4:3],{1},
{4},,,5/3,
{8}4/6,,2,7,,1,,8z4[2:1],{1},
{8},,,5,4,6,3,7,
{8},,1,2/8,,1/7,,,
{8}7^4[16:3],,,1^4[16:3],,,8-4[16:3],,
{8},,,,3,6,1,,
{4}7-5[8:1],2-4[8:1],,4^1[8:3]/5^8[8:3],
{4},,,5h[4:1],
{8}4,,3,2b/1b,,8b/1b,,7b/8b,
{8},,,,5,4,3,2h[8:3],
{8},,8,8-4[4:1],,,,,
{8},,,,4,5,6,7h[8:3],
{8},,1,1,,,,2,
{4}7,6/5,4/3,5<4[2:3],{1},,
{8}3h[8:3],,4,4,,,6h[8:3],,
{8}5,5,,,7,8,1,,
{8}2h[8:3],,1,1,,,7h[8:3],,
{8}8,8,,,5/6,,4/3,,
{8}5h[8:3],,6,6,,,4h[8:3],,
{8}3,3,,,2,1,8,,
{8}7h[8:3],,6,6,,,2h[8:3],,
{8}3,3,,,5/1,,8/4,,
{8}3h[8:3],,1,1,,,6h[8:3],,
{8}8,8,,,2/7,,8b/1b,,
{8}2,,,3,,,4,,
{1}4-8[8:3],
{8}7,,,6,,,5,,
{1}5-1[8:3],
{8}2,,,3,,,2,,
{1}2z6[2:1],
{8}7,,,6,,,7,,
{4}7s3[2:1],,,,
E
&inote_5=
(176.0){1},
{8}1-5[8:1],,,7-4[8:1],,,2h[4:3],,
{4},3q1[16:3],,,
{8}8-4[8:1],,,2-5[8:1],,,7h[4:3],,
{4},6p8[16:3],,,
{8}1-6[8:1],,,5-2[8:1],,,
{4}6<3[2:1],{1},
{1}7p4[2:1],
{1}3q6[2:1],
{8}8z4[16:3],,,2-6[8:1],,,5h[4:3],,
{4},4>7[16:3],,,
{8}1s5[16:3],,,7-3[8:1],,,4h[4:3],,
{4},5<2[16:3],,,
{8}2v3[8:1],,,4q1[8:1],,,
{4}8^5[4:1],{1},
{1}8q3[2:1],
{781}1p6[2:1],,,,,,,,,,,,,,,,,,,,,,,,,,,,,,,,,,,,,,,,,,,,,,,,,,,,,,,,,,,,,,,,,,,,,,,,,,,,,,,,,,,,,,,,,,,,,,,,,,,,,,,,,,,,,,,,,,,,,,,,,,,,,,,,,,,,,,,,,,,,,,,,,,,,,,,,,,,,,,,,,,,,,,,,,,,,,,,,,,,,,,,,,,,,,,,,,,,,,,,,,,,,,,,,,,,,,,,,,,,,,,,,,,,,,,,,,,,,,,,,,,,,,,,,,,,,,,,,,,,,,,,,,,,,,,,,,,,,,,,,,,,,,,,,,,,,,,,,,,,,,,,,,,,,,,,,,,,,,,,,,,,,,,,,,,,,,,,,,,,,,,,,,,,,,,,,,,,,,,,,,,,,,,,,,,,,,,,,,,,,,,,,,,,,,,,,,,,,,,,,,,,,,,,,,,,,,,,,,,,,,,,,,,,,,,,,,,,,,,,,,,,,,,,,,,,,,,,,,,,,,,,,,,,,,,,,,,,,,,,,,,,,,,,,,,,,,,,,,,,,,,,,,,,,,,,,,,,,,,,,,,,,,,,,,,,,,,,,,,,,,,,,,,,,,,,,,,,,,,,,,,,,,,,,,,,,,,,,,,,,,,,,,,,,,,,,,,,,,,,,,,,,,,,,,,,,,,,,,,,,,,,,,,,,,,,,,,,,,,,,,,,,,,,,,,,,,,,,,,,,,,,,,,,,,,,,,,,,,,,,,,,,1,,,,,,,,,,,,,,,,,,,,,,,,,,,,,,,,,,,,,,,,,,,,,,,,,,,,,,,,,,,,,,,,,,,,,,,,,,,,,,,,,,,,,,,,,,,,,,,,,
{8}1v6[8:1],,,7,6v3[8:1],,,6,
{8}5v8[8:1],4,3,2p7[4:1],,,,8,
{8}8v3[8:1],,,2,3v6[8:1],,,3,
{8}4,5p8[8:1],,1p4[8:1],,,,7,
{8}7-3[8:1],,,2,2-6[8:1],,,5,
{4}4-8[8:1],7-2[8:1],6q3[8:1],,
{8}2-7[8:1],,,,3,2,1,8-5[8:1],
{8},8-4[8:1],,8-3[8:1],,,,1,
{8}1-6[8:1],,8-4[8:1],8,6-3[8:1],,,,
{8}5,5<2[4:1],,,,,,8,
{8}8-3[8:1],,1-5[8:1],1,3-6[8:1],,,,
{8}4,4>7[4:1],,,,,,6,
{8}6v4[8:1],,5,5h[8:3],,,1v4[8:1],1v6[8:1],
{4},,3^8[8:1],6^1[8:1],
{2}2<6[16:3],8>4[16:3],
{8}1h[2:1],,,8b,7b,,,,
{4}7v6[8:1],1^4[8:1],5p8[8:3],,
{8},,,,2h[8:3],,,1,
{4}1s5[8:5],1h[4:5],,,
{4},,,1,
{4}1v2[8:1],7^4[8:1],3q8[8:3],,
{2},4h[4:3],
{1}8z4[2:1],
{1}1b,
{8}1<5[8:3],,2,2,3,3,4,,
{8}4v7[8:1],,5,5v2[8:1],,1,1,,
{8}8^3[8:3],,7,7,6,6,5,,
{8}2>6[16:3]/8q6[16:3],8/2,,,1p3[16:3]/7<3[16:3],1/7,,,
{8}2b/7h[8:7],,,8,1,2,3,4h[2:1],
{8},,3,3p5[8:1],,,,,
{8}2^5[8:1],,6,6^3[8:1],,2,2b,,
{2},4-1[8:1]/5-8[8:1],
{8}2^5[4:1],,6,7,8,1,2,,
{8}3^1[8:1],,6,6^1[8:1],,2,2,,
{8}8/2,,,4/2,,,,6/2-6[8:1],
{8},8,8v3[8:1],,2v5[8:1],2,,,
{8}3^6[8:1],,7,7^4[8:1],,8,8,,
{4}1/5,2-6[8:1]/8-4[8:1],,5,
{8}4p7[8:3]/8p3[8:3],,,,,,,3/7,
{4}8/4,5/1,6/2,3p6[4:3]/7^2[4:3],{1},
{4}2p5[4:1]/6p1[4:1],,,7-4[8:1]/8-4[8:1],
{8},,4,4h[2:1],,8-4[4:1],,8,
{4},,3h[4:1],2^7[8:1],
{8},,,2^5[4:1],1,8,7,6h[8:3],
{8},,5,5p2[4:1],,,,,
{8}7^5[8:1],,1,1p5[8:1],,8,8^3[4:1],,
{8},,,,1^6[8:1],2,3h[4:1],,
{4}7^2[8:1],3p6[16:3],,8h[4:1],
{4}7<2[8:3],,,8-4[8:1],
{8}1-5[8:1],,4,4p5[16:3],,7p2[16:3],,,
{8},,,,6^1[8:1],3^8[8:1],,,
{8},,8,1s5[4:1],,,,,
{8}8b,,,,2^5[8:1],7^4[8:1],,,
{8},,4h[8:3],5h[4:1],,,,5/3,
{4}6/4,2/3,1/8,6/7,
{8}8-4[8:1],,,2-5[8:1],,,7h[4:3],,
{4},6p8[16:3],,,
{8}1-5[8:1],,,7-4[8:1],,,2h[4:3],,
{4},3q1[16:3],,,
{8}8z4[16:3],,,2-6[8:1],,,5h[4:3],,
{4},4>7[16:3],,,
{8}1s5[16:3],,,7-3[8:1],,,4h[4:3],,
{4},5<2[16:3],,,
{8}1h[8:3],,,8h[8:3],,,7h[2:1],,
{4},6q3[4:1],,,
{8}5h[8:3],,,4h[8:3],,,
{4}3>6[8:3],{1},
{8}2h[8:3],,,7h[8:3],,,4h[4:1],,
{1}5<3[4:3],
{8}4h[8:3],,,6h[8:3],,,5h[4:1],,
{1}2<6[4:3],
{8}3h[8:3],,,4h[8:3],,,5h[4:1],,
{1}4p7[2:1],
{8}2h[8:3],,,1h[8:3],,,8h[4:1],,
{8}1p6[8:3],,,,,,
E
