&title=THE IDOLM@STER 2nd-mix
&artist=ナムコエンジェル「アイドルマスター」
&wholebpm=168.0
&lv_1=2
&lv_2=4
&lv_3=7
&lv_4=9
&lv_5=9+
&des_4=譜面-100号
&des_5=はっぴー
&inote_1=
(168.0){1},,,,,,
{1}1,
{1}1,
{1}2,,
{1}8,
{1}8,
{1}7,,
{1}7,
{1}7,
{1}6h[1:1],,
{1}5,
{1}5,
{1}4h[1:1],,
{1}3,
{1}3,
{1}2,
{1}2,
{1}1h[1:1],,
{1}2,
{1}2,
{1}3h[1:1],,
{1}4,
{1}4,
{1}5h[1:1],,
{1}6,
{1}6,
{1}7,
{1}7,
{1}8h[1:1],,
{1}7,
{1}7,
{1}6,
{1}6/5,
{1}4,
{1}4,
{1}3,
{1}3b,
{2}2,2,
{1}2,
{1}1-5[4:3],,
{2}7,7,
{1}7,
{1}8-4[4:3],,
{2}1,1,
{1}1,
{1}2-6[4:3],,
{2}8,8,
{1}8,
{1}7-3[4:3],,
{1}4,
{1}4,
{1}5,
{1}5,
{1}6,
{1}6,
{1}7,
{1}7b,
{2}8,8,
{1}8/1,
{1}7-4[4:3],,
{2}1,1,
{1}8/1,
{1}2-5[4:3],,
{2}7,7,
{1}8/7,
{1}8-3[4:3],,
{2}2,2,
{1}2/1,
{1}1-6[4:3],,
{1}8b,
E
&inote_2=
(168.0){1},,,,,,
{2}2,2,
{2}3,3,
{1}2-5[4:3],,
{2}7,7,
{2}6,6,
{1}7-4[4:3],,
{2}2,2,
{2}3,3,
{2}4,4,
{1}5h[2:1],
{2}7,7,
{2}6,6,
{2}5,5,
{1}4h[2:1],
{1}3-7[4:3],,
{1}6-2[4:3],,
{1}3h[2:1],
{1}4h[2:1],
{2}5,5,
{2}4,4,
{2}6,6,
{1}3h[2:1],
{2}8,8,
{2}1,1,
{2}7,7,
{1}2h[2:1],
{1}7-3[4:3],,
{1}2-6[4:3],,
{1}6h[2:1],
{1}5h[2:1],
{2}4,3/4,
{2}5,6/5,
{2}7,8,
{1}8/1,
{2}2,2/1,
{2}7,7/8,
{2}1,8,
{1}7b/2b,
{2}1,1,
{2}2,2,
{2}3,4,
{2}5,6,
{2}8,8,
{2}7,7,
{2}6,5,
{2}4,3,
{2}2,2/1,
{2}2,1/2,
{2}4,3,
{1}5h[2:1],
{2}7,8/7,
{2}7,7/8,
{2}5,6,
{1}4h[2:1],
{1}3,
{1}3,
{1}2,
{1}2,
{1}1-6[4:3],,
{1}8-3[4:3],,
{4}1,1,,,
{4}2,2,,,
{2}3,4,
{2}5,6,
{4}8,8,,,
{4}7,7,,,
{2}8,1,
{1}2/7,
{4}8,8,8,,
{4}7,7,7,,
{2}6,5,
{2}4,3,
{4}1,1,1,,
{4}2,2,2,,
{2}1,8,
{1}1-4[4:3],,
E
&inote_3=
(168.0){1},,,,,,
{4}7,7,1,2,
{4}8,7,6,6/5,
{4}2,2,8,7,
{4}1,2,3,3/4,
{4}6,6,4,3,
{4}2,2/1,3,3/4,
{4}6,6,8,8,
{8}8/1,1/8,,8b/1b,,,,,
{4}8,7,6,5,
{4}1,2,3,4,
{4}7,8,1,2,
{4}7,8/7,2,2/1,
{4}7,6,5,4,
{4}2,3,4,5,
{4}7,6,
{2}5-1[4:1],{1},
{4}7,8,1,2,
{4}2,1,8,7,
{4}6,5,
{2}4-8[4:1],{1},
{2}3h[2:1],4h[2:1],
{2}5h[2:1],6,
{4}8,8,6,6,
{4}1,1,3,3,
{4}8,7,1,2,
{2}8-5[4:1],1-4[4:1],
{4}8,6,7,5,
{4}1,3,2,4,
{4}7,1,8,2,
{2}7-4[4:1],2-5[4:1],
{4}7,6,5,7/5,
{4}2,3,4,4/2,
{4}6,7,8,8/6,
{4}3,2,1,3/1,
{2}8h[4:3],1h[4:1],
{4}8/1,2/7,6/3,4/5,
{4}7,7,8/7,6/5,
{4}2,2,2/1,3/4,
{4}6,5,4,3,
{4}3,4,5,6,
{4}7,7,7/6,7/5,
{4}2,2,2/3,2/4,
{4}5,6,7,8,
{1}1b,
{4}7,6/5,4,5/6,
{4}2,3/4,5,4/3,
{4}5,4,3,2,
{1}1^4[8:3],
{4}2,4/3,5,4/3,
{4}7,5/6,4,6/5,
{4}4,5,6,7,
{1}8^5[8:3],
{4}3,2/1,8,1/2,
{4}6,7/8,1,7/8,
{4}6,5,4,3,
{1}2^5[8:3],
{4}6,7/8,1,8/7,
{4}3,2/1,8,2/1,
{4}3,4,5,6,
{1}7^4[8:3],
{4}2h[2:1],1,1,,
{4}7h[2:1],8,8,,
{4}3h[2:1],4,4,,
{4}6h[2:1],5,5,,
{4}2h[2:1],3,3,,
{4}7h[2:1],6,6,,
{4}1h[2:1],8,8,,
{8}1/8,8/1,,2b/7b,,,,,
{4}2,4,6,5/7,
{4}6,4,2,3/1,
{4}2,8,6,7/5,
{1}6-2[4:1],
{4}7,5,3,2/4,
{4}3,5,7,6/8,
{4}7,1,3,4/2,
{1}3-7[4:1],
{4}2,4,5/6,7/4,
{4}6,4,1/2,3/8,
{4}2,8,7/8,6/1,
{1}2q6[8:3],
{4}7,5,4/3,2/5,
{4}3,5,7/8,1/6,
{4}7,1,1/2,3/8,
{4}1/2,8/1,8/7,1^4[2:1]/8^5[2:1],,,,
E
&inote_4=
(168.0){1},,,,,,
{4}3,6,3,6,
{4}3,6,3,6/5,
{4}3/5,4/6,3/5,4/6,
{4}3/5,4/6,3/5,4/6,
{4}5/2,4/3,5/2,5/4,
{4}4/7,6/5,7/4,5/4,
{8}6/2,,7/3,,6/2,,8,1,
{8}7b,2b,,7v2[8:1],,,,,
{4}7/2,2/4,2/7,2/4,
{4}2/7,7/5,2/7,2/4,
{4}1/7,7/5,7/1,7/2,
{4}2/8,2/4,8/2,7/2,
{4}8/1,7/5,8/1,2/4,
{4}7/1,3/5,8/2,6/4,
{4}7/1,3/5,4^1[4:1]/8^5[4:1],,
{4},,,8/3,
{4}3/4,3/8,3/4,6/1,
{4}6/5,6/1,5/6,3/8,
{8}6,3,6h[2:1],,5,,5,,
{8}3,6,3h[2:1],,4,,4,,
{4}4/5,6b/3b,3/6,4b/5b,
{4}4/5,3b/6b,5b/4b,6b/3b,
{2}4-7[8:1],5-2[8:1],
{2}4-8[8:1],5-1[8:1],
{2}4-7[8:1],5-2[8:1],
{4}5/3,4/3,6/4,6/5,
{4}2/6,3/4,3/7,5/6,
{4}3/4,4/3,6/5,5/6,
{4}7/8,2/1,3/4,6/5,
{4}2/1,8/7,6/5,4/3,
{4}7/6,5/4,3/2,5/4,
{4}7/5,5/4,4/2,4/5,
{4}8/1,5/4,7/2,6/3,
{4}6/2,3/7,2/6,4/5,
{4}2/8,4b/6b,7/1,5b/3b,
{4}1/8,6b/4b,3b/5b,6b/4b,
{4}4/1,3/2,1/5,7/6,
{4}8/5,7/6,8/4,2/3,
{4}5/4,7/6,1/8,3/2,
{4}5/4,4/5,6/3,4/5,
{4}1/6,7/2,8/3,2/7,
{4}1/6,8/5,4/7,6/3,
{4}2/5,7/4,3/6,1^6[4:1]/8^3[4:1],
{8},,,,,6,1,6,
{8}3,8,,6b/1b,,8b/3b,,6,
{8}1,6,,8b/3b,,1b/6b,,3,
{8}8,5,,6/7,,5/8,,6/7,
{8},2/3,,4/1,,3/2,,4,
{8}7,4,,5b/2b,,7b/4b,,5,
{8}2,5,,7b/4b,,5b/2b,,7,
{8}3,7,,2/6,,3/7,,2/6,
{8},8/4,,5/1,,3/7,,6,
{8}2,4,,1b/2b,,2b/1b,,2,
{8}6,8,,6b/5b,,5b/6b,,1,
{8}7,1,,3/1,,1/7,,1/3,
{8},8/6,,8/2,,8/6,,2,
{8}5,2,,4b/3b,,6b/5b,,7,
{8}4,7,,6b/5b,,3b/4b,,8,
{8}2-6[8:1],7-3[8:1],,,,5/4,,1^6[4:1]/8^3[4:1],{1},
{8},3/2,,1/3,,3/8,,3/7,
{8},6/7,,6/8,,6/1,,6/2,
{8},3/2-7[4:1],,3,,3,,6/3,
{8},6/7-2[4:1],,6,,6,,6/3h[1667:835],
{8},6,,8h[2:1],,3,,1h[2:1],
{8},8,,6h[2:1],,1,,3,
{8},4/8,,1/5,,8/4,,4^1[4:1]/8^5[4:1],
{8},,,,,6,1,6,
{8}3,8,,6b/1b,,8b/3b,,6,
{8}1,6,,8b/3b,,1b/6b,,3,
{8}8,5,,7/6,,8/5,,7/6,
{8},3/2,,4/1,,3/2,,8,
{8}1,5,,7b/6b,,6b/7b,,1,
{8}8,4,,2b/3b,,2b/3b,,7,
{8}2,7,,4/3,,4/5,,5/6,
{8},1/2,,8/1,,7/8,,6,
{8}2,4,,1b/2b,,1b/2b,,2,
{8}6,8,,6b/5b,,6b/5b,,1,
{8}7,1,,3/1,,7/1,,3/1,
{8},6/8,,8/2,,6/8,,2,
{8}5,2,,3b/4b,,5b/6b,,7,
{8}4,7,,5b/6b,,4b/3b,,8,
{8}2-6[8:1],7-3[8:1],,,,4/5,,1^6[4:1]/8^3[4:1],
{8},,,,,,,5p8[8:7],{1},,
E
&inote_5=
(168.0){1},,,,,
{8},,,,,1,2,3,
{8}4,5,,8/7,,1/2,,7,
{2}7-4[8:1],2-5[8:1],
{8}6,6,,3/4,,7,,6/5,
{8},2,,6/5,,8,7,6,
{8}5,4,,1/2,,8/7,,2,
{2}2-5[8:1],6-1[8:1],
{8}2,2,,7/8,,3,,1/2,
{8}8,7,,3b/4b,,1,1,,
{8}8,7,6,5,,4/3,,7/8,
{8},6/5,,1/2,,4/3,,8/7,
{8},3,3^5[8:1],,7^1[8:1],,,,
{8},4/3,,6/5,,8,8,,
{8}1,2,3,4,,5/6,,2/1,
{8},3/4,,7/8,,6/5,,1/2,
{8},6,6^4[8:1],,2^8[8:1],,,,
{8},5/6,,4/3,,1,1,,
{8}8,7,6,,3,4,,5/6,
{8},2/8,,3/4,,7/1,7,,
{8}1,2,3,,6,5,,3/4,
{8},1/7,,6/5,,2/8,2,,
{2}1-5[8:1]/8-6[8:1],5-3[8:1]/6-2[8:1],
{2}1-3[8:1]/8-4[8:1],3-7[8:1]/4-6[8:1],
{8}2,1,,5/6,,3,4,3,
{8},8/2,,1/6,,7,8,7,
{8},3/2,,4/6,,1/2,,3,
{8}4,,7,8,,5/6,,2/1,
{8},6/8,,5/2,,6,5,6,
{8},3/4,,6/8,,2,1,2,
{8},6/7,,5/3,,7/8,,2,
{8}1,,6,5,,3/4,,6/5,
{8},4/8,,3/2,,1/5,,7,
{8}6,5,4,,2,3,,5/6,
{8},4/2,,7/8,,3/1,,2,
{8}3,4,5,,7,6,5,,
{2}1-6[8:1],8-3[8:1],
{2}2-5[8:1],7-4[8:1],
{8}8,1,2-5[8:1],,1-6[8:1],,,,
{8}1,8,7-4[8:1],,8-3[8:1],,,,
{8}4,5,6-1[8:1],,5-2[8:1],,,,
{8}5,4,3-8[8:1],,4-7[8:1],,,,
{8}1,8,7-1[8:1],,6-2[8:1],,,,
{8}8,1,2-8[8:1],,3-7[8:1],,,,
{8}6,5,4-1[8:1],,5-8[8:1],,,,
{8}1b,,,,,7,8,,
{8}3,4,,6/5,,1/2,,7,
{8}6,5,,3/4,,7/8,,2,
{8}3,4,,6/5,,1/2,,7-1[8:1],
{8},3-5[8:1],,,,8,8,,
{8}2,1,,8/7,,4/3,,6,
{8}7,8,,1/2,,5/6,,3,
{8}2,1,,7/8,,4/3,,2-8[8:1],
{8},6-4[8:1],,,,1,2,3,
{8}4,5,,1/2-6[8:1],,,,7,
{8}6,5,,8/7-3[8:1],,,,1,
{8}2,3,,5/7,,6-4[8:1],,3-7[8:1],
{8},8-2[8:1],,,,3,4,5,
{8}6,7,,4/3-7[8:1],,,,8,
{8}7,6,,5/6-2[8:1],,,,1,
{8}8,7,,2/4,,3-5[8:1],,6-2[8:1],
{8},1-7[8:1],,,,6,8,1-4[8:1],
{8},,,1^4[8:1]/8-5[8:1],,,,3^8[8:1]/7^4[8:1],
{8},,,8p3[8:1],,,,1-3[8:1]/7-5[8:1],
{8},,,1-4[8:1]/7-4[8:1],,,,4-1[8:1]/6-1[8:1],
{8},,,7-3[8:1],,,,2^7[8:1]/6^3[8:1],
{8},,,7-3[8:1],,,,1-4[8:1]/2-7[8:1],
{8},,,7-2[8:1],,,,2^7[8:1]/7^4[8:1],
{8},,,2p5[8:1]/8-5[8:1],,,,,
{8}1v4[8:1],6v5[8:1],,,,3,4,5,
{8}6,7h[4:1],,6-2[8:1],,,,8,
{8}1,2h[4:1],,3-7[8:1],,,,1,
{8}8,7h[4:1],,5h[4:1],,3h[4:1],,1p8[4:1],
{8},,,,,6,5,4,
{8}3,2h[4:1],,3-7[8:1],,,,1,
{8}8,7h[4:1],,6-2[8:1],,,,8,
{8}1,2h[4:1],,4h[4:1],,6h[4:1],,8q1[4:1],
{8},,,,,3,2,1,
{8}8,7h[4:1],,6-1[8:1],,8b,,4,
{8}3,2h[4:1],,3-8[8:1],,1b,,5,
{8}6,7h[4:1],,1h[4:1],,3h[4:1],,2q3[4:1],
{8},,,,,6,7,8,
{8}1,2h[4:1],,3-8[8:1],,1b,,5,
{8}6,7h[4:1],,6-1[8:1],,8b,,4,
{8}3,2h[4:1],,8h[4:1],,7h[4:1],,6p3[4:1],
{8},,,,,1,2,3b,
E
