&title=RPG
&artist=SEKAI NO OWARI
&wholebpm=135.0
&lv_1=1
&lv_2=3
&lv_3=6
&lv_4=7+
&lv_5=9+
&des_4=mai-Star
&des_5=はっぴー
&inote_1=
(135.0){1},,,,,
{1}1,
{1}1,
{1}2,
{1}2,
{1}3,
{1}3,
{1}4,
{1}5/4,,
{2}5,5,
{1}5,
{2}4,4,
{1}4,
{1}3h[1:1],,
{1}2h[1:1],,
{2}1,1,
{1}1,
{2}8,8,
{1}8,
{1}7h[1:1],,
{1}6h[1:1],,
{1}7,
{1}7,
{1}8,
{1}8/1,
{1}2,
{1}2,
{1}1,
{1}1/8,
{1}1b,,
{2}1,1,
{1}1,
{2}2,2,
{1}2,
{2}3,3,
{1}3,
{2}4,4,
{1}4/5,
{2}5,5,
{1}5,
{2}6,6,
{1}6,
{2}7,7,
{1}7,
{2}8,8,
{1}8-5[4:3],,
E
&inote_2=
(135.0){1},,,,,
{2}3,3,
{4}4,5,4,,
{2}6,6,
{4}5,4,5,,
{1}3h[2:1],
{1}2h[2:1],
{2}1,8,
{1}1/8,,
{2}1,2,
{1}3h[2:1],
{2}3,4,
{1}5h[2:1],
{2}5,6,
{1}7h[2:1],
{2}7,8,
{1}8/1,
{2}8,7,
{2}8/7,8/7,
{2}6,5,
{2}6/5,6/5,
{1}4h[2:1],
{1}3h[2:1],
{2}2,1,
{1}8b/1b,
{1}1-5[4:3],,
{2}6,6,
{1}6/5,
{1}8-4[4:3],,
{2}3,3,
{2}2,2,
{1}1b,,
{4}2,2,2,,
{4}3,3,3,,
{4}5,4,5,,
{4}4,5,4/5,,
{1}6h[2:1],
{1}7h[2:1],
{4}8,1,8/1,,
{1}8h[2:1]/1h[2:1],
{4}7,7,7,,
{4}6,
{357}6,,,,,,,,,,,,,,,,,,,,,,,,,,,,,,,,,,,,,,,,,,,,,,,,,,,,,,,,,,,,,,,,,,,,,,,,,,,,,,,,,,,,,,,,,
{715}6,,,,,,,,,,,,,,,,,,,,,,,,,,,,,,,,,,,,,,,,,,,,,,,,,,,,,,,,,,,,,,,,,,,,,,,,,,,,,,,,,,,,,,,,,,,,,,,,,,,,,,,,,,,,,,,,,,,,,,,,,,,,,,,,,,,,,,,,,,,,,,,,,,,,,,,,,,,,,,,,,,,,,,,,,,,,,,,,,,,,,,,,,,,,,,,,,,,,,,,,,,,,,,,,,,,,,,,,,,,,,,,,,,,,,,,,,,,,,,,,,,,,,,,,,,,,,,,,,,,,,,,,,,,,,,,,,,,,,,,,,,,,,,,,,,,,,,,,,,,,,,,,,,,,,,,,,,,,,,,,,,,,,,,,,,,,,,,,,,,,,,,,,,,,,,,,,,,,,,
{4}4,5,4,,
{4}5,4,5/4,,
{4}3,3,2,,
{4}2,2,1,,
{4}1,8,1/8,2b/7b,
E
&inote_3=
(135.0){1},
{2}3h[2:1],4,
{4}1,1,1,,
{2}6h[2:1],5,
{4}8,8,8,,
{4}4,4,5,5,
{4}2,3,3/4,,
{4}5,5,4,4,
{4}7,6,6/5,,
{1}2-5[4:1],
{1}7-4[4:1],
{4}2,1,7,8,
{1}2h[4:3]/7h[4:3],
{4}1,1,1b,,
{2}2h[2:1],3h[2:1],
{2}4,5/4,
{2}7h[2:1],6h[2:1],
{2}5,4/5,
{2}4h[2:1],5h[2:1],
{2}6,7/8,
{4}4,5,3,6,
{1}4h[2:1]/5h[2:1],
{2}2h[2:1],4h[2:1],
{4}5,6,6/5,,
{2}7h[2:1],5h[2:1],
{4}4,3,3/4,,
{2}5h[2:1],7h[2:1],
{4}8,1,8/1,,
{4}4,5,3,6,
{1}5b/4b,
{2}2h[8:3],2,
{2}1h[8:3],1,
{4}5,4,5,3/5,
{4}4,5,4,6/4,
{2}7h[8:3],7,
{2}8h[8:3],8,
{2}6/5,4/3,
{2}8/7,2/1,
{1}8^5[2:1],
{4}1,8,8b/1b,,
{4}3,5/3,6,4/6,
{4}1,8,1,1,
{4}7,4/7,2,5/2,
{4}8,1,8,8,
{2}1-5[4:1],8-4[4:1],
{4}2-5[4:1],,7,7,
{4}1,1,8,8,
{1}8b/1b,
{4}4,5/3,5,6/4,
{4}1,8,1,1/8,
{4}6,5/7,3,4/2,
{4}8,1,8,8/1,
{4}3,4/3,6,6/5,
{4}2,2/1,7,8/7,
{4}1,8,1,
{1}1^4[4:3]/8^5[4:3],,
E
&inote_4=
(135.0){1},
{8}5/6,,,5/6,5/6,,,6/5,
{8},6/5,,6/5,6/5,,,,
{8}3/4,,,3/4,3/4,,,3/4,
{8},3/4,,3/4,3/4,,,,
{8}4/5,,,6,5,,,4/3,
{8},5/6,,3,4,,6/3,,
{8}5/4,,,3,4,,,5/6,
{8},4/3,,6,5,,6/3,,
{8}4/5,,,6/5,5/6,,,3/4,
{8},3/4,,4/5,4/5,,3/6,,
{8}5/4,5/4,,1/8,,2/7,,1^6[2:1]/8^3[2:1],{1},
{8}8,,8,,1,8,2b/7b,,
{4}6,5/6,3,4/3,
{4}6,7/4,3,2/5,
{4}1,2/8,8,1/7,
{4}6,5/7,3,2/4,
{4}3,7/8,6,2/1,
{4}3,5/1,6,4/8,
{4}5,3/7,4,2/6,
{4}5/3,4/6^3[4:1],,,
{4}2h[4:1],1,7h[4:1],6,
{8}3h[4:1],,4,,6,5,5/6,,
{4}7h[4:1],8,2h[4:1],3,
{8}6h[4:1],,5,,3,4,3/4,,
{4}1h[4:1],2,6h[4:1],7,
{8}4h[4:1],,3,,6,5,4/7,,
{4}3h[4:1],4h[4:1],5h[625:156],6q3[8:3],
{4},,3/4,5/6,
{8}7h[8:3],,,6,5,,4/3,,
{8}2h[8:3],,,3,4,,5/6,,
{8}1,,2,2,,3>6[2:1],,,
{4},,,4/3,
{8}6/5,,,2,2,,1/6,,
{8}3/4,,,7,7,,3/8,,
{4}2,8/4,7,5/1,
{4}6,4/8,3,1/5,
{1}3q6[2:1],
{8},1/8,7/2,3/6,4b/5b,,,,
{8}6/5,,2,4,3/4,,7,5,
{8}5/6,,2/5,3,4,6,6,,
{8}3/4,,7,5,5/6,,2,4,
{8}3/4,,4/7,6,5,3,3,,
{8}7/5,,2,1,1/2,,7,8,
{8}8/7,,,3,4,5,6,7,
{8},1/2,,8,8,7,7,6^1[4:1],
{8},,,,,1,2,3,
{8}4h[8:3],,,2,2,,8,7,
{8}6,5h[4:1],,3h[4:1],,1,2,3,
{8}4,,,7,8,1,2,3^8[4:1],
{8},,,,,5,6,7,
{8}8,,4,3,2,1,8,7,
{8},,,1,2,3,4,5h[4:1],
{8},6h[4:1],,8,7,1,2,1^6[8:7]/8^3[8:7],{1},,
E
&inote_5=
(135.0){1},
{8}2,,4,4,4,,7,7,
{8},5,,5,5,1b,1b,,
{8}6,,
{729}5,,,,,,,,,,,,,,,,,,,,,,,,,,,,,,,,,,,,,,,,,,,,,,,,,,,,,,,,,,,,,,,,,,,,,,,,,,,,,,,,,,,,,,,,,,,,
{8}5,
{832}5,,,,,,,,,,,,,,,,,,,,,,,,,,,,,,,,,,,,,,,,,,,,,,,,,,,,,,,,,,,,,,,,,,,,,,,,,,,,,,,,,,,,,,,,,,,,,,,,,,,,,,,,,,,,,,,,,,,,,,,,,,,,,,,,,,,,,,,,,,,,,,,,,,,,,,,,,,,,,,,,,,,,,,,,,,,,,,,,,,,,,,,,,,,,,,,,,,,,,,,,,,,,,,,
{993}2,,,,,,,,,,,,,,,,,,,,,,,,,,,,,,,,,,,,,,,,,,,,,,,,,,,,,,,,,,,,,,,,,,,,,,,,,,,,,,,,,,,,,,,,,,,,,,,,,,,,,,,,,,,,,,,,,,,,,,,,,,,,
{999}2,,,,,,,,,,,,,,,,,,,,,,,,,,,,,,,,,,,,,,,,,,,,,,,,,,,,,,,,,,,,,,,,,,,,,,,,,,,,,,,,,,,,,,,,,,,,,,,,,,,,,,,,,,,,,,,,,,,,,,,,,,,,,
{8},4,,4,4,8b,8b,,
{2}3^8[16:3],6^1[16:3],
{4}2^5[4:1],1^6[4:1],,,
{2}3p6[16:3],7^4[16:3],
{4}2,4,5,7,
{4}1-5[8:1],6,8-4[8:1],3,
{4}2-5[8:1],6,7-4[8:1],3,
{8}2/1,,7/8,,6,5,4-1[2:1],3b,{1},
{8}6,,6,,6,1,8/2,,
{8}7^5[8:1],,,2^4[8:1],1,,,6^4[8:1],
{8}7,,1^3[8:1],,6,6,5/7,,
{8}2^4[8:1],,,7^5[8:1],8,,,3^5[8:1],
{8}2,,8^6[8:1],,3,3,2/4,,
{8}7^5[8:1],,,2^4[8:1],1,,,6^4[8:1],
{8}7,,1^3[8:1],,6,6,5/7,,
{2}2z6[4:1],7s3[4:1],
{8}1s5[4:1],,,,,7,8,1,
{4}2-4[8:1],8-6[8:1],1-5[8:1],8-4[8:1],
{4}1-3[8:1],7-5[8:1],8-4[8:1],,
{2}2^5[4:1],1q6[4:1],
{2}5q2[4:1],6^1[4:1],
{2}2v4[4:1],3v5[4:1],
{2}4v6[4:1],5v7[4:1],
{4}6v4[8:1],5v3[8:1],4v2[8:1],,
{1}1>8[2:1],
{8}8v2[4:1],,,1-4[8:1],1-6[8:1],,,,
{8}1v7[4:1],,,8-5[8:1],8-3[8:1],,,,
{2}6-1[8:1],3-8[8:1],
{1}1^4[2:1]/8^5[2:1],
{8}3/8,,,1p5[4:1]/2p4[4:1],1/2,,,,
{8}6/1,,,7q5[4:1]/8q4[4:1],7/8,,,,
{4}2-4[8:1],2-8[8:1],6-4[8:1],6-8[8:1],
{4}3-5[8:1],3-1[8:1],7-5[8:1],7-1[8:1],
{1}3q6[2:1],
{8},1/8,1/8,7/2,2b/7b,3,2,1,
{8}8^3[8:1],,7,8,1^6[8:1],,2,1,
{8}8^3[8:1],,7,8,1^6[8:1],2,2,,
{8}1^6[8:1],,2,1,8^3[8:1],,7,8,
{8}1^6[8:1],,2,1,8^3[8:1],7,7,,
{8}5^2[8:1],,6,5,4^7[8:1],,3,4,
{8}5^2[8:1],,6,5,4^7[8:1],3,3,,
{2}8-5[8:1],1-5[8:1]/3v5[8:1],
{8}2-6[4:1]/8-4[4:1],,,,,2,1,8,
{8}7^2[8:1],,5,4,3p6[8:1],,1,8,
{8}7,6<3[4:1],,,,5,4,3,
{8}2^7[8:1],,4,5,6q3[8:1],,1,2q7[8:1],
{8},6q3[8:1],,,,1,1,2,
{4}3-5[8:1],6-2[8:1],1-7[8:1],6p1[4:1],
{8},,,7,8,1,2,3^8[8:1],
{8},4p7[8:1],,3,4,5,6,7<8[8:7],{1},,
E
