&title=Monochrome Rainbow
&artist=Sta
&wholebpm=182.3
&demo_seek=42.8
&demo_len=11.2
&lv_1=2
&lv_2=3
&lv_3=8+
&lv_4=10+
&lv_5=13
&des_4=mai-Star
&des_5=mai-Star
&inote_1=(182.3){1},,,,,,,,,
{1}1,
{1}1,
{1}2,
{1}2,
{1}8,
{1}8,
{1}7h[1:1],,
{1}6,
{1}5,
{1}4,
{1}3,
{1}2,
{1}2,
{1}1,
{1}1b,
{1}8,
{1}7,
{1}1,
{1}2,
{1}3h[2:1],
{1}4h[2:1],
{1}5h[2:1],
{1}6b,
{1}8-5[4:3],,
{1}1-4[4:3],,
{1}5h[4:3],
{2},6,
{1}6h[4:3],
{2},8b,
{1}8,
{1}7,
{1}6,
{1}5,
{1}4h[4:3],
{2},3,
{1}3h[2:1],
{2}2,2,
{1}1-4[4:3],,
{1}5-8[4:3],,
{1}8/1,
{1}7,
{1}7,
{1}8h[2:1],
{2}1,1,
{2}2,2,
{2}3,3,
{2}4,4,
{1}5h[4:3],
{2},6,
{1}6h[2:1],
{2}7,7,
{1}8b,,
{1}2-7[4:3],,
{1}6-3[4:3],,
{1}2,
{1}1,
{1}8,
{1}7,
{1}6,
{1}5,
{1}4,
{1}3,
{1}2,
{1}1-4[4:3],,
E
&inote_2=(182.3){1},,,,,,
{1}1,
{1}2,
{1}3,
{1}4,
{1}4,
{1}5,
{1}5,
{1}6,
{1}6,
{1}5h[2:1],
{2}4,4,
{1}5,
{1}5,
{1}6,
{1}6,
{1}7,
{1}7,
{2}8,8,
{1}8,
{1}1,
{1}2h[2:1],
{1}1,
{1}8h[2:1],
{1}7,
{1}8h[2:1],
{2}1,1,
{1}1b,
{4}2,2,,2,
{4},3,,3,
{4},4,,4,
{4},5,,5,
{1}5h[4:3],,
{1}5h[4:3],,
{4}6,6,,6,
{4},7,,7,
{4},8,,8,
{4},1,,1,
{1}1h[4:3],,
{1}1h[4:3],,
{1}2-5[4:3],,
{1}7-4[4:3],,
{1}5/4,
{1}5,
{1}5/4,
{1}4,
{4}3,3,,3,
{4},2,,2,
{4},1,,1,
{4},8,,8,
{1}8h[4:3],,
{1}7h[4:3],,
{1}7-2[4:3],,
{1}3-6[4:3],,
{4}7,7,,7,
{4},6,,6,
{4},5,,5,
{4},4,,4,
{2},4/3,
{2},5/6,
{2},4/3,
{2},6/5,
{4}4,4,,4,
{4},3,,3,
{4},2,,2,
{4},1,,1b,
E
&inote_3=(182.3){1},,,,,,,,,
{2}2,2/1,
{2}7,7/8,
{2}3,3/4,
{2}5/6,5/6,
{2}1,7/8,
{2}8,2/1,
{2}3,3/4,
{1}5/6,
{2}5,4/6,
{2}1,2/8,
{2}7,6/8,
{2}3,2/4,
{2}5,6/4,
{2}4,5/3,
{2}8,7/1,
{4}2,2,3/1,,
{2}8,1/5,
{4}2,3,4/8,,
{2}1,8/4,
{4}7,6,5/1,,
{2}3,1/2,
{4}7,7,5/6,,
{2}1,8,
{4}2/7,8b/1b,,,
{4}1/2,1/2,7/8,7/8,
{4}1/2,3/8,7/8,6/1,
{8}2h[4:1]/7h[4:1],,,1h[8:5]/8h[8:5],,,,,
{4},,1,8,
{4}4h[8:3]/5h[8:3],,,3/6,
{4},,4,5,
{4}1h[8:3]/8h[8:3],,,7/2,
{1}1s5[2:1],
{4}8,7,6,5,
{4}1,2,3,4,
{4}2,1,8,7,
{2}7/8,5/6,
{4}4h[8:3]/5h[8:3],,,2/7,
{4},,7,8,
{2}1,2/8,
{2}5,4/6,
{4}8-4[8:3],,2,2,
{4}2-6[8:3],,7,7,
{2}6/7,5/4,
{2}2/3,4/5,
{2}1/8,5,
{2}7/8,4,
{2}2/1,6,
{2}2/7,8b/1b,
{4}2,1/3,7,6/8,
{4}3,4/3,6,5/6,
{4}2,3/4,7,5/6,
{4}7/2,,1/2,7/8,
{8}1h[8:3],,,3,,,3,,
{4},,8,1,
{2}7,5,
{4}1,1,3,3,
{4}3,4/2,6,5/7,
{4}3,2/4,6,5/7,
{4}2,4/3,7,5/6,
{4}2,3/4,7,6/5,
{1}8^3[2:1],
{1}1^6[2:1],
{1}7^5[8:3],
{1}2^4[8:3],
{1}1/2,
{1}3/8,
{1}4/7,
{4}6/5,5/6,3/4,3/4,
{4}6,5,4,3,
{4}3,4,5,6,
{4}7,8,1,2,
{4}1/5,2/6,3/7,4b/8b,
E
&inote_4=(182.3){1},,,,,,,,,
{4}2/1v6[4:1],,,6/8,
{4}6/8v3[4:1],,,2/4,
{8}3h[8:3],,,4h[8:3],,,5h[4:1],,
{2}6,1b,
{8}1h[4:1],,4,3,,,2,,
{8}8h[4:1],,5,6,,,7,,
{2}1/8,2,
{8}4/2,,,5/7,,,,,
{8}2,2,,,1,,7,,
{8}5h[8:3],,,4,,,8,,
{8}8,2,,,6,,6,,
{8}4,,,4,,,1,,
{8}7-4[4:1],2h[8:3],,,,,4/5,,
{8}7h[8:3],,,3,,,6,1,
{8}6,1,6,,3,8,3,,
{8}6,5,6,5,6b,,,,
{8}2,5-1[8:1],,,3,,3-8[8:1],,
{8}7-4[8:1],,,1,,,3,,
{8}7,4-8[8:1],,,6,,6-1[8:1],,
{8}2-5[8:1],,,8,,,6,,
{8}2,,,8h[8:3],,,6,,
{8}7,,,1h[8:3],,,3,,
{2}5,7/3,
{1}1s5[4:1],
{8}2,,6/5,,3,4,5/2,,
{8}7,,3/4,,6,5,4/7,,
{8}1/5,,7/3,3h[8:3]/7h[8:3],,,,,
{4}1-5[8:1],8-4[8:1],2-6[8:1],,
{8}1/2,,,7/8,,,6/5,,
{4},8^3[16:3],7,6,
{8}7/6,,,1/8,,,2/3,,
{8}1-5[8:1],,,,8,2,6,,
{8}4-8[8:1],,,,6,5,4/7,,
{8}5-1[8:1],,,,3,4,2/5,,
{8}1/8,,1/8,2h[8:3]/7h[8:3],,,,,
{16}4,5,4,,,,6,3,6,,,,1/8,,,,
{8}7/1,,,4/8,,,5/3,,
{4},,1/2,6/5,
{8}3h[8:3],,,4h[8:3],,,5,,
{4}3/8,1v7[8:1]/2v4[8:1],,,
{8}7,,2,5,4,7,1,6,
{8}3,8,4,7,2,5,2,,
{8}8,,3,5,1,7,3,5,
{8}1-3[8:1],,,4-8[8:1],,,1b,,
{8}2/3,,,4/5,,,6/7,,
{4},,7/8,4/3,
{8}8/7,,,5/6,,,3/4,,
{4}8-4[8:1],2-6[8:1],5-8[8:1],,
{8}3,8,3,8,3,5,4,5,
{8}8,6,8,6,1,8,1,6,
{8}4,6,4,5,3,5,3/4,,
{16}3,4,3,,,,6,5,6^8[8:1],,,,,,,,
{8}1/2,,,5/6,,,3/4,,
{8},,,,2^4[8:1],1,8,,
{8}5/6,,,4/2,,,8/7,,
{8}5,4,3,2,1,,1b,,
{8}8,7,6,1,2,3,7,6,
{8}5,2,3,4,7,2,8,1,
{8}6,5,6,2,1,2,7,8,
{8}7,3,4,3,2^4[8:1]/8^6[8:1],,,,
{8}3h[4:3],,4,4,4,4,4,,
{8}6h[4:3],,5,5,5,5,5,,
{8}4,8,3,7,2,6,1,5,
{4}2-4[8:1],8-4[8:1],1-4[8:1],,
{2}2/1,4,
{2}8/7,5,
{2}8/1,4/5,
{4}2/1,7/8,8b/1b,,
{4}1,8,7,6,
{4}2,3,4,5,
{8}7,6,5,4,8,1,2,3,
{4}8/7,2/5,
{8}7-4[8:1]/8-3[8:1],,,,
E
&inote_5=(182.3){1},
{8},,,,,3h[8:3],8,1,
{8}2,3,4,5,,6h[8:3],1,8,
{8}7,6,5,4,,1h[8:3],8,7,
{8}6,1,2,3,,,1,5,
{4}2/6,3/7,4/8,,
{8}1/8,,3,2/4,,6,5/7,,
{8},,1,,8,,,3/2,
{8},6/7,,3/4,5/6,,,,
{8}2p5[4:1],,6,6,,,5/6,,
{8}6p1[4:1],,4,4,,,5/1,,
{8}1/5,,,8/4,,,7/3,,
{2}2/6,2/7,
{1}1p4[4:1]/5^8[4:1],
{4}4^1[4:1]/8q5[4:1],,,1-4[4:1]/5-8[4:1],{1},
{8}1b/8b,,,,5/4,,2,3p6[8:1],
{8}4,5,,,5/4,,8v6[8:1],,
{8}2h[8:3],,,6,,,6/2,7/3,
{8}4/8,1/5,,,1^7[8:1],,5^3[8:1],,
{8},,8,4,,,7/3,6/2,
{8}5/1,4/8,,,4/5,,1v3[8:1],,
{8}7h[8:3],,,3,,,2h[2:1],3,
{8}4,5,6h[2:1],,7,8,1h[4:3],,
{8}7,6,5,4,3b,,,,
{8}4,5,,,1/2,,5,,
{8}4,,,7/8,,,1-5[8:1],,
{8}8,6,,,7/2,,1,,
{8}8,,,1/8,,,3h[8:5],,
{4}1h[4:3],,,8h[1:1],
{8}6h[8:3],,,,,,6,8,
{4}5,,4/2,6/8,
{8}4/5,,4/8,2b/1b,,,,,
{8}7^2[4:1],,6,5,4-7[4:1],3,2,1,
{8}8^5[4:1],1,2,3,4,5,2/7,,
{8}1p4[4:1],,5,6,7,8,3,,
{16}6,5,6,5,,,3,4,3,,,,2/7,,,,
{8}1-5[8:1],,,2-4[8:1],,,6-8[8:1],,
{16},,,,,,2,8,1,,7,,5,,3,,
{8}1-3[8:1],,,4-8[8:1],,,3,,
{8}8,1,6,3,7,2,5,4,
{8}7-1[8:1],3,4,3,2-8[8:1],6,5,6,
{8}7-1[8:1],3,4,3,2-8[8:1],6,5,6,
{8}2,6,3,6,4,8,5,1,
{16}3,4,3,4,,,6,5,6,,,,1/8,,,,
{8}1^6[8:1],,,3^8[8:1],,,6^1[8:1],,
{16},,,,,,7,1,8,,,,2,,1,,
{8}6/8,,,3/5,,,2/8,,
{2}7-4[8:1]/8-3[8:1],1-6[8:1]/2-5[8:1],
{8}7^4[4:1],,8,1,2^7[4:1],3,4,5,
{8}6^3[4:1],7,8,1,2,8,1,,
{4}1^6[4:1],6^3[4:1],3^8[4:1],8^5[4:1],
{4}5^2[4:1],2^8[8:1],,4-7[8:1]/8-3[8:1],
{8},,,3^8[16:3]/7^4[16:3],,,,,
{4},,8/6,5/3,
{8}2/3p6[8:1],,,7^2[8:1],,,7,,
{4}2,5/4,7b/2b,,
{8}1p5[4:1],,6,7,8q5[4:1],4,3,2,
{8}1q6[4:1],6,7,8,8p3[8:1],,,,
{4}1-7[8:1],5-3[8:1],2-6[8:1],,
{4}4-8[8:1],6-2[8:1],,,
{8}8b/2-6[8:1],,,8-4[8:1],,,2b,,
{4}8,,8q5[4:1],5q2[4:1],
{8}3,,,3,,,3^8[4:1],,
{4}8^5[4:1],5^2[4:1],2q5[4:1],,
{8}8,7,6,1,2,3,7,6,
{8}5,2,3,4,8,1,7/2,,
{8}2,3,7,6,1,2,8,7,
{8}4,3,5,6,2,1,8b/7b,,
{4}8-2[8:1],4-6[8:1],1-5[8:1],3,
{4}5-3[8:1],1-7[8:1],4-8[8:1],1,
{8}1,3,2,4,8,6,7,5,
{16}1b,8,2,7,1b,6,3,8,2b,7,1,8,2b,,,,
{1}2z6[8:3],
{1}7s3[8:3],
{1}5s1[8:3],
{4}4z8[8:3],7,6,5,
{4}8,1/2,4,5/6,
{4}3,1/2,7,6/5,
{8}2/1,,3,4,5,6,7,8,
{16}1,,3,4,2,,6,5,7,,1,8,1b,
E
