&title=Endless, Sleepless Night
&artist=samfree feat.(V)・∀・(V)かにぱん。(A-ONE)
&wholebpm=165
&demo_seek=47.1
&demo_len=22.1
&lv_1=2
&lv_2=4
&lv_3=8
&lv_4=10+
&lv_5=13
&des_4=Jack
&des_5=mai-Star
&inote_1=(165.0){1},,,,,
{1}1,
{1}1,
{1}2,
{1}2,
{1}3h[1:1],,
{1}3h[1:1],,
{1}4,
{1}4,
{1}5,
{1}5/4,
{1}5,
{1}5,
{1}6,
{1}6,
{1}7,
{1}7,
{1}8h[1:1],,
{1}1-4[4:3],,
{1}8,
{1}8,
{1}8-5[4:3],,
{1}1,
{1}1b,
{2}8,8,
{1}8,
{2}7,7,
{1}7,
{1}6,
{1}5,
{2}4,4,
{1}4,
{2}3,3,
{1}3,
{1}2,
{1}1,
{1}1-5[4:3],,,
{1}6,,
{1}6,,
{1}7,
{1}7,
{1}8,
{1}8b,
{2}1,1,
{1}1,
{2}3,3,
{1}3,
{1}4,
{1}4,
{2}5,5,
{1}5,
{2}6,6,
{1}6,
{1}7,
{1}7,
{1}8-4[4:3],,
{1}3,
{1}3,
{1}2,
{1}2,
{1}1,
{1}1,
{1}8,
{1}8/1,
{1}7h[1:1],,
{1}6h[1:1],,
E
&inote_2=(165.0){1},,,,,
{2}2,3,
{1}4,
{2}5,4,
{1}3,
{2}3,2,
{2}1,1,
{2}8,7,
{2}8,8,
{2}1,2,
{2}1,1,
{2}8,7,
{1}6h[2:1],
{2}5,5,
{2}4,4,
{2}3,3,
{4}2,2,2,,
{2}1,1,
{2}8,8,
{2}7,7,
{4}6,6,6,,
{1}7-2[4:3],,
{1}3-6[4:3],,
{1}7/8,
{1}2/1,
{2}1,8,
{1}8b/1b,
{4}1,1,1,,
{1}2h[2:1],
{4}1,1,1,,
{1}8h[2:1],
{2}8,8,
{2}7,7,
{4}8,8,8,,
{1}7h[2:1],
{4}8,8,8,,
{1}1h[2:1],
{2}1,1,
{2}2,2,
{2}3,3-8[4:3],{1},,
{1}7,
{1}6,
{1}5,
{1}4,
{2}3,3,
{2}2,2,
{2}1,1,
{2}1/8,8b/1b,
{4}8,8,8,,
{2}7,7,
{4}8,8,8,,
{2}1,1,
{4}2,2,2,,
{4}3,3,3,,
{4}4,4,4,,
{2}3,3,
{4}4,4,4,,
{2}5,5,
{4}6,6,6,,
{4}7,7,7,,
{4}8,8,1,1,
{1}2h[2:1]/7h[2:1],
{2}2,2/1,
{2}1,1/8,
{2}8,8/7,
{4}7,7,7,,
{2}6,6/5,
{2}5,5/4,
{2}4,4/3,
{4}3,3,3b,,
{2}2,2,
{2}1,1,
{1}8h[2:1],
{4}1,1,1,1b,
E
&inote_3=(165.0){1},1h[4:3],
{4}2,3,4,5,
{1}6h[4:3],
{4}7,8,1,2,
{1}1h[4:3],
{4}8,6,4,2,
{1}8h[4:3],
{4}1,3,5,7b,
{4}3,2,1h[4:1],,
{4}6,7,8h[4:1],,
{4}1,8,2,7,
{4}3,6,4,5,
{4}1,2,3,4,
{4}8,7,6,5,
{2}4-1[16:3],5-8[16:3],
{2}1-3[8:1],8-6[8:1],
{4}2,2,2,2,
{4}6,5,6,5,
{4}7,7,7,7,
{4}3,4,3,4,
{4}2,2,1,1,
{4}8,8,7,7,
{2}6h[2:1],5h[2:1],
{2}4h[2:1],3b,
{4}2,2,1,8,
{4}7,7,8,1,
{4}3,3,4,4,
{4}5,5,6,6,
{4}7,7,6,5,
{4}2,2,3,4,
{4}5/4,,6/3,7/2,
{4}1/8,,1b,8b,
{4}1/2,3,4,5,
{4}5/6,7,8,1,
{4}1/2,8,7,6,
{4}5/6,5,4,3,
{2}2-6[16:3],7-3[16:3],
{2}1-5[16:3],8-4[16:3],
{4}2,3,4,5/4,
{4}5,6,7,8/7,
{4}2,1,3,8,
{4}4,7,5,6,
{4}4,5/3,5,4/6,
{4}3,2/4,6,5/7,
{4}8/4,3/7,6/2,1/5,
{4}8h[2:1]/1h[2:1],,,1b,
{1}8-4[8:3],
{1}2h[4:3]/7h[4:3],
{4}3h[4:1],4h[4:1],5h[4:1],6,
{1}3h[4:3]/6h[4:3],
{4}2h[4:1],1h[4:1],8h[4:1],7,
{4}1,1,3,3,
{4}5,5,7,7,
{4}1,8,2,7,
{4}1/8,2/7,6/3,8b/1b,
{4}2,1,8,7,
{4}3,4,5,6,
{4}3,4,3,1,
{4}6,5,6,8,
{2}1-5[16:3],8-4[16:3],
{2}2-5[16:3],7-4[16:3],
{4}3,3/4,6,5/6,
{4}2,3/4,7,5/6,
{4}2h[4:1],3,7h[4:1],6,
{4}2h[4:1],1h[4:1],8h[4:1],7,
{4}7/8,1-6[16:3]/2-5[16:3],,,
{4}1/2,7-4[16:3]/8-3[16:3],,,
{4}5,4,6,3,
{4}7,2,8,1b,
{4}1,2,3,4,
{4}5,6,7,8,
{4}8,7,6,5,
{4}4,3,2,1,
{2}8-4[16:3],2-6[16:3],
{2}7-3[16:3],1-5[16:3],
{4}8,1,7,2,
{4}6,3,4/5,1b/8b,
{1}1h[4:3],
{4}8,6,4,2,
{1}8h[4:3],
{4}1,3,5,7b,
E
&inote_4=(165.0){1},2z6[2:1],
{4}7h[4:1],5h[4:1],4h[4:1],2h[4:1],
{1}7s3[2:1],
{4}2h[4:1],4h[4:1],5h[4:1],7h[4:1],
{4}2h[4:1],4,7h[4:1],5,
{4}2h[4:1],3,7h[4:1],6,
{4}2h[4:1],1,7h[4:1],8,
{4}2h[4:1],7h[4:1],5-1[8:1],8b,
{8}2,4,3,7,5,6,,1h[4:1],
{8},5h[4:1],,4,7,2,,,
{8}6,5,7,3,4,2,,8h[4:1],
{8},4h[4:1],,5,3,6,2/7,,
{8}3,4,1,6,5,8,,2h[4:1],
{8},6h[4:1],,5,7,1,,,
{8}5,6,1,4,3,8,,7h[4:1],
{8},3h[4:1],,4,2,8,1b,,
{8}3h[4:1],4,7,,6h[4:1],5,2,,
{8}8,7,1,2,6,3,5/4,,
{8}2h[4:1],1,6,,7h[4:1],8,3,,
{8}6,5,3,4,7,2,1/8,,
{8}2h[4:1],3,8,,7h[4:1],6,1,,
{8}6,8,1,3,5-1[8:1],,,,
{8}3,1,8,6,4-8[8:1],,,,
{4}7-4[8:1],2-5[8:1],8b,,
{8}6q3[4:1],,,,,,1,2,
{8}3p6[4:1],,,,,,8,7,
{2}6-2[8:1],3-7[8:1],
{8}8-4[8:1],,1-5[8:1],,,,8,7,
{8}6<3[8:3],,,,,,1,2,
{8}3>6[8:3],,,,,,8,7,
{2}6-1[8:1],3-8[8:1],
{4}2b/7b,,2-4[8:1],8-6[8:1],
{8}1-5[8:1],,,,7,6,5,4h[4:3],
{8},2,,8,,6,6/3,,
{8}7,8,1/6,,2,3,4,5h[4:3],
{8},7,,1,,3,4,5,
{8}6,4,6,,3,5,3,2,
{8},1,7,3,5,4,8b,,
{8}1-4[8:1]/7-4[8:1],,,,3,2,1,8^5[8:1],
{8},4^1[8:1],,,,8,1/8,,
{8}7,6,5/4,,2,3,4,5h[4:3],
{8},7,,1,,3,4,5,
{8}2,1,3/8,,7,6,5,4h[4:1],
{8},8,7,6,1,2,3,4,
{8}7,5,7,,2,4,2,8,
{4}7b/1,4b/3,2b/8,5b/6,
{1}8b/1b,
{1}2q3[2:1],
{4}6h[4:1],8h[4:1],1h[4:1],3h[4:1],
{1}7p6[2:1],
{4}3h[4:1],1h[4:1],8h[4:1],6h[4:1],
{2}1-6[8:1],7-4[8:1],
{2}2-5[8:1],8-3[8:1],
{2}1^6[8:1],8^3[8:1],
{4}4h[4:1],5h[4:1],6-1[8:1],8b,
{8}7-3[8:1],,,,2,3,4,5h[4:3],
{8},6,,1,,4,3/6,,
{8}2,1,3/8,,7,6,5,4h[4:3],
{8},3,,8,,5,4,3,
{8}2,4,2,,7,5,7,1,
{8},8,2,6,4,5,1b,,
{8}2-5[8:1]/8-5[8:1],,,,6,7,8,1^4[8:1],
{8},5^8[8:1],,,,1,8/1,,
{8}7,6,5/4,,2,3,4,5h[4:3],
{8},6,,1,,4,5,6,
{8}7,1,6,,2,8,3,4h[4:1],
{8},8,2,7,8/1,7/2,6/3,4/5,
{8}6,4,8,,3,5,1,8,
{4}4/6,2/5,7/3,1b/8b,
{8}3,4,2/5,6,5,7/4,,3h[4:1],
{8},7h[4:1],,1,8,2/7,,,
{8}6,5,7/4,3,4,5/2,,6h[4:1],
{8},2h[4:1],,8,7/1,6/2,3/5,,
{8}4,5,6/2,5,4,7/3,,5h[4:1],
{8},4h[4:1],,7,2,1/8,,,
{8}6,5,8/2,3,4,1/7,,5/6,
{8},4/3,,4/5,2,7,8b/1b,,
{1}6<3[2:1],
{4}5/4,6/7,8/1,3/2,
{1}4>5[8:5],
{4}7h[4:1],3h[4:1],5h[4:1],1,
E
&inote_5=(165.0){1},
{8}2,1,8/3,2,7,8,1/6,7,
{4}1h[4:1],3h[4:1],5h[4:1],7,
{8}3,4,5/2,3,6,5,7/4,6,
{4}8h[4:1],6h[4:1],4h[4:1],2,
{8}2/1,2,6/5,6,4/3,3,8/7,7,
{4}1/2,8/7,5/6,4/3,
{8}4/3,1,6/5,8,4/3,1,6/5,8,
{4}1/2,3/4,5/6,7b/8b,
{16}1,8,1,,7,,5,,3,,1,,,,2-6[8:1],,
{8},8-4[8:1],,1,2,3,,4/5,
{16}8,1,8,,2,,4,,6,,8,,,,7-3[8:1],,
{8},1-5[8:1],,8,8,7,6,,
{16}3,4,3,,6,,5,,7,,4,,,,3/8,,
{8},1/2,,7/8,2/3,5/6,,3/4,
{16}6,5,6,,3,,4,,2,,5,,,,1/6,,
{8},7/8,,1/2,5/6,7/8,3b/4b,,
{8}6/2,7/3,8/4,,5/1,8/4,3/7,,
{8}1/5,3/7,5/1,3/7,4/8,6/2,8/4,,
{8}2/1,8/3,1/2,,7/8,6/1,7/8,,
{8}3/1,3/1,8/4,4/8,5/7,7/5,2/6,,
{2}1-5[8:1]/2-5[8:1],7-4[8:1]/8-4[8:1],
{8}2,5,7,4,1,8,1h[4:1],,
{16}8,7,,,7,6,,,6,5,,,5,4,,,
{4}1-5[8:1]/8-4[8:1],1^4[8:1]/8^5[8:1],,,
{8}2,1,8,4,5,6,,3/7,
{8},8/4,,1/5,,2^7[8:1]/6^3[8:1],2/6,,
{8},1/2,,5/6,,7/8,,3/4,
{8},5/4,,7/2,,8/1,2/7,6/3,
{8}7,8,1,5,4,3,,2/6,
{8},5/1,,4/8,,3^6[8:1]/7^2[8:1],3/7,,
{8},1-6[8:1],,5-2[8:1],,7-4[8:1],,8,
{8}8b,,,,1b,7b,2b,8b,
{8}1h[8:1],2,3h[4:1],,8h[8:1],7h[8:1],6h[8:1],5v3[8:1],
{8},4v6[8:1],,,,1,8,,
{8}4h[8:1],3,2h[4:1],,5h[8:1],6h[8:1],7h[8:1],8v5[8:1],
{8},1v4[8:1],,,,2h[8:3],1,8,
{8}7v6[8:1],,8p1[8:1],,6,7,8,1v3[8:1],
{8},,8v2[8:1],,2,1,8b,,
{8}3^1[8:1],4,5,,7^4[8:1],8^3[8:1],,,
{8},2^7[8:1],,3^6[8:1],,1,1,,
{8}6^8[8:1],5,4,,2^5[8:1],1^6[8:1],,,
{8},7^2[8:1],,6^3[8:1],,8,8,1,
{8}1-5[8:1],,6/1,,6v8[8:1],5v3[8:1],,,
{8},6,2,,2/6,3/7,8/4,,
{8}2/6,1/5,8/4,,1v4[8:1]/5v8[8:1],4^1[8:3]/8^5[8:3],,,
{4},,,7b/1p8[4:3],
{1}7h[4:3],
{1}7<8[2:1]/8>7[2:1],
{4}8q6[4:1],6q4[4:1],4-8[8:1],,
{1}1<2[2:1]/2>1[2:1],
{4}1p3[4:1],3p5[4:1],5-1[8:1],,
{8}3/4,1,6/5,8,3/4,1,6/5,8,
{4}4v2[4:1],2-7[4:1],7v5[8:1],,
{8}4/5,2,4/5,8,5/4,1,5/4,7,
{4}1q5[8:1]/5q1[8:1],1^6[8:1]/5^2[8:1],,8b/1b,
{16}3,4,,6,5,,2,1,,7,8,,3/4,,6/5,,
{16}2,1,,7,8,,3,4,,6,5,,7/2,,8/1,,
{16}2,7,,5,4,,1,8,,6,3,,5/1,,3/7,,
{16}2,6,,8,4,,1,5,,7,3,,1,8,1,,
{16}8,4,,2,6,,3,7,,5,1,,4/8,,2/6,,
{16}1,5,,3,7,,8,4,,2-6[16:1],8,,2b,,,,
{16}3,5,1,,2/7,,6,4,7,1,6,,2,,8,,
{16}2,8,4,,2/6,,7,5,8,4,1,,3,,2,,
{16}4,8,2,,3/6,,8,1,7,2,6,,3,,4,,
{16}1,7,3,,5,,2,6,4,8,2,,5,4,5,,
{16}1,8,1,,2/3,,6,5,6,5,6,,3/4,,,,
{16}8,1,8,,7/6,,3,4,3,4,3,,5/6,,,,
{8}3/4,1/2,8/7,,4v1[8:1]/8v5[8:1],1^4[8:3]/5^8[8:3],,,
{4},,4/5,8b/4b,
{16}2,7,2,,8v3[8:1],,3p5[8:1],,,,,,,,1>5[8:1],,
{8},,,7<3[8:1],7,,,1,
{16}7,2,7,,1v6[8:1],,6q4[8:1],,,,,,,,6<3[8:1],,
{8},,,1^6[8:1],8^3[8:1],,,,
{16}7,8,7,,2v4[8:1],,1v3[8:1],,,,,,,,4v5[8:1],,
{8},2^7[8:1],,5-1[8:1],5,,,8,
{16}2,1,2,,7v5[8:1],,8v6[8:1],,,,,,,,5v4[8:1],,
{8},7^2[8:1],,5,4,5,1b/8b,,
{4}1^4[4:1],4^7[4:1],7s3[4:1],,
{4}8h[4:1],6h[4:1],4h[4:1],2,
{4}8^5[4:1],5^2[4:1],2z6[4:1],,
{4}1h[4:1],3h[4:1],5h[4:1],7b,
E
