&title=End of Twilight
&artist=ALiCE'S EMOTiON feat. Ayumi Nomiya
&wholebpm=180
&demo_seek=35.9
&demo_len=12.1
&lv_1=3
&lv_2=4
&lv_3=7+
&lv_4=11+
&lv_5=13
&des_4=mai-Star
&des_5=Jack
&inote_1=(180.0){1},,
{1}2,
{1}2,
{1}8,
{1}8,
{1}1,
{1}1,
{1}7,
{1}7,
{1}7b,
{1}1,
{1}2,
{1}1,
{1}2,
{1}8,
{1}7,
{1}8,
{1}7h[2:1],
{1}1-4[4:3],,
{1}5-8[4:3],,
{1}2-7[4:3],,
{1}6-3[4:3],,
{1}2b,
{1}1h[1:1],,
{1}8h[1:1],,
{1}7h[1:1],,
{1}8h[2:1],
{1}8b,
{1}1-4[4:3],,
{1}6-3[4:3],,
{1}2-7[4:3],,
{1}8-5[4:3],,
{1}4b,
{1}3,,
{1}2,,
{1}1,,
{1}8,,
{1}7h[1:1],,
{1}6h[1:1],,
{1}5h[1:1],,
{1}4h[1:1],,
{1}3b,
{1}3/4,,
{1}5/6,,
{1}3,
{1}2,
{1}1,
{2}8,8b,
{2}2,2,
{2}1,1,
{2}8,8,
{2}7,7,
{1}8/7,
{1}8/7,
{1}2/1,
{1}1/2,
{1}8/1,
{1}2,
{1}2,
{1}8,
{1}8,
{1}1,
{1}1,
{1}7,
{1}7,
{1}1b,
E
&inote_2=(180.0){1},,
{2}1,1,
{1}2h[2:1],
{2}8,8,
{1}7h[2:1],
{2}1,1,
{1}2h[2:1],
{2}3,4,
{2}5,6,
{1}7b,
{2}8,8,
{2}7,7,
{2}6,6,
{1}5h[2:1],
{2}4,4,
{2}3,3,
{2}2/1,2/1,
{1}1b/2b,
{2}1,1,
{2}7,7,
{2}5,5,
{1}4/3,
{2}8,8,
{2}2,2,
{2}4,4,
{1}5-8[4:3],,
{4}1,1,,,
{4}2,2,,,
{4}3,3,,,
{2}4/5,4/5,
{4}5,5,,,
{4}6,6,,,
{4}7,7,,,
{1}8h[2:1]/1h[2:1],
{4}8,8,,,
{4}7,7,,,
{4}6,6,,,
{2}5/4,5/4,
{4}4,4,,,
{4}3,3,,,
{4}2,2,,,
{2}1/8,8/1,
{1}7/2,
{1}3/4,
{1}6/5,
{1}4/3,
{1}6/5,
{1}8/7,
{1}2/1,
{1}8/7,
{1}2/1,
{1}1-5[4:3],,
{1}8-4[4:3],,
{2}3,3,
{2}4,4,
{1}5-8[4:3],,
{1}1b,
{4}8,8,8,,
{2}7,7,
{4}6,6,6,,
{2}4/5,4/5,
{4}4,4,4,,
{2}3,3,
{4}2,2,2,,
{1}8h[2:1]/1h[2:1],
{4}1,1,1,,
{2}2,2,
{4}3,3,3,,
{2}4/5,4/5,
{4}5,5,5,,
{2}6,6,
{4}7,7,7,,
{2}8/1,8/1,
{1}7b/2b,
{2}8,8,
{1}7h[2:1],
{2}1,1,
{1}2h[2:1],
{2}8,8,
{1}7h[2:1],
{2}6,5,
{2}4,3,
{1}2-6[4:3],,
E
&inote_3=(180.0){1},
{4}1/8,,1/8,4/5,
{4}4,3,2,1,
{4}8,7,6,5,
{4}4,5,6,7,
{4}8,1,2,3,
{2}3/4,3/4,
{2}5/6,5/6,
{4}4,4,4,,
{4}5,5,5,,
{1}4-1[4:1]/5-8[4:1],
{4}1b,2,3,,
{4}8,7,6,,
{2}3/4,6/5,
{4}4/5,4/5,3/4,5/6,
{4}3,2,1,,
{4}6,7,8,,
{2}1h[2:1],8h[2:1],
{8}1h[8:3],,,8b,,,,,
{1}1-7[4:1],
{1}8-2[4:1],
{1}1-5[4:1],
{1}8-4[4:1],
{1}2^4[4:1],
{1}7^5[4:1],
{1}3-1[4:1],
{1}6-8[4:1],
{1}2b/7b,
{4}1,2,8,7,
{4}3,4,6,5,
{4}2,3,4,5,
{4}6,7,8-4[4:1],,
{4}3,3,1,1,
{4}7,7,5,5,
{4}1,3,5,7,
{4}1/8,2-4[4:1]/7-5[4:1],,,
{4}1,5,2,6,
{4}3,7,4,8,
{4}4,8,2,6,
{4}5/1,2/6,3/7,4/8,
{1}1h[2:1]/8h[2:1],
{2}5h[2:1],4h[2:1],
{4}6,7,8,1,
{4}2,1,8,8<4[2:1],{1},
{1}1/2,
{1}3/4,
{1}6/5,
{1}8/7,
{1}1-5[4:1],
{1}8-4[4:1],
{1}2-5[4:1],
{1}7-4[4:1],
{1}1h[2:3],,
{1}3h[2:3],,
{1}5h[2:1],
{1}7h[2:1],
{2}7h[4:1],8h[4:1],
{2}1h[4:1],2h[4:1],
{4}8b/1b,8b/1b,,,
{4}3,4,3,4,
{4}6,5,6,5,
{4}1,2,1,2,
{4}8,7,8,7b,
{4}1,2,3,4,
{4}5,6,7,8,
{2}1/2,7/8,
{4}1/8,2/7,3/6,4b/5b,
{2}4-1[4:1],5-8[4:1],
{4}1,2,8,7,
{2}1-5[4:1],8-4[4:1],
{4}2,1,8,7,
{2}7h[4:1]/2h[4:1],8b/1b,
{2}4h[2:1],5h[2:1],
{4}3,4,5,6,
{4}7,8,1,2<6[2:1],{1},
{4}5,6,7,8,
{4}1,2,3,4,
{4}5,4,3,2,
{4}1,8,7,6,
{2}6/5,3/4,
{2}6/5,4/3,
{4}2/1,2/1,8/7,8/7,
{4}1/8,7/2,3/6,4-1[2:1]/5-8[2:1],,,,
E
&inote_4=(180.0){1},
{8}1/2,,7/8,,4,5,,3/6,
{4}2h[4:1],3,7h[4:1],6,
{4}3h[4:1],1,6h[4:1],8,
{4}2h[4:3],1,8,7,
{8}2,1,3,8,4,7,5,6,
{8}3h[4:1],,4,,6h[4:1],,5,5>8[4:1],
{8},,,,,5,4,3,
{8}2,,8,1,,8h[4:1],,6h[4:1],
{8},4h[4:1],,2,,1<5[2:1],,1b,{1},
{4}1-5[8:1],7,8-4[8:1],2,
{4}2-6[8:1],4,7-3[8:1],5,
{8}4-8[8:1],,2,,5-1[8:1],,7,7h[4:1],
{8},8,,,,7,6,5,
{8}1,2,3,6,5,4,2,3,
{8}4,8,7,6,3,4,5,,
{2}6/7,3/2,
{8}1/8,,1/8,2b/7b,,,,,
{8}1,,1,1h[4:1],,2,,,
{8}8,,8,8h[4:1],,7,,,
{8}3h[4:1],,8,6h[4:1],,1,,8^3[4:1],
{8},7,6,5,,,,,
{8}1,,2,3h[4:1],,4,,,
{8}8,,7,6h[4:1],,5,,,
{8}4h[4:1],,1,5h[4:1],,8,,3,
{8},7,7h[2:1],,
{1000}8,,,,,,,,,,,,,,,,,,,,,,,,,,,,,,,,,,,,,,,,,,,,,,,,,,,,,,,,,,,,,,,,,,,,,,,,,,,,,,,,,,,,,,,,,,,,,,,,,,,,,,,,,,,,,,,,,,,,,,,,,,,,,,,,,,,,,,,,,,,,,,,,,,,,,,,,,,,,,,,,,,,,,,,,,,,,,,,,,,,,,,,,,,,,,,,,,,,,,,,,,,,,,,,,,,,,,,,,,,,,,,,,,,,,,,,,,,,,,,,,,,,,,,,,,8,,,,,,,,,,,,,,,,,,,,,,,,,,,,,,,,,,,,,,,,,,,,,,,,,,,,,,,,,,,,,,,,,,,,,,,,,,,,,,,,,,,,,,,,,,,,,,,,,,,,,,,,,,,,,,,,,,,,,,,,,,,,,,,,,,,,,,,,,,,,,,,,,,,,,,,,,,,,,,,,,,,,,,,,,,,,,,,,,,,,,,,,,,,,,,,,,,,,,,,,,,,,,,,,,,,,,,,,,,,,,,,,,,,,,,,,,,,,,,,,,,,,,,,,,,,
{8}4/5,4/5,4/5,5/4,4-1[8:1]/5-8[8:1],,,,
{8}2,1,2,1,5,6,5,6,
{8}3,4,3,4,8,7,8,7,
{8}1,8,2,7,3,6,4,5,
{4}2-4[8:1],8-6[8:1],1-5[8:1],,
{8}7^2[4:1],,,,,,3,3-8[8:1],
{8},6,,6-1[8:1],,2,,2-6[8:1],
{8},8,8,,,1,8,1,
{8}8-4[8:1],,2,2-6[8:1],,7b,,,
{8}7,8,7,8,4,3,4,3,
{8}6,5,6,5,1,2,1,2,
{8}8,4,7,3,6,2,5,1,
{4}4-7[8:1],8-3[8:1],6-2[8:1],,
{8}3^8[4:1],,,,,,6,6-1[8:1],
{8},3,,3-8[8:1],,7,,7-3[8:1],
{8},1,1,,,6,5,4,
{8}3h[4:1],,2,7h[4:1],,6<5[4:3],,,{1},
{8}4/5,,,,5/4,,8/1,8h[8:5]/1h[8:5],{1},
{1}7p4[4:5],
{8},,,,,1,8,1,
{8}8/1,,,,8/1,,4/5,4h[8:5]/5h[8:5],{1},
{1}2q5[4:5],
{8},,,,,8h[4:1],,1,
{2}1h[2:3],2,
{8}4,,,,6,8h[4:1],,1,
{2}1h[2:3],7,
{2}5,3,
{4}5/4,4/5,4/3,5/6,
{4}1/8,1/8,1/2,7/8,
{8}1,1,1,1,8,8,8,8,
{16}1,8,1,8,1,8,1,8,1,8,1,8,1,8,1,8,
{8}2b,2b,7b,7b,4/5,,1b/8b,,
{8}2,1,8/3,2,6,5,7/4,6,
{8}3,4,2/5,3,7,8,6/1,7,
{8}1,1,3,3,5,5,7,7,
{4}2b/3,1b/3,8b/3,7b/3,
{8}7h[4:3],,,,,,6,6-2[8:1],
{8},4,,4-8[8:1],,2,,2-6[8:1],
{8},7,7,,,8/4,7/3,2/6,
{8}1/5,,3/7,3/7,,1b/5b,,,
{8}7,8,1/6,7,3,4,5/2,3,
{8}6,5,7/4,6,2,1,3/8,2,
{8}8,8,6,6,4,4,2,2,
{4}7h[2:1],3b,1h[4:1],5b,
{16}8/1,,,1/8,,,8/1,,8/1,,,,,,1-6[8:1]/2-5[8:1],,
{8},,,7-4[8:1]/8-3[8:1],,,,1-5[8:1]/8-4[8:1],{1},
{8}8/4,,2/6,6/2,,4p7[2:1]/8p3[2:1],,,{1},
{4}2h[4:1],4,7h[4:1],5,
{4}3h[4:1],2,6h[4:1],7,
{4}2h[4:3],1,7,5,
{8}1,8,2,7,3,6,4,5,
{8}3h[4:1],,1,,6h[4:1],,8,8^5[4:1],
{8},,,,,3,4,5,
{8}6,,1,8,,1h[4:1],,3h[4:1],
{8},5h[4:1],,7,,8>4[2:1],,8b,,,,,
E
&inote_5=(180.0){1},
{8}1/8,,4/5,,3/6,7/2,,1b/8b,
{8}3-8[8:1],,,,6p3[8:5],,1,2h[8:5],
{8},,,,,3/8,2/7,1/6,
{8}8h[4:1],,1,,3h[4:1],,7,2-6[8:1],
{8},1-5[8:1],,8-4[8:1],,7-3[8:1],,,
{8}6-1[8:1],,,,3q6[8:5],,8,7h[8:5],
{8},,,,,6/1,2/7,3/8,
{8}2-5[8:1],,2,7-4[8:1],,7,,3/4,
{8},2/1,,7/8,,5^2[8:5]/6^1[8:5],,,{1},
{8}8h[4:1],,7,,1-5[16:3],2,3,4,
{8},5/6,,3-8[16:3]/4-7[16:3],,4/3,,,
{8}1h[4:1],,2,,8-4[16:3],7,6,5,
{8},5-2[16:3]/6-1[16:3],,5/6,,2/1,8/1,8/7,
{8}6h[4:1],,3,,2/3,8/1,6/7,4/5,
{8},3/6,,2/7,,1/8,,,
{2}3-6[16:3]/7-2[16:3],4-1[16:3]/8-5[16:3],
{1}1s5[8:3],
{8}3h[4:1],,2,4/3,,3/4,,,
{8}6h[4:1],,7,6/5,,6/5,,,
{8}2-4[8:1],,2,8-6[8:1],,8,,1-5[8:1],
{8},1,
{999}7h[2:1],,,,,,,,,,,,,,,,,,,,,,,,,,,,,,,,,,,,,,,,,,,,,,,,,,,,,,,,,,,,,,,,,,,,,,,,,,,,,,,,,,,,,,,,,,,,,,,,,,,,,,,,,,,,,,,,,,,,,,,,,,,,,
{997}3h[1251:469],,,,,,,,,,,,,,,,,,,,,,,,,,,,,,,,,,,,,,,,,,,,,,,,,,,,,,,,,,,,,,,,,,,,,,,,,,,,,,,,,,,,,,,,,,,,,,,,,,,,,,,,,,,,,,,,,,,,,,,,,,,,,,,,,,,,,,,,,,,,,,,,,,,,,,,,,,,,,,,,,,,,,,,,,,,,,,,,,,,,,,,,,,,,,,,,,,,,,,,,,,,,,,,,,,,,,,,,,,,,,,,,,,,,,,,,,,,,,,,,,,,,,,,,,,,,,,,,,,,,,,,,,,,,,,,,,,,,,,,,,,,,,,,,,,,,,,,,,,,,,,,,,,,,,,,,,,,,,,,,,,,,,,,,,,,,,,,,,,,,,,,,,,,,,,,,,,,,,,,,,,,,,,,,,,,,,,,,,,,,,,,,,,,,,,,,,,,,,,,,,,,,,,,,,,,,,,,,,,,,,,,,,,,,,,,,,,,,,,,,,,,,,,,,,,,,,,,,,,,,,,,,,,,,,,,,,,,,,,,,,,,,,,,,,,,,,,,,,,,,,,,,,,,,,,,,,,,,,,,,,,,,,,,,,,,,,,,,,,,,,,,,,,,,,,,,,,,,,,,,,,,,,,,,,,,,,,,,,,,,,,,,,,,,,,,,,,,,,,,,,,,,,,,,,,,,,,,,,,,,,,,
{8}3/4,,6/5,2/1,,2/1,,,
{8}6/5,,3/4,8/7,,7/8,,,
{8}1,2,3,4,5,6,7,8,
{16}1,2,3,4,5,6,7,8,1,2,3,4,5,6,7,8,
{8}1/8,2/7,3/6,5b/4b,4-8[8:1]/5-1[8:1],,4^1[8:3]/5^8[8:3],,
{8},,,,,,8/1,2/7,
{8},1-4[8:1],,1-6[8:1],,1-5[8:1],,5-1[8:1],
{8},,,,2h[4:1],,4,5h[4:1],
{8},7,1/8,,2^7[16:3]/6^3[16:3],,,,
{8}2,4,5,7,1,8,6/3,4/5,
{8},5/6,,3/4,,8/7,,2/1,
{8},8h[8:3],1h[4:1],,,8/7,1/6,5/2,
{8}3-8[8:1],,3,7-4[8:1],,7,,,
{8}3,1,8,6,4,5,7/2,1/8,
{8},8-5[8:1],,8-3[8:1],,8-4[8:1],,4-8[8:1],
{8},,,,7h[4:1],,5,4h[4:1],
{8},2,4/3,,5/6,,2/7,,
{16}4/5,,,1-4[16:3]/8-5[16:3],,,3/6,,8b/1b,,,,,,4/3,,
{8},5/2,,1/6,,7/8,,6h[8:3],
{8},1,1,,,1,5,2,
{8}6,,7/3,6/2,,1v3[8:5]/5v7[8:5],,,{1},
{8}3h[4:1]/4h[4:1],,,,7,,4>6[2:3],5h[8:13],{1},,
{8},,,,,1/2,3/8,7/4,
{8}5h[4:1]/6h[4:1],,,,2,,5<3[2:3],4h[8:13],{1},,
{8},,,,,5,,6,
{2}7h[2:3]/2-6[8:1],6-1[8:1],
{8}1-5[8:1],,,,6,8,,1,
{2}2h[2:3]/7-3[8:1],3-8[8:1],
{8}8-4[8:1],,,,3,1,,8,
{8}6/5,,3/4,,7,3,7,1,
{8}4/3,,5/6,,2,6,2,8,
{8}1,2,3,4,5,6,7,8,
{16}1,2,3,4,5,6,7,8,1,2,3,4,5,6,7,8,
{8}5/1,2/6,7/3,4b/8b,3p7[8:1]/7p3[8:1],,3<7[8:3]/7>3[8:3],,
{8},,,,,,5/1,8/4,
{8},1^4[8:1],,1^6[8:1],,1-5[8:1],,5-1[8:1],
{8},,,,7/8,,4/3,5/6,
{8},2/1,7/3,,1^4[16:3]/5^8[16:3],,,,
{8}8,5,4,1,6,2,7/3,8/4,
{8},3/7,,6/2,,1/5,,4>5[8:3],
{8},,,,,3,4,5,
{8}6-1[8:1],,6,5-2[8:1],,5,,,
{8}3,1,8,6,1/5,6/2,3/7,8/4,
{8},8^5[8:1],,8^3[8:1],,8-4[8:1],,4-8[8:1],
{8},,,,6h[4:1],,5,4h[4:1],
{8},3,4/5,,3/4,,5/6,,
{16}2/7,,,1-5[16:3]/8-4[16:3],,,3/6,,8b/1b,,,,,,4/5,,
{8},7/2,,3/6,,8/1,,3h[4:1],
{8},8,2/1,,,7,4,6,
{8}3,,2/6,7/3,,4v2[2:1]/8v6[2:1],,,{1},
{8}6-1[8:1],,,,3q6[8:5],,8,7h[8:5],
{8},,,,,1/6,2/7,3/8,
{8}4h[4:1],,3,,5h[4:1],,6,3,
{8}2/8,1/7,,5/4,,1/7,8/2,,
{8}3-8[8:1],,,,6p3[8:5],,1,2h[8:5],
{8},,,,,8/3,7/2,6/1,
{8}5-2[16:3],,5,4-7[16:3],,4,,1/8,
{8},7/2,,3/6,,4>5[8:7]/5p4[8:7],{1},,
E
