&title=Back 2 Back
&artist=長沼英樹「ソニック ラッシュ」
&wholebpm=150
&demo_seek=51
&demo_len=14.7
&lv_1=3
&lv_2=6
&lv_3=7+
&lv_4=10+
&lv_5=13+
&des_4=譜面-100号
&des_5=はっぴー
&inote_1=(150.0){1},1,
{1}1,
{1}8,
{1}8,
{1}1,
{1}1,
{1}2,
{1}2,
{1}3,
{1}3,
{1}4,
{1}4,
{1}5,
{1}5,
{1}6,
{1}6,
{1}7,
{1}7,
{1}8,
{1}8,
{1}1h[1:1],,
{1}8h[1:1],,
{1}1h[1:1],,
{1}8h[1:1],,
{1}1-4[4:3],,
{1}5-8[4:3],,
{1}1-5[4:3],,
{1}6h[1:1],,
{1}7b,
{1}8,
{1}1,
{1}2,
{1}2,
{1}1,
{1}8,
{1}7,
{1}6,
{1}6,
{1}5,
{1}5,
{1}4,
{1}4,
{1}3,
{1}3,
{1}2h[1:1],,
{1}1h[1:1],,
{1}8h[1:1],,
{1}7h[1:1],,
{2}8,8,
{2}1,1,
{476}8,,,,,,,,,,,,,,,,,,,,,,,,,,,,,,,,,,,,,,,,,,,,,,,,,,,,,,,,,,,,,,,,,,,,,,,,,,,,,,,,,,,,,,,,,,,,,,,,,,,,,,,,,,,,,,,,,,,,,,,,,,,,,,,,,,,,,,,,,,,,,,,,,,,,,,,,,,,,,,,,,,,,,,,,,,,,,,,,,,,,,,,,,,,,,,,,,,,,,,,,,,,,,,,,,,,,,,,,,,,,,,,,,,,,,,,,,,,,,8,,,,,,,,,,,,,,,,,,,,,,,,,,,,,,,,,,,,,,,,,,,,,,,,,,,,,,,,,,,,,,,,,,,,,,,,,,,,,,,,,,,,,,,,,,,,,,,,,,,,,,,,,,,,,,,,,,,,,,,,,,,,,,,,,,,,,,,,,,,,,,,,,,,,,,,,,,,,,,,,,,,,,,,,,,,,,,,,,,,,,,,,,,,,,,,,,,,,,,,,,,,,,,,,,,,,,,,,,,,,,,,,,,,,,,,,,,,,,,,
{2}1,1,
{2}8,1,
{2}8,1,
{1}8/1,
{1}1b,
E
&inote_2=(150.0){1},
{2}4,4,
{2}5,5,
{2}3,3,
{2}6,6/5,
{4}4,4,4,,
{4}5,5,5,,
{4}3,3,3,,
{4}6,6,6,,
{4}4,4,4/3,,
{4}5,5,5/6,,
{4}4,5,4/5,,
{4}4,4,5,5b,
{4}3,3,,,
{4}5,5,,,
{4}7,7,,,
{4}1,1,,,
{4}2/1,2/1,,,
{4}8/7,8/7,,,
{4}6/5,6/5,,,
{4}4/3,4/3,,,
{8}2,,2,,,2,2,,
{8}1,,1,,,1,1,,
{8}8,,8,,,8,8,,
{8}7,,7,,,7,7,,
{8}6,,6,,,4,4,,
{8}3,,3,,,5,5,,
{8}6/5,,6/5,,,4,4,,
{8}4/3,,4/3,,,5,5,,
{4}6,5,4/3,,
{4}4,5,6/5,,
{4}6,5,4/3,,
{4}3,4,6/5,,
{4}6,5,6/4,,
{4}3,4,5/3,,
{4}4,3,5,6,
{1}4h[4:3]/5h[4:3],
{1}3-7[4:3],,
{1}6-2[4:3],,
{1}1-5[4:3],,
{1}8-4[4:3],,
{4}1,1,,,
{4}3,3,,,
{4}8,8,,,
{4}6,6,,,
{4}1,1h[2:1],,,
{4}8,8h[2:1],,,
{4}1,8,1,8,
{1}7b/2b,
{8}3,,3,,,4,4,,
{8}6,,6,,,5,5,,
{8}3,,3,,,4,4,,
{8}6,,6,,,5,5,,
{8}4,,4,,,3,3,,
{8}5,,5,,,6,6,,
{8}3,,3,,,5/4,5/4,,
{8}6,,6,,,4/5,4/5,,
{8}3,3,3,,3,,,,
{8}6,6,6,,6,,,,
{8}3,3,3,,3,,,,
{8}6,6,6,,6,,,,
{8}1,1,1,,8/1,,,,
{8}8,8,8,,8/1,,,,
{8}1,1,1,,8,8,8,,
{1}2b/7b,
E
&inote_3=(150.0){1},1h[4:3],
{1}8h[4:3],
{1}2h[4:3],
{1}7h[4:3],
{4}3,3,3,,
{4}6,6,6,,
{4}4,4,4,,
{4}5,5,5,5,
{4}3,4,3,4,
{4}6,5,6,5,
{4}6,5,4,3,
{4}3,4,5,6b,
{1}1-5[4:1],
{1}8-4[4:1],
{1}2-5[4:1],
{1}7-4[4:1],
{4}3,3,3,1b,
{4}6,6,6,8b,
{4}3,4,3,1b,
{4}6,5,6,8b,
{4}1,2,3,4,
{4}5,6,7,8,
{4}8,7,6,5,
{4}4,3,2,1,
{1}8-5[4:1],
{1}4-1[4:1],
{1}6q3[8:3],
{1}2^7[8:3],
{4}3,3,1b/8b,,
{4}6,6,8b/1b,,
{4}3,4,8b/1b,,
{4}6,5,8b/1b,,
{4}4,5,8b/1b,,
{4}3,4,7b/8b,,
{4}6,5,6,5,
{4}5h[2:1]/6h[2:1],,,2b/1b,
{1}1q4[1:1],,
{1}8p5[1:1],,
{1}5p2[1:1],,
{1}4q7[1:1],,
{8}1,1,1,,,,,,
{8}3,3,3,,,,,,
{8}5,5,5,,,,,,
{8}7,7,7,,,,,,
{8}8,8,8,,,,,,
{8}6,6,6,,,,,,
{8}4,4,4,,,,,,
{8}2,2,2,,,,,,
{4}1,5,2,6,
{4}3,7,4,8,
{4}4,8,3,7,
{4}2,6,1,5,
{4}2,2,1,1,
{4}8,8,7,7,
{4}3,3,4,4,
{4}5,5,6/5,,
{8}3,3,3,,1b,,,,
{8}6,6,6,,8b,,,,
{8}3,4,3,,1b,,,,
{8}6,5,6,,8b,,,,
{8}1/8,1/8,8/1,,2b/7b,,,,
{8}7/2,7/2,7/2,,1b/8b,,,,
{4}1h[4:1],8h[4:1],1h[4:1],8h[4:1],
{1}1b,
E
&inote_4=(150.0){1},
{8}8,,4,,8,2,4,,
{8}1,,5,,1,7,5,,
{8}8,,4,,8,2,4,,
{8}1,7,5,,8,2,4-7[8:1],,
{8},,5,,1,7,5,,
{8}8,6,4,,8,2,4,,
{8}1,3,5,,1,7,5,,
{8}8,2,6,,1,7,3-8[8:1],,
{8},,4,4,1,7,5,,
{8}1,3,5,5,8,6,4,,
{8}1,7,5,5,8,2,4,4,
{8}1,7,8,2,1,6,8,3,
{8}2-7[8:1],2,,,,8,8,,
{8}3-6[8:1],3,,,,5,5,,
{8}2-7[8:1],2,,,,1,1,,
{8}3-6[8:1],3,,,,4,4,,
{8}2-6[8:1],2,,,,8,8b/1b,,
{8}3-7[8:1],3,,,,5,4b/5b,,
{8}2-6[8:1],2,,,,8,8b/1b,,
{8}3-7[8:1],3,,,,,4b/5b,,
{8}3-7[8:1]/4-6[8:1],3/4,,,,1,1/8,,
{8}1-7[8:1]/2-6[8:1],2/1,,,,4,5/4,,
{8}3-7[8:1]/4-6[8:1],3/4,,,,1,8/1,,
{8}1-7[8:1]/2-6[8:1],2/1,,,,4,5/4,,
{8}3-8[8:1]/4-7[8:1],3/4,,,,7/8,1/6,,
{8}1-6[8:1]/2-5[8:1],2/1,,,,5/6,4/7,,
{8}3-8[8:1]/4-7[8:1],4/3,,,,7/8,6/1,,
{8}1-6[8:1]/2-5[8:1],2/1,,,,5/6,7/4,,
{8}2/6,4,6/2-7[8:1],,,,,,
{8}3/7,5,7/3-6[8:1],,,,,,
{8}6/2,4,6/2-7[8:1],,,,,,
{8}7/3,5,7/3-6[8:1],,,,,,
{8}2/6,8,6/2-7[8:1],,,,,,
{8}3/7,1,7/3-6[8:1],,,,,,
{8}2/6,4,6/2,4,3/7,5,3/7,5,
{8}6b/2b,,,,2-7[8:1],2,,,
{1}1>8[2:1],
{1}3>4[2:1],
{1}4<3[2:1],
{1}2<3[2:1],
{1}1p2[2:1]/8<3[2:1],
{1}3q2[2:1]/4<1[2:1],
{1}4>7[2:1]/5p6[2:1],
{8}1q8[2:1]/2>7[2:1],,,,,,,2,
{8}2p1[8:3],2,,,,,,3,
{8}3q4[8:3],3,,,,,,2,
{8}2p7[8:3],2,,,,,3,3,
{8}3q6[8:3],3,,,,,,2,
{8}2s6[4:1],2,,,,3,3,3,
{8}3z7[4:1],3,,,,2,2,2,
{8}2-7[8:1],2,,,3-6[8:1],3,,,
{1}1b/8b,
{8}1^6[8:1]/2p5[8:1],,,,,4/3,7/8,,
{8}1q6[8:1]/2^5[8:1],,,,,8/7,4/3,,
{8}3^8[8:1]/4p7[8:1],,,,,6/5,2/1,,
{8}3q8[8:1]/4^7[8:1],,,,,1/2,5/6,,
{8}1v7[8:1]/2q6[5000:621],1/2,,,,7/8,4/5,,
{8}3p7[8:1]/4v6[8:1],4/3,,,,6/5,1/8,,
{8}1v7[8:1]/2q6[5000:621],1/2,,,,7/8,4/5,,
{8}5/7,6,4/2,3,4/6,5,5/3,4,
{8}2/6,4,2v7[8:1]/6v1[8:1],,,,,,
{8}3/7,1,3v6[8:1]/7v4[8:1],,,,,,
{8}2/6,8,2v5[8:1]/6v3[8:1],,,,,,
{8}3/7,5,3v8[8:1]/7v2[8:1],,,,,,
{8}2/6,4/8,2v7[8:1]/6v3[8:1],,,,,,
{8}3/7,5/1,3v6[8:1]/7v2[8:1],,,,,,
{2}1v4[8:1]/5v8[8:1],4v1[8:1]/8v5[8:1],
{1}7b/2b,
E
&inote_5=(150.0){1},
{4}1^4[4:1],4q5[8:3],,,
{4}8^5[4:1],5p4[8:3],,,
{4}1^4[4:1],4q5[8:3],,,
{2}7p6[4:1],2q3[4:1],
{4}7-4[4:1],4q6[8:3],,,
{4}2-5[4:1],5p3[8:3],,,
{4}7-4[4:1],4q6[8:3],,,
{2}2q3[4:1],7p6[4:1],
{4}1-4[4:1],4p2[8:3],,,
{4}8-5[4:1],5q7[8:3],,,
{4}1-4[4:1],4p2[8:3],,,
{2}4-2[8:1]/5-7[8:1],4-8[8:1]/5-1[8:1],
{4}2p5[4:1],5p8[4:1],,,
{4}7q4[4:1],4q1[4:1],,,
{4}3q8[4:1],8q5[4:1],,,
{4}6p1[4:1],1p4[4:1],,,
{4}2p5[4:1],5p8[4:1],8-2[8:1],,
{4}7q4[4:1],4q1[4:1],1-7[8:1],,
{4}3q8[4:1],8q5[4:1],5-3[8:1],,
{4}6p1[4:1],1p4[4:1],,2b,
{8}8v2[8:1],2<6[8:1],,,5>1[8:1],,,,
{8}1v7[8:1],7>3[8:1],,,4<8[8:1],,,,
{8}8v2[8:1],2<6[8:1],,,5>1[8:1],,,,
{8}1v7[8:1],7>3[8:1],,,4<8[8:1],,,,
{8}3v5[8:1],5>1[8:1],,,8<4[8:1],,,,
{8}6v4[8:1],4<8[8:1],,,1>5[8:1],,,,
{8}3v5[8:1],5>1[8:1],,,8<4[8:1],,,,
{8}6v4[8:1],4<8[8:1],,,1,,,,
{8}8-4[8:1],4-7[4:1],4-1[8:1],,,,,,
{8}1-5[8:1],5-2[4:1],5-8[8:1],,,,,,
{8}8-4[8:1],4^7[4:1],4^1[8:1],,,,,,
{8}1-5[8:1],5^2[4:1],5^8[8:1],,,,,,
{8}8-4[8:1],4v7[4:1],4v1[8:1],,,,,,
{8}1-5[8:1],5v2[4:1],5v8[8:1],,,,,,
{8}8-6[8:1],8-4[8:1],8-5[8:1],8-3[8:1],8p5[8:3],,,,
{4},,,1b,
{4}6q3[8:1],3p6[8:1],6q3[8:1],3q8[8:1],
{4}8p3[8:1],3q8[8:1],8p3[8:1],,
{4}2q7[8:1],7p2[8:1],2q7[8:1],7q4[8:1],
{4}4p7[8:1],7q4[8:1],4p7[8:1],,
{4}8q5[8:1],5p8[8:1],8q5[8:1],5q2[8:1],
{4}2p5[8:1],5q2[8:1],2p5[8:1],,
{4}4q1[8:1],1p4[8:1],4q1[8:1],1q6[8:1],
{8}6p1[8:1],,1q6[8:1],,,,,3-6[8:1],
{8}6p3[4:1],,,,,,,6-3[8:1],
{8}3q6[4:1],,,,,,,3-6[8:1],
{8}6p4[4:1],,4>7[4:1],,,,,6-3[8:1],
{8}3q5[4:1],,5<2[4:1],,,,,2q6[8:1],
{8}6q8[4:1],,8>5[4:1],,,,,7p3[8:1],
{4}3p1[4:1],1<4[4:1],,,
{8}1-3[8:1],1-5[8:1],1-4[8:1],1-6[8:1],
{2}1q4[8:3],{1},
{4}8^5[4:1],5p3[4:1],3^8[4:1],8^5[4:1],
{4}5p3[4:1],3^8[4:1],8^5[4:1],,
{4}1^4[4:1],4q6[4:1],6^1[4:1],1^4[4:1],
{4}4q6[4:1],6^1[4:1],1^4[4:1],,
{4}6^1[4:1],1q3[4:1],3^6[4:1],6^1[4:1],
{4}1q3[4:1],3^6[4:1],6^1[4:1],,
{4}3^8[4:1],8p6[4:1],6^3[4:1],3^8[4:1],
{4}8p6[4:1],6^3[4:1],,,
{8}2^7[8:1],7q5[8:1],5p3[4:1],,,,,,
{8}7^2[8:1],2p4[8:1],4q6[4:1],,,,,,
{8}2^7[8:1],7q5[8:1],5p3[4:1],,,,,,
{8}7^2[8:1],2p4[8:1],4q6[4:1],,,,,,
{8}2^5[8:1],5p7[8:1],7q1[4:1],,,,,,
{8}7^4[8:1],4q2[8:1],2p8[4:1],,,,,,
{8}5-7[8:1],5-1[8:1],5-8[8:1],5-2[8:1],5q8[8:3],,,,,,
E
