&title=電車で電車でOPA!OPA!OPA! -GMT mashup-
&artist=Yuji Masubuchi(BNGI)「電車でGO!」「ファンタジーゾーン」
&wholebpm=134
&demo_seek=72.8
&demo_len=11.3
&lv_1=2
&lv_2=4
&lv_3=7
&lv_4=11+
&lv_5=13+
&des_4=mai-Star
&des_5=譜面-100号
&inote_1=(134.0){1},,,,
{1}8,
{1}8,
{1}8,
{2}1,1,
{1}1b,
{2}2,2,
{1}2,
{2}3,3,
{1}3,
{2}4,4,
{1}4,
{1}5h[2:1],
{2}5,5,
{1}5-8[4:3],,
{1}1-4[4:3],,
{2}5,5,
{1}5,
{2}6,6,
{1}6,
{2}7,7,
{1}7,
{1}8h[2:1],
{2}8,8b,
{1}1,
{1}1/2,
{1}8,
{1}8/7,
{1}1h[2:1],
{1}1/2,
{1}8h[2:1],
{1}8/7,
{2}1,1,
{1}2/1,
{2}8,8,
{1}8/7,
{2}1,1,
{1}2,
{2}2,2,
{1}3,
{1}3-6[4:3],,,
{2}7,7b,
{2}6,6,
{1}6/5,
{1}5/4,
{1}5/4,
{2}3,3,
{1}4/3,
{1}5h[1:1]/4h[1:1],,
{2}6,6,
{1}7,
{1}8/7,
{1}8/7,
{2}8,8,
{1}1,
{1}8h[1:1]/1h[1:1],,
{1}1,
{1}8,
{1}1,
{2}8,8,
{16}8h[16:31],,,,,,,,,,,,,,,{1},,
E
&inote_2=(134.0){1},,,,
{2}4,5,
{2}4,5,
{2}4,5,
{4}5/4,5/4,5/4,5/4,
{4},3/6,,,
{2}2,2,
{4}3,3,3,,
{2}4,4,
{4}5,5,5,,
{2}6,6,
{4}7,7,7,,
{2}8,8,
{4}1,1,1b,,
{1}1h[2:1],
{1}8h[2:1],
{1}2h[2:1],
{1}7h[2:1],
{2}1,1,
{1}8h[2:1],
{2}7,7,
{4}6,6,6,,
{2}5,5,
{4}4,4,4,,
{1}3-8[4:3],,
{2}1,1,
{1}1/8,
{2}2,2,
{1}2/1,
{2}8,8,
{1}8/7,
{2}1,8,
{1}2/7,
{4}3,3,3,,
{1}3/4,
{4}5,5,5,,
{1}5/6,
{2}4,4,
{2}5,5,
{4}4,4,3,3,
{4}2,2,1,,
{1}1b/8b,,
{2}7,7,
{2}8/1,8/1,
{4}2,2,1,1,
{1}8/7,
{1}1h[2:1],
{1}8h[2:1],
{4}7,7,8,8,
{1}1/2,
{1}1-4[4:3],,
{4}4,4,3,3,
{1}3/4,
{1}4h[2:1],
{1}5h[2:1],
{4}5,5,6,6,
{1}6/5,
{1}5-8[4:3],,
{2}1,8,
{2}1,8,
{2}1,8,
{4}8/1,8/1,8/1,1/8,
{4},
{16}2h[16:27]/7h[16:27],,,,,,,,,,,{1},,
E
&inote_3=(134.0){1},
{4}2,3,4,5/6,
{4}7,6,5,4/3,
{8}8/7,,,1/2,,,3/6,,
{4}5/4,4/3,1,1,
{4}5/4,6/5,8,8,
{4}5/4,6/3,2,7,
{4}4,3,2,1b,
{1}6p3[8:5],
{4}2,2/1,7,8/7,
{4}4,5,6/3,,
{4}7,1/7,2,8/2,
{4}5,4,3/6,,
{4}6,5/6,3,4/3,
{4}2,7,1/8,,
{4}8/7,8/7,2/1,1/2,
{1}3q6[8:5],
{4}8,8-5[8:3],,,
{4}4,4-1[8:3],,,
{4}1/8,1-4[8:3]/8-5[8:3],,,
{2}3-8[4:1],6-1[4:1],
{4}2,2,7,7,
{4}3/4,6/5,4h[4:1]/5h[4:1],,
{4}7,7,2,2,
{4}1,8,7/2,,
{4}6,4,3,5,
{4}7,1,6/3,,
{4}5/4,6/5,6/7,8/7,
{1}1^4[2:1]/8q5[2:1],
{4}6,6/5,7,8/7,
{4}3,3/4,2,2/1,
{4}7,7/1,2,8/2,
{4}5,5/3,4,6/4,
{4}4/5,5/6,4/3,5/4,
{4}2,2/1,7,7/8,
{4}3,4/3,6,6/5,
{4}2,8/2,7,1/7,
{4}5,3/5,4,4/6,
{4}2,1,8,7,
{4}8/1,2/1,8/7,1/8,
{4}4,2,8,6,
{4}4,2/5,2,1/2,
{4}5,7/4,7,7/8,
{8}2,2,2,,7,7,7,,
{4}1/8,7/2,3/6,5/4,
{1}4-1[4:1]/5-8[4:1],,
{4}4,6/5,5,4/3,
{4}2b/1b,7b/8b,2b/1b,7b/8b,
{8}4,5,4,5,4,5,4,5,
{4}4,5/4,,6/5,
{4}8^3[4:1],,,3/4,
{1}1^6[4:1],
{8}5,4,5,4,5,4,5,4,
{4}5,5/4,,4/5,
{1}3>6[2:1],
{2}7h[4:3],2h[4:1],
{8}2,8,2,8,2,8,
{781}2,,,,,,,,,,,,,,,,,,,,,,,,,,,,,,,,,,,,,,,,,,,,,,,,,,,,,,,,,,,,,,,,,,,,,,,,,,,,,,,,,,,,,,,,,,,,,,,,,
{469}8,,,,,,,,,,,,,,,,,,,,,,,,,,,,,,,,,,,,,,,,,,,,,,,,,,,,,,,,,,,
{4}2,2/8,,3/4,
{4}2^5[16:3],,,5/6,
{1}7^4[16:3],
{8}7,1,7,1,7,1,7,1,
{4}7,7/1,,5/4,
{1}6<3[2:1],
{4}6h[4:1]/3h[4:1],,5/4,5/4,
{4}4/3,4/3,8/7,8/7,
{4}6/5,5/6,2/1,2/1,
{4}5/6,4/3,8/7,2/1,
{4}8/1,7/2,3/6,4b/5b,
{1}4-1[4:1]/5-8[4:1],
{16},,,,,,,,,,,,1/8,,,2/7,
E
&inote_4=(134.0){1},
{4}4,4,5,5,
{8}1,,1,,8,8,7/2,,
{8}1/2,2/1,,5/6,5/6,,1/2,,
{4}7h[4:3],6,3,6,
{4}2h[4:3],3,6,3,
{8}6h[4:1],5,3h[4:1],4,6h[4:1],5,3h[4:1],4,
{4}8b,6b,4b,2b,
{4},1b/8b,,,
{8},1,2,3,8,7,6,5,
{8}2,1,8,7,6z2[4:1],,,,
{8},1,1h[8:5],,3,2,8,7,
{4}1-5[8:1],7-3[8:1],,,
{8},8,1,2,3,4,5,6,
{8}7,5,3,1,7,,,,
{8},8,8,7,8,1,2,,
{313}8,,,,,,,,,,,,,,,,,,,,,,,,,,,,,,,,,,,,,,,
{8}8,
{941}8,,,,,,,,,,,,,,,,,,,,,,,,,,,,,,,,,,,,,,,,,,,,,,,,,,,,,,,,,,,,,,,,,,,,,,,,,,,,,,,,,,,,,,,,,,,,,,,,,,,,,,,,,,,,,,,,,,,,,,
{16}1,1,,,,,,,,,
{4}3/4,5/6,2/1,1/2,
{4}6/5,4/3,8/7,7/8,
{4}2/1,3/4,5/6,7/8,
{16}3/6,,,,8/1,,,,2,,2,,8,8,,,
{4}7,8,1^6[16:3],2,
{4}3,1-4[8:1]/8-5[8:1],,,
{4}3,4,5^2[16:3],6,
{4}6-3[8:1],3-6[8:1],,,
{8}1h[4:1],2,2,,8h[4:1],7,7,,
{4}1h[4:1],8,2/7,,
{4}4h[4:1],5h[4:1],3h[4:1],6h[4:1],
{16}1,,2/8,,8/2,,1,1,,,,,,,,,
{8}2,,2,,6,5,4,3/4,
{8}8,,8,,3,4,2/5,,
{8}7,,7,,3,4,5,5/6,
{8}1,,1,,6,5,4/7,,
{4}4/1,6/7,2/3,8/5,
{8}2,1,4,5,8,7,2,7,
{16}1,,2,,3,,6,5,,8,,3,4,,,,
{16}8,,7,,6,,3,4,,1,,6,5,,,,
{16}1/5,,6/2,,7/3,,5,6,,4/8,,3,4,,,,
{16}8/4,,3/7,,2/6,,3,4,,1/5,,6,5,,,,
{4}8/7,5/6,4/3,2/1,
{4}5/1,2/6,3/7,4b/8b,
{16}1,,1,,8,,8,,1,,8,,1,8,1,,
{16}5,,5,,4,,4,,5,,4,,6,3,6,,
{8}8/4,3/7,6/2,1/5,5/1,2/6,3/7,4/8,
{8}7/8,3/4,2/1,5/6,4-1[8:1]/5-8[8:1],,,,
{16}1b,,,1b,,,,,8q5[4:1],,,,,,,,
{2}1p4[4:1],7s3[4:1],
{4}2,3/4,7,6/5,
{4}1b,3b,5b,7b,
{8}2h[8:1],3,2h[8:1],4,2h[8:1],5,2h[8:1],6,
{16}2/7,,,1/8,,,,,1-6[8:1]/2-5[8:1],,,,,,,,
{8}3h[4:1],6,1b,,6h[4:1],3,8b,,
{8}3h[4:1],4,6h[4:1],5,3h[4:1],4,8b,,
{8}7h[8:1],6,7h[8:1],5,7h[8:1],4,7h[8:1],3,
{16}2/7,,,8/1,,,,,7-4[8:1]/8-3[8:1],,,,,,,,
{16}8,1,,2/7,,7/2,,,8/1,,,,,,,,
{1000},1h[1000:499],,,,,,,,,,,,,,,,,,,,,,,,,,,,,,,,,,,,,,,,,,,,,,,,,,,,,,,,,,,,,,,,,,,,,,,,,,,,,,,,,,,,,,,,,,,,,,,,,,,,,,,,,,,,,,,,,,,,,,,,,,,,,,,,,,,,,,,,,,,,,,,,,,,,,,,,,,,,,,,,,,,,,,,,,,,,,,,,,,,,,,,,,,,,,,,,,,,,,,,,,,,,,,,,,,,,,,,,,,,,,,,,,,,,,,,,,,,,,,,,,,,,,,,,,,,,,,,,,,,,,,,,,,,,,,,,,,,,,,,,,,,,,,,,,,,,,,,,,,,,,,,,,,,,,,,,,,,,,,,,,,,,,,,,,,,,,,,,,,,,,,,,,,,,,,,,,,,,,,,,,,,,,,,,,,,,,,,,,,,,,,,,,,,,,,,,,,,,,,,,,,,,,,,,,,,,,,,,,,,,,,,,,,,,,,,,,,,,,,,,,,,,,,,,,,,,,,,,,,,,,,,,,,,,,,,,,,,,,,,,,,,,,,,,,,,,,,,,,,,8h[8:3],,,,,,,,,,,,,,,,,,,,,,,,,,,,,,,,,,,,,,,,,,,,,,,,,,,,,,,,,,,,,,,,,,,,,,,,,,,,,,,,,,,,,,,,,,,,,,,,,,,,,,,,,,,,,,,,,,,,,,,,,,,,,,,,,,,,,,,,,,,,,,,,,,,,,,,,,,,,,,,,,,,,,,,,,,,,,,,,,,,,,,,,,,,,,,,,,,,,,,,,,,,,,,,,,,,,,,,,,,,,,,,,,,,,,,,,,,,,,,,,,,,,,,,,,,,,,,,,,,,,,,,,,,,,,,,,,,,,,,,,,,,,,,,,,,,,,,,,,,,,,,,,,,,,,,,,,,,,,,,,,,,,,,,,,,,,,,,,,,,,,,,,,,,,,,,,,,,,,,,,,,,,,,,,,,,,,,,,,,,,,,,,,,,,,,,,,,,,,,,,,,,,,,,,,,,,,,,,,,,,,,,,,,,,,,,,,,,,,,,,,,,,,,,,,,,,,,,,,,,,,,,,,,,,,,,,,,,,,,,,,,,,,,,,,,,,,,,,,,,,
{8}4h[8:1],3,4h[8:1],5,4h[8:1],3,4h[8:1],5,
{16}5/3,,,7/8,,,,,8,,,,1,,,,
{8}6h[4:1],3,8b,,3h[4:1],6,1b,,
{8}3/4,3/4,6/5,5/6,4/5,4/5,2b/7b,,
{8}5h[8:1],6,5h[8:1],4,5h[8:1],6,5h[8:1],4,
{16}6/4,,,2/1,,,,,1-6[8:1]/2-5[8:1],,,,,,,,
{16}3,3,,4,4,4,,5,5,5,,6,6,,6,,
{16}8h[4:3],,,,,,,,
{12}1,
{995}1,,,,,,,,,,,,,,,,,,,,,,,,,,,,,,,,,,,,,,,,,,,,,,,,,,,,,,,,,,,,,,,,,,,,,,,,,,,,,,,,,,,
{12}1,1,,,
{4}2h[4:3],4,8,4,
{4}7h[4:3],5,1,5,
{8}2h[4:1],4,7h[4:1],5,2h[4:1],3,7h[8:1],6,
{4}2b/1b,2b/1b,7b/8b,8b/7b,
{4},8b/1b,,,
{4},,,7>6[1:1],{1},,
E
&inote_5=(134.0){1},
{4}3h[4:1],1,6h[4:1],8,
{4}2h[4:1],4,7h[4:1],5,
{16}2,,8/1,8b/1b,,,7,,2/8,8b/2b,,,1,,7/2,7/2,
{8}1-3[8:1],1,8-4[8:1],8,1-5[8:1],1,8-6[8:1],8,
{8}1-5[8:1],1,8-4[8:1],8,1-3[8:1],1,8-4[8:1],8,
{8}1-5[8:1],1,8-6[8:1],8,1-5[8:1],1,8-4[8:1],8,
{4}1b,1b,1b,1b,
{1}4-1[8:1]/5-8[8:1],
{8}2z6[4:1],2,,,7s3[4:1],7,,,
{8}2s6[4:1],2,,,7z3[4:1],7,,,
{8}2z6[4:1],2,,,7s3[4:1],7,,,
{8}2p7[2:1],2,2h[2:1],,,,,,
{8}8z4[4:1],8,,,1s5[4:1],1,,,
{8}8s4[4:1],8,,,1z5[4:1],1,,,
{8}7p2[4:1],7,,,3p6[4:1],3,,,
{1}1q4[2:1],
{4}8q6[4:1],6p8[4:1],8q6[4:1],6,
{4}1p3[4:1],3q1[4:1],1p3[10000:2497],3,
{4}7q5[4:1],5p7[4:1],7q5[4:1],5,
{4}2p4[4:1],4q2[4:1],2p4[10000:2497],4,
{8}1-5[8:1],2-4[8:1],,,8-4[8:1],7-5[8:1],,,
{16}2,,2,1,8,,7h[8:3],,3h[4:1],,,,,,,,
{8},4/6,5,6/4,,3/5,4,3/5,
{4}6^3[8:1],2^5[8:1],7^4[8:1],,
{8},3/1,2,3/1,7,8/6,7,8/6,
{4}7h[4:3],8,8h[4:1],,
{8}7h[4:7],8,8,8,
{2}1>5[1:1],{1},
{8}1,1,1-4[8:1],1-5[8:1],1-3[8:1],,,,
{8}8,8,8-5[8:1],8-6[8:1],8-4[8:1],,,,
{8}1,8,1-3[8:1],8-4[8:1],1-5[8:1],,,,
{8}8,1,8-6[8:1],1-5[8:1],8-4[8:1],,,,
{8}2,1,2-4[8:1],1-5[8:1],2-6[8:1],,,,
{8}7,8,7-5[8:1],8-4[8:1],7-3[8:1],,,,
{8}1,6,1-6[8:1],6^1[8:1],1^4[8:1],,,,
{8}8,3,8-3[8:1],3^8[8:1],8^5[8:1],,,,
{8}1-7[8:1],1-4[8:1],1-6[8:1],1-3[8:1],1-5[8:1],,,,
{8}8-2[8:1],8-5[8:1],8-3[8:1],8-6[8:1],8-4[8:1],,,,
{8}1^6[16:3],7^4[16:3],5^2[16:3],3^8[16:3],,,,,
{8}8^3[16:3],2^5[16:3],4^7[16:3],6^1[16:3],,,,,
{8}2-4[8:1],2,8-6[8:1],8,1-4[8:1],1-6[8:1],,,
{8}1-3[8:1],1,7-5[8:1],7,8-3[8:1],8-5[8:1],,,
{8}1-3[8:1],1-5[8:1],1-4[8:1],1-6[8:1],1-5[8:1],1-7[8:1],1-4[8:1],1-6[8:1],
{8}1-3[8:1],1-5[8:1],1-4[8:1],1-6[8:1],1-5[8:1],1,1b,,
{16}4-1[8:1]/5-8[8:1],,5/4,4b/5b,,,,,2,7,1,8,1,8,2,7,
{16}3,6,4,5,4,5,3,6,4,5,4,5,3,6,4,5,
{16}4,,,6,5,,,,5,,,3,4,,,,
{4}5b/6b,3b/4b,7b/8b,2b/1b,
{8}7-3[8:1],8-4[8:1],7,8,7-3[8:1],8-4[8:1],7,8,
{16}7^4[8:1],,,8^3[8:1],,,,,,,7,8,1,2^7[4:1],,2h[16:9],
{16},,,,,,,,,,3,4,5,6^3[4:1],,6h[16:9],{1},
{8}2-6[8:1],1-5[8:1],2,1,2-6[8:1],1-5[8:1],2,1,
{16}2^5[8:1],,,1^6[8:1],,,,,,,8,1,2<3[4:3],3p2[16:11],,,{1},
{16}2-4[8:1],2,,2,8-6[8:1],8,,8,1-5[8:1],1,,1,7b,,,,
{8}7-4[8:1],8-3[8:1],7^5[8:1],8^2[8:1],7-4[8:1],8-3[8:1],7,8,
{16}7-3[8:1],,,8-4[8:1],,,,,,,7,8,1^6[4:1],2p5[4:1],,,
{16},,,,,,,,,,2,1,8^3[4:1],7q4[4:1],,,{1},
{8}2-5[8:1],1-6[8:1],2^4[8:1],1^7[8:1],2-5[8:1],1-6[8:1],2,1,
{16}2-6[8:1],,,1-5[8:1],,,,,,,2<6[4:1],1<5[4:1],8<4[4:1],7<3[4:1],,,{1},
{12},,,,,,8/1,
{995}1/8,,,,,,,,,,,,,,,,,,,,,,,,,,,,,,,,,,,,,,,,,,,,,,,,,,,,,,,,,,,,,,,,,,,,,,,,,,,,,,,,,,,
{12}1/8,7b/2b,,,
{16}1-3[8:1],,1,1,8-4[8:1],,8,8,1-5[8:1],,1,1,8-6[8:1],,8,8,
{16}1-5[8:1],,1,1,8-4[8:1],,8,8,1-3[8:1],,1,1,8-4[8:1],,8,8,
{16}1-5[8:1],,1,1,8-6[8:1],,8,8,1-5[8:1],,1,1,8-4[8:1],,8,8,
{4}1b,1b,1b,1b,
{641}1,,,,,,,,,,,,,,,,,,,,
{639}2,,,,,,,,,,,,,,,,,,,,3,,,,,,,,,,,,,,,,,,,,
{641}4,,,,,,,,,,,,,,,,,,,,5,,,,,,,,,,,,,,,,,,,,
{639}6,,,,,,,,,,,,,,,,,,,,7,,,,,,,,,,,,,,,,,,,,
{641}8h[1867:2392],,,,,,,,,,,,,,,,,,,,
{4}1h[16:27],,,
{16},,,,,,,,,,,,3-7[16:1],3,,,,,
E
