&title=最速最高シャッターガール
&artist=ビートまりお(COOL&CREATE)
&wholebpm=160
&demo_seek=36
&demo_len=25.1
&lv_1=2
&lv_2=4
&lv_3=8
&lv_4=10+
&lv_5=12+
&des_4=はっぴー
&des_5=mai-Star
&inote_1=(160.0){1},,,,,
{1}1,
{1}1,
{1}8,
{1}8,
{1}1,
{1}1,
{1}2,
{1}2,
{1}3,
{1}3,
{1}4,
{1}4/5,
{1}5h[1:1],,
{1}6h[1:1],,
{1}7,
{1}7,
{1}8,
{1}8b,
{2}1,1,
{1}1,
{2}2,2,
{1}2,
{2}1,1,
{1}1,
{2}8,8,
{1}8/1,
{1}1-4[4:3],,
{1}8-5[4:3],,
{2}1,1,
{1}1,
{1}2b,
{1}2,
{1}3,
{1}3,
{1}4,
{1}4,
{1}5,
{1}5,
{1}6,,
{1}6,,
{1}7,,
{1}7,,
{1}8h[1:1],,
{1}1-4[4:3],,
{1}8h[1:1],,
{1}8-5[4:3],,
{1}1h[1:1],,
{2}1,1,
{1}1,
{2}2,2,
{1}2,
{2}3,3,
{1}3,
{1}2h[1:1],,
{1}1h[1:1],,
{2}8,8,
{1}8,
{2}7,7,
{1}7,
{1}1/8,
E
&inote_2=(160.0){1},,,,,
{2}1,1,
{1}8h[2:1],
{2}8,8,
{1}1h[2:1],
{2}2,2-6[4:3],{1},
{2}7,7,
{2}7/8,8/7,
{2}7,7-3[4:3],{1},
{2}2,2,
{2}2/1,2b/1b,
{1}2h[2:1],
{2}3,3,
{1}4-8[4:3],,
{1}7h[2:1],
{2}6,6,
{1}5-1[4:3],,
{4}3,3,3,,
{4}4,4,4,,
{4}5,5,5,,
{2}6/5,6/5,
{4}7,7,7,,
{4}6,6,6,,
{4}5,5,4,4,
{1}4/5,
{1}4-8[4:3],,
{1}1h[2:1],
{2}2/1,8/1,
{4}8/7,,1,1,
{2}1,8,
{1}7-4[4:3],,
{1}2-5[4:3],,
{2}7,7,
{1}8/7,
{2}2,2,
{1}1/2,
{1}1h[1:1],,
{1}3h[1:1],,
{1}5h[1:1],,
{1}7h[1:1],,
{1}8,
{1}8b/1b,
{1}1-5[4:3],,
{1}8-4[4:3],,
{1}2-7[4:3],,
{1}6-3[4:3],,
{4}2,2,2,,
{4}3,3,3,,
{4}4,4,4,,
{2}4/5,4/5,
{4}6,6,6,,
{4}7,7,7,,
{1}8h[1:1],,
{1}1h[1:1],,
{2}7,7,
{2}7/8,7/8,
{2}2,2,
{2}2/1,2/1,
{1}1b/8b,
E
&inote_3=(160.0){1},
{2}2/8,2/8,
{1}3h[2:1],
{2}7/1,7/1,
{1}6h[2:1],
{4}1,1,2,2,
{2}3/4,2/5,
{4}8,8,7,7,
{2}6/5,4/7,
{2}4,3/5,
{4}2,1,8,7,
{8}6h[8:3],,,5,5,,,,
{8}7h[8:3],,,8,8,,,,
{2}5,6/4,
{4}7,8,1,2,
{8}3h[8:3],,,4,4,,,,
{8}2h[8:3],,,1,1,,,,
{8}1h[8:3],,,8,8,,,,
{4}6,6,7,7,
{16}1/8,,,1/8,,,1/8,,1/8,,,,,,,,
{4}3,4,5,6,
{8}8h[8:3],,,1,1,,,,
{4}3,3,2,2,
{16}1/8,,,1/8,,,1/8,,1/8,,,,,,,,
{4}1b,5,6,7,
{4}8-4[4:1],,,1,
{4}2-5[4:1],,,7,
{4}6-3[4:1],,,4,
{4}4h[2:1]/5h[2:1],,,8,
{4}1-5[4:1],,,8,
{4}7-4[4:1],,,3,
{4}4,4,5,5,
{4}6h[2:1]/3h[2:1],,,3,
{4}3-8[4:1],,,6,
{4}6-1[4:1],,,4,
{4}4^1[4:1],,,8,
{4}7,6,6/5,3/4,
{4}1b/8b,,2,3,
{4}4,5,6,7,
{1}8h[1:1],,
{4}3,4,3,4,
{4}3,3,5,5,
{4}6,5,6,5,
{4}6,6,7,7,
{4}1,8,1,8,
{4}2,2,7,7,
{1}1h[1:1],,
{1}2h[1:1],,
{1}8z4[4:3],,
{1}1s5[4:3],,
{1}8h[1:1],
{4},3,2,1,
{1}8<4[4:3],,
{1}1h[1:1],
{4},6,7,8,
{1}1>5[4:3],,
{1}8h[1:1],
{4},,4,3,
{4}2/1,3,4,5,
{4}8/6,6,5,4,
{4}3/1,2,1,8,
{4}5/7,6,5,5/4,
{4}1b/8b,2,3,4,
{4}6/5,6,7,8,
{1}1h[1:1],,
{4}8/2,1,2/8,1,
{4}3,4,5,6,
{4}7/1,8,7/1,8,
{4}6,5,4,3,
{4}2/4,3,5/7,6,
{4}4/5,,1,8,
{1}7b/2b,
E
&inote_4=(160.0){1},
{16}8/7,,,7h[16:3]/8h[16:3],,,,,4/3,,,3h[16:3]/4h[16:3],,,,,
{2}2-5[8:1],8-3[8:1],
{16}1/2,,,1h[16:3]/2h[16:3],,,,,6/5,,,5h[16:3]/6h[16:3],,,,,
{2}7-4[8:1],1-6[8:1],
{16}7/8,,,1h[16:3]/6h[16:3],,,,,4/3,,,2h[16:3]/5h[16:3],,,,,
{2}6-4[8:1],2-8[8:1],
{16}1/2,,,3h[16:3]/8h[16:3],,,,,6/5,,,4h[16:3]/7h[16:3],,,,,
{2}3-5[8:1],7-1[8:1],
{8}2,2,,1/2,,6/5,,3,
{8}4,3,,8/7,,4/3,,6,
{8}5,6,,2/1,,5/6,,7,
{8}8,7,,2,2-6[8:1],,,,
{8}7,7,,8/7,,3/4,,6,
{8}5,6,,1/2,,6/5,,3,
{8}4,3,,8/7,,4/3,,2,
{8}1,2,,7,7-3[8:1],,,,
{16}1h[16:3],,,3h[16:3],,,2,,2,,4/3,,,,5/7,,
{8},6/5,,3/1,,4/3,,7,
{16}7h[16:3],,,8h[16:3],,,1,,2,,1/2,,,,4/3,,
{8},5/7,,2/4,1-6[8:1]/2-5[8:1],,,,
{16}8h[16:3],,,6h[16:3],,,7,,7,,6/5,,,,2/4,,
{8},3/4,,8/6,,5/6,,2,
{16}2h[16:3],,,8h[16:3],,,6,,6-2[8:1],,,,,,,,
{4}1b,7b,5b,3b,
{16}2h[16:3],,,1,,,3/4,,7h[16:3],,,8,,,5/6,,
{16}2h[16:3],,,1,,,6/5,,7h[16:3],,,8,,,3/4,,
{16}6h[16:3],,,5,,,3/4,,2h[16:3],,,1,,,8/7,,
{8}6/1,,3/8,,1,7,5,3,
{16}1h[16:3],,,2,,,4/3,,8h[16:3],,,7,,,6/5,,
{16}1h[16:3],,,2,,,6/5,,8h[16:3],,,7,,,4/3,,
{16}5h[16:3],,,6,,,4/3,,1h[16:3],,,2,,,1^4[4:1]/8^5[4:1],,
{4},,,7-3[8:1],
{16}1b,,,,,,,,8h[16:3],,,2h[16:3],,,4,,
{16}4b,,,,,,1,,1h[16:3],,,7h[16:3],,,5,,
{16}5b,,,,,,8,,8h[16:3],,,2h[16:3],,,4,,
{4}1-5[8:1],8-6[8:1],2-4[8:1],7-3[8:1],
{16},,,,,,,,1h[16:3],,,2h[16:3],,,3,,
{16}4,,,,6/5,,,,8h[16:3],,,7h[16:3],,,6,,
{1}5-1[2:1],
{8},1/2,,5/6,,7/8,,3/4,
{16}3/4,,,2h[16:3]/5h[16:3],,,,,6/5,,,4h[16:3]/7h[16:3],,,,,
{8},1/2,,5/6,,3/4,,7/8,
{16}8/7,,,6h[16:3]/1h[16:3],,,,,2/1,,,3h[16:3]/8h[16:3],,,,,
{8},5/6,,8/7,,3/4,,2/1,
{16}2/1,,,8h[16:3]/3h[16:3],,,,,6/5,,,4h[16:3]/7h[16:3],,,,,
{8},2/5,,8/3,,1/6,,7/4-1[2:1],{1},
{4},,,2h[4:1],
{1}1^6[2:1],
{4}3h[1:1],,4,5,
{1}6^1[2:1],
{4},,,2,
{4}1,,,7,
{2}8,3,
{1}4,
{4}8,2,4h[1:1],3-8[4:1],
{4},,5h[1:1],6-1[4:1],
{4},,4h[2:3],3>6[2:1],{1},
{4},7,5h[1:1],6q3[4:1],
{4},,4h[1:1],3p6[4:1],
{4},,5h[2:3],6q1[4:3],{1},
{2},4-1[8:1]/5-8[8:1],
{16}7h[16:3],,,8,,,6/1,,2h[16:3],,,1,,,3/8,,
{16}6h[16:3],,,5,,,4/7,,3h[16:3],,,4,,,2/5,,
{16}1h[16:3],,,2,,,8/3,,5h[16:3],,,6,,,4/7,,
{4}5/2,8/3,1/6,2-6[8:1],
{16}8b,,,,,,,,1h[16:3],,,7h[16:3],,,5,,
{16}5-1[8:1],,,,,,,,8h[16:3],,,2h[16:3],,,4-8[8:1],,
{1}3-7[2:1],
{8},6/8,,3/4,,1/3,,5/6,
{16}6,5,6,5,,,,,3,4,3,4,,,,,
{8},3/1,,6/5,,8/6,,4/3,
{16}3,4,3,4,,,,,6,5,6,5,,,,,
{8},2/4,,8/7,,5/7,,1/2,
{16}2,1,2,1,,,,,7,8,7,8,,,,,
{8}6,6,4,4,2,,8-4[8:1],,,,
E
&inote_5=(160.0){1},
{16}6,,5,6,,,7,,2,,4,3,,,1/8,,
{16}3,,5,,7,,,5h[16:3],,,2h[4:1],,,,8,,
{16}3,,4,3,,,2/7,,6,,5,6,,,2/7,,
{8}3,6,1,8,1h[4:1],,8b,,
{16}2,,1,2,,,3/6,,7,,8,7,,,3/6,,
{16}8,,2,,4,,,1h[16:3],,,6h[4:1],,,,4,,
{16}6,,5,7,,,8/1,,3,,4,2,,,1/8,,
{16}2/7,,,,1,,8,,1,8,1,8,1b,,,,
{8}2^5[4:1],1,8,7,6p3[4:1],,,,
{16},,2,,1,,8,,7,,,3,,,5,,
{8}2,3,,7,6,,4/5,,
{8}1,5,,4,8-4[8:1],,1b,,
{8}7^4[4:1],8,1,2,3q6[4:1],,,,
{16},,7,,8,,1,,2,,,6,,,4,,
{8}7,6,,2,3,,8/1,,
{8}3,8,,1,6v3[8:1],,2b,,
{8}1/8,,3,4,5,6,6,5,
{8}4,3,4,5,6,5,4,3/6,
{8}8/1,,7,8,1,2,2,1,
{8}8,7,8,1,2,1,8,2/7,
{8}6/3,,2,3/4,7,5/6,2,1/8,
{16}2,,3/4,,7,,6/5,,1,,,8,,,1/2,,
{16}8/4,,,3/6,,,7/8,,1-6[8:1]/5-2[8:1],,,,,,,,
{4}4b/8b,1/5,6/2,7/3,
{8}4/8,,8-4[8:1],8,2-6[8:1],2,,,
{8}7/5,,7-4[8:1],7,1-6[8:1],1,,,
{8}2/1,,7^2[4:1],6,5,4,3,2,
{8}2-6[8:1],,8-4[8:1],8,1-5[8:1],1,,,
{8}7/1,,8-3[8:1],8,2-5[8:1],2,,,
{8}1/3,,2v5[8:1],2,7v4[8:1],7,,,
{16}2h[16:3],,,3h[16:3],,,4,,5h[16:3],,,6h[16:3],,,7,,
{4},,1b/6b,3-8[8:1]/4-7[8:1],
{16},,,,1,6,2,5,3,4,3,4,3,,,,
{16}1/2,,,,8,3,7,4,6,5,6,5,6,,,,
{16}4/5,,,,8,1,7,2,8,1,7,2,8,1,7,2,
{4}8^3[4:1],3^6[4:1],6^1[4:1],1-5[8:1],
{16},,,,,,,,2h[2:1],,,3,,,4,,
{16}8,,,,7h[16:7],,,,6,,,5,,,8,,
{16}3,
{932}4,,,,,,,,,,,,,,,,,,,,,,,,,,,,,,,,,,,,,,,,,,,,,,,,,,,,,,,,,,,
{859}3,,,,,,,,,,,,,,,,,,,,,,,,,,,,,,,,,,,,,,,,,,,,,,,,,,,,,
{16}4,,2,7,,6,5,6,5,,7,2,,
{16}4,,2,,8,,5,6,,,3/4,,,,2/7,,
{16}3,5,3,5,,2,7,,6,4,6,4,,7,2,,
{16}5,,7,,1,8,1,8,1h[4:1],,,,8b,,,,
{16}2,1,2,1,,3,6,,7,8,7,8,,6,3,,
{16}1,,7,,3,,6,5,,,4/7,,,,2/1,,
{16}2,8,2,8,,3,6,,7,1,7,1,,6,3,,
{16}8/1,,,,4,5,4,5,3,6,3,6,3,,,,
{1}1b/8b,
{8},,,,,,6,7,
{1}8q3[2:1],
{4}3h[4:1],1h[4:1],
{16}7h[16:3],,,
{989}5,,,,,,,,,,,,,,,,,,,,,,,,,,,,,,,,,,,,,,,,,,,,,,,,,,,,,,,,,,,,,,,,,,,,,,,,,,,,,,,,,,,,,,,,,,,,,,,,,,,,,,,,,,,,,,,,,,,,,,,,,,,,,,,,,,,,,,,,,,,,,,,,,,,,,,,,,,,,,,,,,,,,,,,,,,,,,,,,,,,,,,,,,,,,,,,,,,,,,,,,,,,,,,
{643}4,,,,,,,,,,,,,,,,,,,,,,,,,,,,,,,,,,,,,,,,,,,,,,,,,,,,,,,,,,,,,,,,,,,
{643},,,,,,,,,,,,,,,,,,,,,,,,,,,,,,,,,,,,,,,,,,,,,,,,,,,,,,,,,,,,,,,,,,,5p2[16:11],,,,,,,,,,,,,,,,,,,,,,,,,,,,,,,,,,,,,,,,,,,,,,,,,,,,,,,,,,,,,,,,,,,,,,,,,,,,,,,,,,,,,,,,,,,,,,,,,,,,,,,,,,,,,,,,,,,,,,,,,,,,,,,,,,,,,,,,,,,,,,,,,,,,,,,,,,,,,,,,,,,,,,,,,,,,,,,,,,,,,,,,,,,,,,,,,,,,,,,,,,,,,,,,,,,,,,,,,,,,,,,,,,,,,,,,,,,,,,,,,,,,,,,,,,,,,,,,,,,,,,,,,,,,,,,,,,,,,,,,,,,,,,,,,,,,,,,,,,,,,,,,,,,,,,,,,,,,,,,,,,,,,,,,,,,,,,,,,,,,,,,,,,,,,,,,,,,,,,,,,,,,,,,,,,,,,,,,,,,,,,,,,,,,,,,,,,,,,,,,,,,,,,,,,,,,,,,,,,,,,,,,,,,,,,,,,,,,,,,,,,,,,,,,,,,,,,,,,,,,,,,,,,,,,,,,,,,,,,,,,,,,,,,,,,,,,,,,,,,,,,,,,,,,,,,,,,,,,,,,,,,,,,,,,,,,,,,,,,,,,,,,,,,,,,,,,,,,,,,,,,,,,,,,,,,,,,,,
{8},,,,,7h[8:3],,6,
{4}6q3[8:3],,,2^7[4:1],
{16},,,,,,,,2,,,1,,,8,,
{1}7<2[8:3],
{4}1/8,4/8,3/7,2/6,
{16}1/5,,,,,,8,,8h[16:9],,,,7,,,6,
{16},5h[16:15],,,,,3,,2,,,1,,,8,,
{1}7>3[8:3],
{4}1,7/8,6/5,3/4,
{8}2/1,,,1,1h[2:1],,2,3,
{16}4h[1:1],,,,,,6,,7,,,8,,,1,,
{1}2^5[8:3],
{8}8b,,,7h[4:1],,8,1,2,
{4}3-8[8:1],5-1[8:1],4-7[8:1],6b,
{4}6-1[8:1],4-8[8:1],5-2[8:1],3b,
{4}4-7[8:1],5-1[8:1],3-8[8:1],7^4[4:1],
{4}4^1[4:1],1^6[4:1],6^3[4:1],3-8[8:1],
{16}1b,,,,,,,,2/3,,,3/1,,,6/7,,
{16}6/8,,,,4/3,,,,6/5,,,2/7,,,1/8,,
{16}2,4,2,4,,3,6,,7,5,7,5,,6,3,,
{16}4,,2,,8,,5,6,,,4/3,,,,7/2,,
{16}3,1,3,1,,2,7,,6,8,6,8,,7,2,,
{16}5,,7,,1,3,1,3,1h[4:1],,,,8b,,,,
{16}2,1,3,1,,4,5,,7,8,6,8,,5,4,,
{16}3,,1/5,,7,,4,8,,,2/6,,,,4/8,,
{16}3,4,2,4,,1,8,,6,5,7,5,,8,1,,
{8}1/2,2/1,5/6,5/6,8/4,,2p6[8:1]/6p2[8:1],,,,
E
