&title=患部で止まってすぐ溶ける~狂気の優曇華院
&artist=ARM+夕野ヨシミ(IOSYS)feat. miko
&wholebpm=200
&demo_seek=20.2
&demo_len=20.3
&lv_1=2
&lv_2=4
&lv_3=8
&lv_4=10+
&lv_5=13+
&lv_6=14
&des_4=はっぴー
&des_5=Jack
&des_6=某S氏
&inote_1=(200.0){1},1,,
{1}2,,
{1}8,,
{1}7,,
{1}6,,
{1}5,,
{1}4,,
{1}3,
{1}2b,
{1}1-4[4:3],,
{1}5-8[4:3],,
{1}1,
{1}1,
{1}2,
{1}2,
{1}3,
{1}3,
{1}4,
{1}4,
{1}5,
{1}5,
{1}6,
{1}6,
{1}7h[1:1],,
{1}8h[1:1],,
{1}1,
{1}1,
{1}8,
{1}8,
{1}1-5[4:3],,
{1}6,
{1}7,
{1}7-3[4:3],,
{1}2,
{1}1,
{1}1,
{1}8,
{1}1,
{1}8,
{1}7,
{1}6,
{1}5,
{1}6,
{1}7b,
{1}8,
{1}1,
{1}2,
{1}2,
{1}3,
{1}4,
{1}4,
{2}5,5,{1},
{2}6,6,{1},
{2}7,7,{1},
{2}8,8,
{1}8b,
{1}1,
{1}2,
{1}3,
{1}4,
{1}5,
{1}6,
{1}7,
{1}8,
{2}1,1,
{1}1,
{2}8,8,
{1}8,
{2}1,1,
{1}1,
{2}2,2,
{1}2,
{1}1b,
E
&inote_2=(200.0){1},1,
{1}1,
{1}8,
{1}8,
{1}1,
{1}1,
{1}8,
{1}8,
{1}1,
{1}8,
{1}7,
{1}6,
{1}5,
{1}4,
{1}3h[2:1],
{2}2,2b,
{1}2,
{1}2,
{2}1,1,
{1}1/8,
{1}7,
{1}7,
{2}8,8,
{1}8/1,
{1}1,
{1}2/1,
{2}8,8,
{1}7/8,
{1}2/1,
{1}8/7,
{2}1,8,
{2}1/8,8/1,
{1}2-7[4:3],,
{1}6-3[4:3],,
{2}2,2,
{1}2,
{2}1,1,
{1}1,
{1}1-5[4:3],,
{1}6,
{1}7,
{1}7-3[4:3],,
{1}2,
{1}1,
{2}1,1,
{2}8,8,
{1}1h[2:3],,
{2}8,8,
{2}1,1,
{1}8h[2:3],,
{2}1,1,
{2}2,2,
{2}1,1,
{1}1h[2:1],
{2}8,8,
{2}7,7,
{2}8,8,
{1}8h[2:1],
{2}1,1,
{2}2,2,
{2}3,4,
{2}5,5/4,
{2}5,5,
{2}6,6,
{2}7,8,
{2}1,8/1,
{1}8h[2:1],
{1}7h[2:1],
{2}6,5,
{4}4,4,4,,
{1}4h[2:1],
{1}3h[2:1],
{2}2,1,
{4}8,8,8,,
{4}1,1,1,,
{4}8,8,8,,
{2}1,8,
{4}1,1,1,,
{4}8,8,8,,
{4}1,1,1,,
{2}8,1,
{4}8,8,8,,
{1}1b/8b,
E
&inote_3=(200.0){1},1-4[8:3],
{1}8-5[8:3],
{1}2-5[8:3],
{1}7-4[8:3],
{1}1-4[2:1],
{1}8-5[2:1],
{1}2-5[8:3],
{1}7-4[8:3],
{4}1,1,1,,
{4}8,8,8,,
{4}2,2,2,,
{4}7,7,7,,
{4}1,2,3,,
{4}8,7,6,,
{4}4/5,3/6,2/7,8/1,
{1}1b/8b,
{4}1,2,3,4,
{4}5,6,7,8,
{4}8,8,6,6,
{2}4,2b,
{4}8,7,6,5,
{4}4,3,2,1,
{4}8,8,1,1,
{2}7/8,1/2,
{4}2,2,2,4/2,
{4}7,7,7,5/7,
{4}3,5,6,4,
{2}4/5,3/6,
{4}2,4,7,5,
{4}1,4,8,5,
{4}1/8,1/8,1/8,8/1,
{1}1h[2:1]/8h[2:1],
{1}2q5[4:3],,
{1}7p4[4:3],,
{4}1,1,1,1,
{4}3,3,3,3,
{4}5,5,5,5,
{4}7,7,7,7,
{1}1-5[4:3],,
{1}6,
{1}7,
{1}7-3[4:3],,
{1}2,
{1}1,
{4}1,1,5,5,
{4}3,3,7,7,
{2}3/4,6/5,
{4}6/3,2/7,1b/8b,,
{4}8,8,4,4,
{4}6,6,2,2,
{2}2/1,7/8,
{1}1^4[2:1]/8^5[2:1],
{4}2,2,7,7,
{4}8/1,8/1,8/1,,
{2}8/1,2/7,
{4}2/1,1/2,1/2,,
{4}6,6,3,3,
{4}4/5,4/5,4/5,,
{2}3/6,5/4,
{4}6/5,5/6,4/3,3/4,
{4}1,1,2,3,
{4}8,8,7,6,
{4}3,4,5,5,
{4}6/5,6/5,6/5,,
{4}6,6,7,8,
{4}3,3,2,1,
{4}7,8,1,1,
{4}2/1,1/2,1b/2b,,
{1}8<1[4:3],,
{1}1>8[4:3],,
{1}1-5[8:3],
{1}8-4[8:3],
{2}1/5,7/3,
{4}5/1,2/6,3/7,8b/4b,
{4}3/4,3/4,3/4,3/4,
{4}6/5,5/6,6/5,6/5,
{2}5/3,4/6,
{4}3/4,4/5,5/6,,
{4}2/1,2/1,1/2,2/1,
{4}8/7,8/7,8/7,8/7,
{2}2/1,7/8,
{4}8/1,7/2,6/3,5/4,
{1}8b/1b,
E
&inote_4=(200.0){1},
{4}5,5,6/5,,
{8}4,,4,,3,3/4,,,
{4}4,4,3/4,,
{8}5,,5,,6,5,6/5,,
{4}4,4,4/3,,
{8}5,,5,,6,5/6,,,
{4}5,5,5/6,,
{8}4,,4,,3,4,4/3,,
{8}7,,5,,6,6/5,,,
{8}2,,4,,3,3/4,,,
{8}6,,8,,7,7/6,,,
{8}3,,1,,2,3,3/2,,
{8}7,,8,,7,7/8,,,
{8}2,,1,,2,1/2,,,
{4}3h[4:1],4h[4:1],5h[4:1],6h[4:1],
{4}7h[4:1],8h[4:1],1-5[8:1],,
{4}1/2,8/7,2/1,8/7,
{4}1/2,8/7,2/1,8/7,
{4}2/7,8/3,7/2,6/1,
{2}7h[4:1]/2h[4:1],2b/7b,
{4}4/5,6/5,5/4,3/4,
{4}4/5,6/5,5/4,4/3,
{4}1/2,8/7,2/1,8/7,
{2}2h[4:1]/8h[4:1],7h[4:1]/1h[4:1],
{4}1/8,8/7,8/1,1/2,
{4}1/8,7/8,8/1,2/1,
{8}4/5,5/4,5/4,,6/4,,5/3,,
{2}5h[4:1]/4h[4:1],7h[4:1]/2h[4:1],
{4}5/4,2/1,5/4,8/7,
{4}5/4,8/2,7/1,8/2,
{8}3/4,,6/5,,5/4,5/4,5/4,,
{4}7/2,6/3,8b/1b,,
{4}3h[4:1],2h[4:1],1h[4:1],8h[4:1],
{16}7h[4:1],,,,6,,,,5/6,,,6/5,,,6/5,,
{4}6h[4:1],7h[4:1],8h[4:1],1h[4:1],
{4}2h[4:1],3,3/4,6b/1b,
{4}7h[4:1],6h[4:1],5h[4:1],4h[4:1],
{8}2h[8:3],,,4h[8:3],,,5,,
{4}7h[4:1],8h[4:1],1h[4:1],2h[4:1],
{8}3h[8:3],,,1h[8:3],,,8b,,
{1}1-5[4:3],,
{1}6,
{1}7,
{1}7-3[4:3],,
{1}2,
{1}1,
{4}1/2,8/7,2/1,8/7,
{4}1/2,8/7,2/1,8/7,
{4}5h[4:1],4h[4:1],3h[4:1],4h[4:1],
{4}5h[4:1],6^3[4:1],,,
{4}1/2,6/5,2/1,6/5,
{4}7/8,4/3,8/7,4/3,
{2}1-5[8:1]/2-4[8:1],7-5[8:1]/8-4[8:1],
{1}1b/8b,
{4}5/6,4/3,6/4,5/3,
{4}7/4,5/2,3/8,6/1,
{4}8h[4:1],2h[4:1],4h[4:1],6h[4:1],
{4}8h[4:1],2^7[4:1],,,
{4}7/8,6/1,5/2,3/4,
{4}2/1,8/3,7/4,6/5,
{2}7-4[8:1]/8-4[8:1],1-5[8:1]/2-5[8:1],
{1}3b/6b,
{4}6/4,8/5,4/6,3/4,
{4}6/4,8/5,6/4,4/3,
{4}5/6,5/4,4/3,5/4,
{4}6/5,5/4,7/2,,
{4}5/3,4/1,3/5,5/6,
{4}3/5,1/4,3/5,5/6,
{4}2/7,5/8,3/6,1/4,
{1}7h[2:1]/2h[2:1],
{8}8/7,,1/6,,4/3,4/3,,2/1,
{8},8/3,3/8,,6/5,6/5,,,
{8}2/1,,3/8,,6/5,6/5,,8/7,
{8},6/1,1/6,,3/4,4/3,3/4,,
{8}2/1,,3/8,,6/5,6/5,,8/7,
{8},6/1,1/6,,4/3,3/4,,,
{8}8/7,,6/1,,3/4,3/4,,1/2,
{8},8/3,3/8,,6/5,5/6,6/5,,
{8}2/1,,6-4[8:1]/7-4[8:1],,,,,7/8,
{8},2/3,2-5[8:1]/3-5[8:1],,,,,,
{8}3/4,,6-1[8:1]/7-1[8:1],,,,,6/5,
{8},2/3,2-8[8:1]/3-8[8:1],,,,,,
{8}3/4,,1-7[8:1]/2-7[8:1],,,,,4/3,
{8},6/5,5-3[8:1]/6-3[8:1],,,,,,
{4}2/1,5/6,8/7,4/3,
{4}5/6,4/3,4-2[8:1]/5-7[8:1],,
{1}8b/1b,
E
&inote_5=(200.0){1},
{8}7/8,,1-5[8:1],8,7,6,,6/5,
{8},4/5,5/4,,7/6,7/8,,,
{8}1/2,,8-4[8:1],1,2,3,,4/3,
{16},,4/5,,5/4,,,,3,4,5,6,2b/7b,,,,
{8}5/6,,4-8[8:1],5,6,7,,8/7,
{8},4/5,5/4,,7/6,7/8,,,
{8}3/4,,5-1[8:1],4,3,2,,2/1,
{8},4/5,5/4,,2-7[8:1]/3-6[8:1],,2/3,,
{8}8,4,6,2,5,3,7,1^4[4:1],
{8},4^7[4:1],,7^2[4:1],,2-6[8:1],,,
{8}7,3,5,1,6,2,4,8^5[4:1],
{8},5^2[4:1],,2^7[4:1],,7-3[8:1],,,
{8}2,4,1,5,8,6,7,6^3[4:1],
{8},3^8[4:1],,8^5[4:1],,5-1[8:1],,,
{4}2-6[8:1],2/8-4[8:1],8/3-7[8:1],3/5-1[8:1],
{4}5/4-8[8:1],4/7-3[8:1],7/1-4[8:1],1b,
{8}7/5,6,6,6,2/4,3,3,3,
{8}5/4,6,6,6,4/5,3,3,3,
{8}1/2,2,8/2,2,2/7,2,2/6,2,
{4}2q7[8:1],2b,6q3[8:1],6b,
{2}1h[4:1]/4-8[8:1],8h[4:1]/5-1[8:1],
{2}1h[4:1]/3-8[8:1],8h[4:1]/6-1[8:1],
{16}7,8,7,,2,1,2,,7,8,7,,2,1,2,,
{2}1^4[8:1]/8^5[8:1],4-7[8:1]/5-2[8:1],
{8}2h[8:1],1,7h[8:1],8,1h[8:1],2,8h[8:1],7,
{8}3h[8:1],4,6h[8:1],5,4h[8:1],3,5h[8:1],6,
{8}5/4,4/5,5/4,4/5,5/6,,3/4,,
{2}4-7[8:1]/8-3[8:1],1-6[8:1]/5-2[8:1],
{8}1,1,8/2,,8,8,1/7,,
{16}3/6,,2/7,,1/8,,,,1/8,2/7,3/6,,4/5,,,,
{16}3,4,3,,6,5,6,,4,3,2,1,8,7,6,5,
{16}1,2,3,4,5,6,7,8,1^4[8:1],,5^8[8:1],,,,,,
{8}2,4,2,5,2,6,2,7,
{16}4,5,4,5,3,6,3,,7/2,,,6/3,,,8b/1b,,
{8}7,5,7,4,7,3,7,2,
{16}1,8,1,8,2,7,2,,3-8[8:1]/6-3[8:1],,,,6b/3b,,,,
{8}1^4[8:1],5,1^6[8:1],,,,4/8,,
{8}6/7h[8:5],,3,2-6[8:1],,2,,,
{8}6/7,,5/6,5/4,3/4,,2/3,,
{8}3/2h[8:5],,6,7-3[8:1],,7,,,
{1}1-5[4:3],,
{1}6,
{1}7,
{1}7-3[4:3],,
{1}2,
{1}1,
{4}1-5[8:1],7-3[8:1],4-8[8:1],6-2[8:1],
{4}3-7[8:1],5-1[8:1],2-6[8:1],,
{8}7,6,8/5,,3,2,4/1,,
{8}3,6,4,5,2/7,,,,
{4}8-4[8:1],2-6[8:1],5-1[8:1],3-7[8:1],
{4}6-2[8:1],4-8[8:1],7-3[8:1],,
{16}2/1,,2,,2/8,,2,,7/2h[8:3],,,6,,,5,,
{4}3/4,6/5,2b/1b,8b/7b,
{4}1-5[8:1],1/7-3[8:1],7/4-8[8:1],4/6-2[8:1],
{4}6/3-7[8:1],3/5-1[8:1],5/2-6[8:1],2,
{8}7,8,1,2,3,4,1/5,,
{8}8/4,3/7,2/6,5/1,4^7[8:1]/8^3[8:1],,,,
{4}8-4[8:1],8/2-6[8:1],2/5-1[8:1],5/3-7[8:1],
{8}3,,1/8,7/2,3/6,,,4>6[8:3],
{8},,,5-1[8:1],5h[8:3],,,8,
{4}8/7,2/1,6b/5b,3b/4b,
{4}1-5[8:1],1/7-3[8:1],7/4-8[8:1],4/6-2[8:1],
{8}6,,3,2,1/4,,,6h[8:3],
{8},7,8,,2h[4:1],3,4,,
{8}5/1,2/6,3/7,8/4,1^6[8:1]/5^2[8:1],,,,
{4}8-4[8:1],8/2-6[8:1],2/5-1[8:1],5/3-7[8:1],
{8}3,,6,7,5/8,,,5<3[8:3],
{8},,,4-8[8:1],4h[8:3],,,1,
{2}2p4[8:1],6p8[8:1],
{8}1-5[8:1],1,7-3[8:1],7,4-8[8:1],4,6-2[8:1],6,
{8}3-7[8:1],3,5-1[8:1],5,2-6[8:1],2,,,
{8}7,4,7,2/6,3,8,3,5/4,
{16}6,,1,,6,,7/3,,6,5,4,3,2b/7b,,,,
{8}8-4[8:1],8,2-6[8:1],2,5-1[8:1],5,3-7[8:1],3,
{8}6-2[8:1],6,4-8[8:1],4,7-3[8:1],7,,,
{8}2,1,2,3/7,6,5,6,4/5,
{8}3,4,3,2/6,3v1[8:1]/7v5[8:1],,,,
{8}2,8/3,7,6/2,7,4/6,3,4/5,
{8}6,7/1,2,3/6,5,1/6,2,8/3,
{8}7,4/8,3,7/2,3,7/4,6,4/5,
{16}3,,2/8,,7,,6/3,,5/4,3/6,7/2,8/1,7b/2b,,,,
{8}1/8,2/6,7/4,5/3,6/1,8/2,4/7,3/6,
{8}1/8,3/7,2/5,6/4,3/8,7/1,5/2,4/6,
{8}5h[4:1]/7h[4:1],,,,2h[4:1]/4h[4:1],,,1-4[4:1]/5-8[4:1],
{16},,5b/1b,,,,,,3/7,6/2,5/1,4/8,3/7,,,,
{1}1b/8b,
E
&inote_6=(200.0){1},
{8}1/7,,1/7,6,5/6,5/6,,1/7,
{8},1/7,7,6,4/5,4/5,,,
{8}2/8,,2/8,3,3/4,3/4,,2/8,
{16},,2/8,,2,,3,,4,5,4,5,4,,,,
{8}1/7,,1/7,6,5/6,5/6,,1/7,
{8},1/7,7,6,4/5,4/5,,,
{8}2/8,,2/8,3,3/4,3/4,,2/8,
{8},2/8,2,3,
{641}8,,,,,,,,,,,,,,,,,,,,
{639}7,,,,,,,,,,,,,,,,,,,,6,,,,,,,,,,,,,,,,,,,,
{641}5,,,,,,,,,,,,,,,,,,,,4,,,,,,,,,,,,,,,,,,,,
{639}3,,,,,,,,,,,,,,,,,,,,2,,,,,,,,,,,,,,,,,,,,
{641}1,,,,,,,,,,,,,,,,,,,,
{8}8b,,
{8}4,4,8,1,6,6,1>5[4:1],1,
{8}5<1[4:1],5,1^4[4:1],1,5,5,6,6,
{8}5,5,1,8,3,3,8<4[4:1],8,
{8}4>8[4:1],4,8^5[4:1],8,4,4,3,3,
{16}4,5,4,5,4,5,4,5,3,6,3,6,3,6,3,6,
{16}2,7,2,7,2,7,2,7,1,8,1,8,1,8,1,8,
{4}1bp5[8:1]*q5[8:1],1b^4[8:1]*^6[8:1],1bw5[8:1],1b,
{16}1b,2,3,4,8b,7,6,5,
{641}1b,,,,,,,,,,,,,,,,,,,,
{639}2,,,,,,,,,,,,,,,,,,,,3,,,,,,,,,,,,,,,,,,,,
{641}4,,,,,,,,,,,,,,,,,,,,5,,,,,,,,,,,,,,,,,,,,
{639}6,,,,,,,,,,,,,,,,,,,,7,,,,,,,,,,,,,,,,,,,,
{641}8,,,,,,,,,,,,,,,,,,,,
{8}1b/5b,,
{8}2/8,1,1/7,8,2/8,2,1/7,7,
{8}2/8,3,1/7,6,2/8,4,1/7,5,
{16}2,1,2,1,3,8,3,8,4,7,4,7,5,6,5,6,
{16}5-1[8:1],6,5,6b,,,,,4-8[8:1],3,4,3b,,,,,
{4}7h[8:1]/1h[8:3],3h[8:3],6h[8:3],8h[8:3],
{4}2h[8:3],4h[8:3],5h[8:3],7h[4:1],
{16}1,2,3,,8,7,6,,2,3,4,,7,6,5,,
{2}3bp7[8:1]/4b-7[8:1],5b-2[8:1]/6bq2[8:1],
{8}1-6[8:1],5,1-4[8:1],5,1-6[8:1],5,1-4[8:1],5,
{8}1-6[8:1],5,1-4[8:1],5,1-6[8:1],5,1,5,
{8}4/5,4/5,4/5,4/5,5b/6b,,3b/4b,,
{16}3,4,3,4,2b,,,,6,5,6,5,7b,,,,
{16}2,1,2,,4b/5b,,,,7,8,7,,4b/5b,,,,
{8}1/2,1/2,4b/5b,,4b/5b,,1/8,1/8,
{16}7b,6,5,4,3,2,1,8,2b,3,4,5,6,7,8,1,
{641}5b,,,,,,,,,,,,,,,,,,,,
{639}4,,,,,,,,,,,,,,,,,,,,3,,,,,,,,,,,,,,,,,,,,
{641}2,,,,,,,,,,,,,,,,,,,,1,,,,,,,,,,,,,,,,,,,,
{639}8,,,,,,,,,,,,,,,,,,,,7,,,,,,,,,,,,,,,,,,,,
{641}6,,,,,,,,,,,,,,,,,,,,5b-1[8:1],,,,,,,,,,,,,,,,,,,,
{639}4,,,,,,,,,,,,,,,,,,,,3,,,,,,,,,,,,,,,,,,,,
{641}2,,,,,,,,,,,,,,,,,,,,1,,,,,,,,,,,,,,,,,,,,
{639}8,,,,,,,,,,,,,,,,,,,,7,,,,,,,,,,,,,,,,,,,,
{641}6,,,,,,,,,,,,,,,,,,,,
{16}5b,,,,,,,,
{16}2,1,2,,7,8,7,,2,1,3,,7,8,6,,
{16}2,4,3,,7,5,6,,1b/2b,,,4b/5b,,,7b/8b,,
{16}6,5,6,,3,4,3,,7,5,6,,2,4,3,,
{16}8,5,6,,1,4,3,,1/8,2/7,3/6,,1b/8b,,,,
{8}4/5,,3h[8:1],2h[8:1],1-5[8:1],,8,,
{8}6h[4:1],,7,7h[4:1],,8,8h[4:1],,
{8}1,,5/6,4/7,3/8,,1/6,,
{8}2pp4[8:1],,2,8qq6[8:1],,8,1,,
{1}1-5[4:3],,
{1}6,
{1}7,
{1}7-3[4:3],,
{1}2,
{1}1,
{8}1/8,2,1/2,8,1/8,7,7/8,1,
{8}1/8,7,1/7,2,2/8,7,2/7,1,
{8}8,4,5,1,8,3,7,5h[4:1],
{16},,4,,5,,6,,4,5,4,5,4,,,,
{8}1/8,7,7/8,1,1/8,2,1/2,8,
{8}1/8,2,2/8,7,1/7,2,2/7,8,
{16}1,,5,,4,,8,,2b/7b,,,3b/6b,,,4b/5b,,
{16}3/4,,3/4,,5/6,,5/6,,4,5,4,5,4,5,4,5,
{8}4-8[8:1],4,5-1[8:1],5,3-8[8:1],3,6-1[8:1],6,
{8}4-8[8:1],4,5-1[8:1],5,3-8[8:1],3,6,6,
{8}7,8,1,2,3/7,6,5,4h[4:1],
{16},,3,,4,,5,,4,5,4,5,4,,,,
{8}5-1[8:1],5,4-8[8:1],4,6-1[8:1],6,3-8[8:1],3,
{8}5-1[8:1],5,4-8[8:1],4,6-1[8:1],6,3,3h[4:1],
{16},,2,,1,,8,,5b/7b,,,2b/4b,,,1b/8b,,
{16}4/5,,4/5,,3/6,,3/6,,1,8,1,8,1,8,1,8,
{8}1-5[8:1],1,2-6[8:1],2,3-7[8:1],3,4-8[8:1],4,
{8}5-1[8:1],5,6-2[8:1],6,7-3[8:1],7,8,8h[4:1],
{8},1,2,1,3/8,7,6,5h[4:1],
{16},,4,,5,,6,,4,5,4,5,4,,,,
{8}8-4[8:1],8,7-3[8:1],7,6-2[8:1],6,5-1[8:1],5,
{8}4-8[8:1],4,3-7[8:1],3,2-6[8:1],2,1,1h[4:1],
{16},,8,,1,,2,,2b/4b,,,5b/7b,,,1b/8b,,
{16}2,,2,,6,,6,,4,5,4,5,4,5,4,5,
{8}8-3[8:1],8,4-7[8:1],4,5-2[8:1],5,1-6[8:1],1,
{8}8-3[8:1],8,4-7[8:1],4,5-2[8:1],5,1,1^4[8:1],
{8},8,7,6,4/5,3,2,5^8[8:1],
{16},,4,,3,,2,,1,8,1,8,1,,,,
{8}2/1-6[8:1],1,5-2[8:1],5,4-7[8:1],4,8-3[8:1],8,
{8}1-6[8:1],1,5-2[8:1],5,4-7[8:1],4,8,8h[4:1],
{16},,1,,2/7,,3/6,,4b/5b,,,1b/6b,,,3b/8b,,
{16}2,,2,,7,,7,,1,8,7,6,5,4,3,2,
{8}1/8-4[8:1],7,8/1-5[8:1],2,1/8-4[8:1],7,8/1-5[8:1],2,
{8}1/8-4[8:1],7,8/1-5[8:1],2,1/8-4[8:1],7,1/8,2^5[8:1],
{8},1,8,7,6^1[8:1],5,4,3^6[8:1],
{16},,1,,8,,7,,4,5,4,5,4,,,,
{8}8b/1-5[8:1],2,1b/8-4[8:1],7,8b/1-5[8:1],2,1b/8-4[8:1],7,
{8}8b/1-5[8:1],2,1b/8-4[8:1],7,8b/1-5[8:1],2,1b/8,7^4[8:1],
{8},8,1,2,3,4,5,6,
{16}1,8,1,8,2,7,2,7,
{641}3,,,,,,,,,,,,,,,,,,,,
{639}4,,,,,,,,,,,,,,,,,,,,5,,,,,,,,,,,,,,,,,,,,
{641}6,,,,,,,,,,,,,,,,,,,,7,,,,,,,,,,,,,,,,,,,,
{639}8,,,,,,,,,,,,,,,,,,,,1,,,,,,,,,,,,,,,,,,,,
{641}2,,,,,,,,,,,,,,,,,,,,
{4}3-6[8:1]/7-2[8:1],
{8}3b/7b,,
E
