&title=二息歩行
&artist=DECO*27
&wholebpm=180
&demo_seek=46.56
&demo_len=11.24
&lv_1=3
&lv_2=3
&lv_3=7+
&lv_4=10
&lv_5=13
&des_4=mai-Star
&des_5=ロシェ@ペンギン
&inote_1=(180.0){1},1,
{1}1,
{1}8,
{1}8,
{1}1,
{1}8,
{1}8,
{1}1,
{1}1-5[8:9],,,,
{1}6,,
{1}5,,
{1}4,,
{1}3,,
{1}2,,
{1}1,
{2}1,1,
{1}1h[1:1],,
{1}8h[1:1],,
{1}7h[1:1],,
{1}8,
{1}8,
{1}8-4[8:9],,
{1}3b,
{1}3,
{1}4,
{1}4,
{1}5,
{1}5,
{1}6,
{1}6,
{1}7b,,
{1}8,
{1}8,
{1}7,
{1}7,
{1}8,
{1}8,
{1}1,
{1}1,
{1}2h[1:1],,
{1}1h[1:1],,
{1}8h[1:1],,
{1}7h[1:1],,
{1}8,
{1}8,
{1}1-5[8:9],,
{2}4b,4,
{2}3,3,
{2}2,2,
{2}1,1,
{2}8,8,
{2}7,7,
{2}6,6,
{2}5,5,
{1}4/5,
{2}3,3,
{1}3,
{2}2,2,
{1}2,
{2}1,1,
{1}1,
{2}8,8,
{1}8b,
E
&inote_2=(180.0){1},
{4}1,,,2,
{4}2,,,3,
{4}3,,,4,
{1}4,
{4}5/4,,,6,
{4}6,,,7,
{4}7,,,8,
{1}8,
{1}1/8,
{1}2,
{1}1,
{1}8,
{1}1-5[4:3],,
{1}8-4[4:3],,
{2}1,1,
{1}8,
{2}8,8,
{1}7,
{2}7,7,
{1}6,
{2}6,6,
{1}5,
{1}4h[2:1],
{1}3h[2:1],
{1}4h[2:1],
{2}4/5,5/4,
{1}5h[2:1],
{1}6h[2:1],
{1}5-8[4:3],,
{1}1h[1:1],,
{2}1,2,
{2}3,3,
{2}3,4,
{2}5,5,
{2}5,6,
{2}7,7,
{2}7,8,
{2}1,1,
{1}1b/8b,,
{1}1,
{1}1,
{1}8,
{1}8,
{1}7,
{1}7,
{1}6h[1:1],,
{1}5h[1:1],,
{1}4h[1:1],,
{2}3,3,
{1}3,
{2}2,2,
{1}2,
{1}1h[1:1]/2h[1:1],,
{1}8h[1:1]/7h[1:1],,
{4}6,6,6,,
{4}5,5,5,,
{4}4,4,4,,
{4}3,3,3,,
{4}2,2,2,,
{4}1,1,1,,
{4}8,8,8,,
{4}7,7,7,,
{1}6h[2:1],
{2}5,4,
{1}3h[2:1],
{2}4,5,
{2}6,6,
{2}7,7,
{2}8,8,
{2}1,
{1}1-4[4:3],,
E
&inote_3=(180.0){1},
{4}2,,,2,
{1}2h[4:3],
{1}1h[4:3],
{4}8h[2:1],,,7,
{1}7h[4:3],
{1}8h[4:3],
{1}1h[4:3],
{4}2,,3,4,
{4}5,6,7,8,
{4}1,2,3,4,
{4}5,4,3,2,
{4}1,8,7,6,
{1}5-8[2:1],
{1}1-4[2:1],
{1}3-7[2:1],
{1}6-2[2:1],
{4}4,3,2,,
{4}5,6,7,,
{4}2,1,8,7,
{4}3,4,5,6,
{4}1,2,3,,
{4}8,7,6,,
{4}3,2,1,8,
{4}6,7,8,1,
{1}8-5[2:1],
{1}4-1[2:1],
{1}6-1[2:1],
{1}2-5[2:1],
{1}8^5[2:1],
{1}4^1[2:1],
{4}8h[4:7],1,,1,
{4},1,,1,
{1}8h[1:1],
{4},1b,1b,1b,
{2}1/8,8/1,
{4}1,3,5,7,
{2}8/1,8/1,
{4}8,6,4,2,
{2}8/1,8/1,
{4}3,4,5,6,
{2}8/1,8/1,
{4}8/7,7/8,1/2,1/2,
{1}1^4[1:1]/8^5[1:1],,
{1}1/2,
{1}1/2,
{1}7/8,
{4}7/8,,1,1,
{4}1,,8,8,
{4}8,,1,8,
{4}2,7,1,8,
{1}2b/7b,
{1}1h[4:3],
{4}8,7,6,,
{1}8h[4:3],
{4}1,2,3,,
{2}4h[4:1],5/3,
{2}5h[4:1],4/6,
{2}4/8,3/7,
{2}2/6,5/1,
{4}1,2,3,4,
{4}5,6,7,8,
{4}1,3,5,7,
{4},1b,8b,1b,
{2}1/8,7/2,
{4}2/1,1/2,7/8,7/8,
{2}2/7,1/8,
{4}3/4,3/4,5/6,5/6,
{2}4/5,7/2,
{4}3/4,5/4,5/6,5/4,
{2}2/7,5/4,
{4}6/5,4/5,4/3,4/5,
{2}1/2,7/8,
{4}1/8,2-4[4:1]/7-5[4:1],,,
{2}8/7,1/2,
{4}2/7,1-3[4:1]/8-6[4:1],,,
{1}1h[2:1],
{4}1,1,3,3,
{4}5,5,7,7,
{4}8,1,
{8}2^7[8:5],,,,,,,,
E
&inote_4=(180.0){1},
{4}1/8,,,5/1s5[2:1],
{4},,,4/8z4[2:1],
{4},,,1p4[8:3],
{4},8q5[8:3],,3q6[2:1],
{4},,,7s3[2:1],
{4},,,1-4[8:3],
{4},,,1-7[4:1],
{2},6-3[4:1],
{4}1,1,2,2,
{4}3,3,4,4,
{4}8,8,7,7,
{8}6,,6,,5,4,5,4,
{4}5,6,7,8,
{4}4,3,2,1,
{4}1,8,3,5,
{8}7,,2,,8,1,7,2,
{4}5,5/1,5/1,6/2,
{4}6/2,2-7[4:1]/6-3[4:1],,,
{4}6,4,5,3,
{4}4,2q7[4:1],,,
{4}5,5,4,4,
{4}5,5-8[4:1],,,
{4}1,2,8,7,
{4}3,4,6,5/4,
{2}5/4,4/3,
{2}5/4,5/6,
{4}7/2,,1/8,8/1p4[4:1],
{4},8q5[4:1],,2-6[4:1],
{2}7,1,
{2}2h[2:1],8,
{8}1,1,8,8,,1,8,1,
{8},7,2,7,,,5/4,,
{8}8/1,,3,7,,1,5,1,
{4},1b/3b,5b/7b,6b/2b,
{4}3,5/1,7,5/1,
{4}1/8,1/8,4/5,4/5,
{4}8,2/6,4,6/2,
{4}4/5,4/5,8/1,1/8,
{4}2,5/6,7,3/4,
{4}6/5,6/5,4/3,4/3,
{4}6,1/2,3,7/8,
{4}1/2,2/1,7/8,7/8,
{8}2,2h[4:1],,3,,7,6,5,
{8},1,,1,8b,,,,
{8}1,1,2h[4:1],,,,8,8,
{8}7h[4:1],,,,2,2,1h[4:1],,
{4},5/6,3/4,,
{8}6,5,4,,1,1,1-5[8:1],,
{4},,5/3,8-4[8:1],
{4},,1-5[8:1],8-4[8:1],
{4}2-5[8:1],,8,8z4[8:3],{1},
{8}8^5[4:1],,,,1,1,2,,
{8}8,8,1,1,,,1,,
{8}1^4[4:1],,,,8,8,7,,
{8}1,1,2,2,,,8,,
{2}2/7,1-3[8:1]/7-5[8:1],
{2},3-5[8:1]/7-1[8:1],
{4},,1^4[4:1],5^8[4:1],
{4},,3/4,6/5,
{8}2,1,8,7,,8,1,2,
{8},6,,6,,3,4,,
{4}1/5,2/6,3/7,8/4,
{4},8b/7b,5b/6b,3b/4b,
{8}1/8,,,6/4,5/3,,,8,
{4}8-4[8:1],1,1-5[8:1],,
{8}8,,,6/3,4/5,,,1,
{4}1-5[8:1],7,7-3[8:1],,
{8}1,,,3/5,6/4,,,7,
{4}7-4[8:1],3,3-8[8:1],,
{8}6,,,1/8,2/7,,,2,
{4}2-6[8:1],8-4[8:1],1-5[8:1],,
{2}8-5[8:1],4-1[8:1],
{8}8,8,7,7,6,6,5b,,
{2}4-1[8:1],8-5[8:1],
{8}1,1,2,2,3,3,4b,,
{2}1-4[8:1]/7-4[8:1],2-5[8:1]/8-5[8:1],
{8}4,5,4,5,3,6,3,,
{4}1/2,5/6,3/4,7/8,
{4}5/4,8/1,
{1}7>5[4:3],,
E
&inote_5=(180.0){1},
{8}1/8h[4:3],,2,2,2,,4h[4:1],,
{4}6h[4:1],2h[4:1],3h[4:1],8,
{8}6h[2:1],,5,5,5,,4h[1:1],,
{4}5,6,7,8,
{1}6v8[2:1]/8<4[2:1],
{1}2-5[2:1]/8-5[2:1],
{4}4^7[4:1],7^2[4:1],2^5[4:1],,
{4}7-2[16:5],,,3/6,
{8}2,2,2/1,2,2,2,2/6,2,
{8}1-6[8:1],5,,5,
{993}8-3[8:1],,,,,,,,,,,,,,,,,,,,,,,,,,,,,,,,,,,,,,,,,,,,,,,,,,,,,,,,,,,,,,,,,,,,,,,,,,,,,,,,,,,,,,,,,,,,,,,,,,,,,,,,,,,,,,,,,,,,,,,,,,,,
{8}5,,5,
{8}7,7,7/8,7,7,7,3/7,7,
{8}8-3[8:1],4,,4,1-6[8:1],4,,4,
{8}2,2,2/1,2,3,3,3/6,3,
{8}1-6[8:1],5,,5,8-3[8:1],4,,4,
{8}7,7,7/8,7,6,6,6/3,6,
{8}8-3[8:1],4,,4,1-6[8:1],5,,5,
{8}1h[4:1],,5h[4:1],,2h[4:1],,6,6,
{8}1/8,,2p6[4:1]/7q3[4:1],,,,,2,
{4}2h[4:1],7,1-4[8:1]/8-5[8:1],,
{8}4h[4:1],,5h[4:1],,1h[4:1],,8,8,
{8}4h[4:1],,7h[4:1],,6h[4:1],,8,8,
{8}2^4[8:1],,7^5[8:1],,,,,3,
{4}3,2,6/1h[4:1],7,
{4}8/1h[4:1],7,6/1h[4:1],5-8[2:1],
{2},1,
{4}1,,7,2h[2:1],
{4},1-5[4:1],2-4[4:1],,
{4}6/3,2v3[4:1]/7v6[4:1],,,
{4}8-5[8:1],2-5[8:1],8v2[8:1],,
{4}3-6[4:1],6^3[4:1],7,2>1[4:3],{1},
{2}6h[4:3]/2-5[8:1],5-8[8:1],
{8}1/7h[8:7],,1,8,,6,6,8,
{4},6/2^7[8:1],4-8[8:1],2b,
{8}8/1-6[8:1],7,,7,1/8-3[8:1],2,,2,
{4}3/5,5/7,7/1,1/3,
{8}8/1-6[8:1],7,,7,1/8-3[8:1],2,,2,
{2}1-3[8:1]/8-6[8:1],2-4[8:1]/7-5[8:1],
{8}5/4-7[8:1],6,,6,4/5-2[8:1],3,,3,
{4}1/3,1/7,5/7,3/5,
{8}5/4-7[8:1],6,,6,4/5-2[8:1],3,,3,
{4}1/8-5[8:1],8/1-4[8:1],1/8-5[8:1],8/1-4[8:1],
{8}6,7,,7,,7,5,8h[4:1],
{16},,6,,,,6,,4,5,4,5,6b/3b,,,,
{8}1,2,3^6[8:1],,,,7/4,8,
{8}1h[4:1],,2,,3,4,2/5^8[8:1],,
{8},,1,2,3,,7/4,,
{8}5,6,7h[4:1],,8,1,2/5,,
{4}3h[2:1],,1v3[4:1],2-6[4:1],
{4},,7-5[8:1],2-6[8:1],
{4}8-4[8:1],2-5[8:1],7-4[8:1],1s5[4:1],
{8},,,,2,1,2-7[2:1],,
{8}2,,5,4h[4:1],,,5-8[2:1],,
{8}5,,3,2h[4:1],,,3-6[2:1],,
{8}3,,8,1h[4:1],,,8-5[2:1],,
{8}8,,1,1,,,3,3,
{8}8h[4:3],,,6,5,4,3,2/1h[8:7],
{8},,,3,4,5,6,8/7,
{8},,,4,5,,4,,
{2}7h[4:1]/2h[4:1],8h[4:1]/5h[4:1],
{1}3q7[2:1]/7q3[2:1],
{1}2q6[2:1]/6q2[2:1],
{1}6h[1:1]/2h[1:1],
{16},,,,3,2,1,8,1b,2,3,4,5,6,7,,
{8}1/2-7[8:1],8,,8,2/1-4[8:1],3,,3,
{4}4/6,6/8,8/2,4/2,
{8}1/2-7[8:1],8,,8,2/1-4[8:1],3,,3,
{4}8-2[8:1],3-7[8:1],6-4[8:1],,
{8}5/6-3[8:1],4,,4,6/5-8[8:1],7,,7,
{4}2/4,8/2,8/6,4/6,
{8}5/6-3[8:1],4,,4,6/5-8[8:1],7,,7,
{4}1/8-5[8:1],8/1-4[8:1],1/8-5[8:1],1/8,
{8}3/2,2,2/1,2,3/2,2,1/2,2,
{4}3/2h[4:3],5,7,1b,
{8}6/7,7,8/7,7,7/6,7,8/7,7,
{4}6/7h[4:3],4,2,8b,
{8}3/2,2,2/4,2,2/5,2,6b/2,2,
{8}6/7,7,5/7,7,4/7,7,3b/7,7,
{4}8^5[4:1],5^2[4:1],2^7[4:1],7-3[4:1],
{4}3-8[4:1],8-5[4:1],
{1}5-1[4:3],,
E
