&title=リリリリ★バーニングナイト
&artist=samfree
&wholebpm=165
&demo_seek=50.8
&demo_len=13.5
&lv_1=2
&lv_2=6
&lv_3=8
&lv_4=9+
&lv_5=10+
&des_4=はっぴー
&des_5=Jack
&inote_1=(165.0){1},,,,,,,,,
{2}1,1-4[4:3],{1},
{1}8,
{1}8,
{1}7,
{1}7,
{1}6,
{1}6,
{1}5,
{1}5h[2:1],
{1}4,
{1}4,
{1}5,
{1}5h[2:1],
{1}6,
{1}6,
{1}7,
{1}7h[2:1],
{1}8-5[4:3],,
{1}1-4[4:3],,
{1}8,
{1}1,
{1}1/8,
{1}1/8,
{1}1b,
{2}1,1,
{1}8,
{1}7,
{1}8,
{2}8,8,
{1}1,
{1}2,
{1}1h[2:1],
{1}2,
{1}3,
{1}4,
{1}5,
{1}6,
{1}7,
{1}8h[1:1],,
{2}1,1,
{1}8h[2:1],
{2}8,8,
{1}7,
{2}8,8,
{1}1h[2:1],
{2}1,1,
{1}2,
{2}2,2,
{1}3,
{2}3,3,
{1}4,
{2}4,4,
{1}5,
{1}4h[1:1],,
{1}5h[1:1],,
{1}4-1[4:3],,
{1}5-8[4:3],,
{1}4,
{1}5,
{1}6,
{1}7,
{1}8,
{8}1,1,
E
&inote_2=(165.0){1},,,,,
{4},3,,3,
{4},6,,6,
{4},1/8,,3/6,
{4},1,1,,
{2}1,1,
{1}1-4[2:1],
{4}5,4,5,,
{2}7,2,
{2}7/1,8/2,
{2}7/1,8/2,
{2}1,8,
{1}7/2,
{2}7/2,7/2,
{2}1/8,6/3,
{1}4h[2:1]/5h[2:1],
{1}2h[2:1],
{2}1/8,1/8,
{2}2,7,
{4}2,2,2,,
{2}1,1,
{2}3/4,4/3,
{2}3,6,
{1}5-8[2:1],
{1}4-1[2:1],
{1}5-8[2:1],
{1}4-1[2:1],
{4},6/4,,4/6,
{4},3/5,,3/5,
{4},6/3,,6/3,
{4},6^1[2:1],,,{1},
{4}1,1,1,,
{2}1,1/6,
{2}4,5,
{1}1-4[2:1]/8-5[2:1],
{4}1,1,1,,
{2}1,1/6,
{2}4,5,
{1}1-4[2:1]/8-5[2:1],
{4}5,4,4,,
{2}2,2,
{4}4,5,5,,
{2}6,6,
{2}8,1,
{1}2,
{4}1,,,1,
{2},1b,
{4}1,1,1,,
{2}1,1/6,
{2}4,5,
{1}1-4[2:1]/8-5[2:1],
{4}1,1,1,,
{2}1,6/1,
{2}4,5,
{1}1-4[2:1]/8-5[2:1],
{4}5,4,4,,
{2}2,2,
{4}4,5,5,,
{2}6,6,
{2}8,1,
{1}2,
{4}1,,,1,
{2},1b,
{4}1,,,1,
{2},2b,
{4}5,4,5,,
{2}7,2,
{2}1/7,8/2,
{2}7/1,8/2,
{2}1,8,
{1}7/2,
{2}7/2,7/2,
{2}8/1,6/3,
{2}5,4,
{1}2b,
E
&inote_3=(165.0){1},1h[1:1],
{1}8h[1:1],
{1}2h[1:1],
{1}7h[2:1],
{4}3,3,6,6,
{4}4,4,5,5,
{4}4,3,2,1,
{4}5,6,7,8,
{2}1-4[8:1],8-5[8:1],
{4}2,7,4/5,1b,
{4}1,1,5,5,
{4}3,3,7,7,
{4}8,8,4,4,
{4}6,6,2,2,
{4}4,5/3,4,3/5,
{4}5,4/6,5,4/6,
{4}4,2/6,8,6/2,
{4}7,5,3,1b,
{4}6,5h[2:1],,,
{4}3,4h[2:1],,,
{4}6/3,4h[2:1]/5h[2:1],,,
{4}1/8,2/7,6/3,4b/5b,
{4}2,4h[2:1],,,
{4}7,5h[2:1],,,
{4}4/5,3h[2:1]/6h[2:1],,,
{4}5/4,3/6,7/2,8b/1b,
{1}2^5[8:3],
{1}7^4[8:3],
{1}2v5[8:3],
{1}7v4[8:3],
{1}1h[2:1],
{1}8h[2:1],
{4}3/4,3/4,3/4,2/5,
{4}5/6,5/6,6/5,7/4,
{4}7/2,,1b,1b,
{4}2h[4:1],4,7h[4:1],5,
{4}1/8,1/8,2/7,,
{4}1,2,3,4,
{4}5,6,7,8,
{4}2h[4:1],4,7h[4:1],5,
{4}1/8,8/1,2/7,,
{4}4,5,2,7,
{4}3,6,1,8b,
{4}1/2,8/1,7/8,,
{4}7/3,6/2,5/1,,
{4}3/4,4/5,5/6,,
{4}2/6,7/3,8/4,,
{2}1-4[8:1],8-5[8:1],
{2}1^3[8:1],8^6[8:1],
{4}2h[8:3],,,7h[8:3],
{4},,1/8,8b/1b,
{4}1/5,2/6,3/7,4/8,
{4}2/5,3/4,1b/6b,,
{4}6,4,5,3,
{4}6,4,5,3,
{4}8/4,7/3,6/2,5/1,
{4}7/4,5/6,3b/8b,,
{4}2,8,1,7,
{4}1,8,2,7b,
{4}1,7/3,1,,
{4}8,2/6,8,,
{4}2/1,2/1,4/3,3/4,
{4}5/6,5/6,7/8,7/8,
{2}1-5[8:1],8-4[8:1],
{2}2-5[8:1],7-4[8:1],
{4}2h[8:3],,,8h[8:3],
{4},,7/3,4/6,
{4}6h[8:3],,,1h[8:3],
{4},,5/2,3/4,
{1}7^4[4:3]/8^3[4:3],,
{4}3,3/4,6,6/5,
{4}2,4/3,7,5/6,
{4}3,4,3,4,
{4}6,5,6,5,
{2}4-1[8:1],5-8[8:1],
{2}4^2[8:1],5^7[8:1],
{769},
{385}1h[1923:959],,,,,,,,,,,,,,,,,,,,,,,,,,,,,,,,,,,,,,,,,,,,,,,,,,,,,,,,,,,,,,,,,,,,,,,,,,,,,,,,,,,,,,,,,,,,,,,,,,,,,,,,,,,,,,,,,,,,,,,,,,,,,,,,,,,,,,,,,,,,,,,,,,,,,,,,,,,,,,,,,,,,,,,,,,,,,,,,,,,,,,,,,,,,,,,,
{4}8,8,
{8}2b,2b,
E
&inote_4=(165.0){1},,,
{1}3<8[2:1],
{1}2h[2:1],
{4}5/6h[4:3],2,5,2,
{4}4/3h[4:3],7,4,7,
{4}1,1^3[4:1]/8^6[4:1],,,
{4}2/5,4,7/4,5,
{8}1,,,,1,,,2,
{4},1-4[8:1],,2b,
{4}1/6h[4:1],5,4/5,8/1,
{4}8/3,1/6,4,2,
{4}1/6,8/3,1/6,8/3,
{8}1/7,8/2,1/7,,8b/3b,,,,
{4}1/7h[4:1],2h[2:1],8,7,
{1}6/3q6[2:1],
{4}2/7,8/1,7/2,8/1,
{4}4/5,1^4[4:1]/8^5[4:1],,,
{4}4/6h[4:7],5,4,5,
{4}2,1,2,1,
{4}2/7,4/5,1/8,3/6,
{4}6/1,3/7,2h[4:1],8,
{1}2q3[2:1],
{4}2h[4:3],3,1,3,
{4}2^5[4:1],,1,6,
{4}2/6h[4:1],7,8b/1b,,
{4}4-8[4:1]/5-7[4:1],,,4/3,
{4}4-2[4:1]/5-1[4:1],,,5/6,
{4}4-8[4:1]/5-7[4:1],,,4/3,
{4}4-2[4:1]/5-1[4:1],,,5/4,
{4}2/6h[4:3],5,2,5,
{4}7/3h[4:3],4,7,4,
{8}7/5,,,4/5,,,
{4}5/2>1[4:3],{1},
{2}2-8[8:1],1b,
{4}1/5h[2:1],1,1,3v4[4:1]/6v5[4:1],
{2},1b/6b,
{4}6/5,2,3/4,7,
{1}1-4[4:1]/8-5[4:1],
{4}1/5h[2:1],1,1,3v4[4:1]/6v5[4:1],
{2},1b/6b,
{4}5/6,2,3/4,7,
{1}1-4[4:1]/8-5[4:1],
{4}4/7,5,3h[4:5],4,
{8}2,,4,,2,1,1,,
{4}2/5,4,6h[4:5],5,
{8}7,,5,,7,8,8,,
{2}8^3[8:1],1^6[8:1],
{2}1h[8:3],1b,
{8}2,1,,2,1,,2,1,
{8},2,1,,1b,,,,
{4}1/5h[2:1],1,1,3v4[4:1]/6v5[4:1],
{2},6b/1b,
{4}5/6,2,3/4,7,
{1}1-4[4:1]/8-5[4:1],
{4}1/5h[2:1],1,1,3v4[4:1]/6v5[4:1],
{2},1b/6b,
{4}5/6,2,3/4,7,
{1}1-4[4:1]/8-5[4:1],
{4}4/7,5,3h[4:5],4,
{8}2,,4,,2,1,1,,
{4}5/2,4,6h[4:5],5,
{8}7,,5,,7,8,8,,
{2}8^3[8:1],1^6[8:1],
{2}1h[8:3],1b,
{8}2,1,,2,1,,2,1,
{8},2,1,,1b,,,,
{8}2,1,,2,1,,2,1,
{8},2,1,,1b,,1b,,
{4}1/6h[4:1],5,5/4,8/1,
{4}3/8,6/1,4,2,
{4}6/1,3/8,6/1,8/3,
{8}7/1,2/8,7/1,,3b/8b,,,,
{4}1/7h[4:1],2h[2:1],8,7,
{1}6/3q6[2:1],
{4}7/2,1/8,7/2,1/8,
{4}5/4,1^4[4:1]/8^5[4:1],,,
{4}3h[4:1],5h[4:1],6-2[8:1],,
{1}1b,
E
&inote_5=(165.0){1},
{8}7h[4:1],,6h[8:3],,,5h[8:3],,,
{8}4h[8:3],,,3h[4:1],,2,1,2,
{8},7,8,7,,,4,3,
{8},5,6,,4,5,2,7,
{8}3h[4:1],1,8,,7,1,,,
{8}6h[4:1],8,1,,2,8,,,
{8}3h[4:1],4,5,,6,3,,,
{4}4/5,6/7,3/2,1/8,
{8}2-5[8:1],6,,,7-4[8:1],3,,1h[8:3],
{4},4-8[8:1],5-1[8:1],8b,
{8}7h[8:3],5,,1,2h[8:3],4,,8,
{8},6,3,5,4,1,,,
{8}2h[8:3],4,,8,7h[8:3],5,,1,
{8},3,6,4,5,8,,,
{8}6h[8:3],8,,2,3h[8:3],1,,7,
{8},6,5,4,3,8,,,
{8}3h[8:3],1,,7,6h[8:3],8,,2,
{8},3,4,5,6,1,8b,,
{8}7h[8:3],4,,8,,5,3,1,
{8}2h[8:3],5,,1,,4,6,8,
{8}7,2,,1/8,,2,7,3,
{8}6q4[16:3],,,3p5[16:3],,,8,,
{8}2h[8:3],4,,1,,4,6,8,
{8}7h[8:3],5,,8,,5,3,1,
{8}2,7,,6/3,,1,2,3,
{8}4p5[16:3],,,6<3[16:5],,,,,
{4}5h[4:1],4h[4:1],3h[4:1],1,
{4}4h[4:1],5h[4:1],6h[4:1],8,
{4}7h[4:1],5h[4:1],3h[4:1],1,
{4}2h[4:1],4h[4:1],6h[4:1],8,
{8}6h[2:1],,,5,5,,1,,
{8}3h[2:1],,,4,4,,8,,
{8}7/2,,6,4/6,,3,5/3,,
{8}2,8/2,,7,7/1,,3/6,,
{8},2b/8b,7b/1b,,4b/5b,,1b/8b,,
{8}7v4[8:1],3,,,2v5[8:1],6,,7h[8:3],
{8},,1-5[8:1],,8b,,,4h[4:1],
{8},3,2,1,8,7,6,5h[4:1],
{8},6,7,8,1/6,,3/8,,
{8}2v5[8:1],6,,,7v4[8:1],3,,2h[8:3],
{8},,8-4[8:1],,1b,,,5h[4:1],
{8},6,7,8,4,3,2,1h[4:1],
{8},8,7,6,5-1[8:1],,8b,,
{8}3h[4:1],,4h[4:1],,8,8,,6h[8:3],
{8},5,5,,2,1,,,
{8}6h[4:1],,5h[4:1],,1,1,,3h[8:3],
{8},4,4,,7,8,,,
{2}5v4[8:1],2z6[4:1],
{2}7s3[4:1],1-5[8:1],
{8}6,6/4,,4,2/4,,2,8/2,
{8},8,8/6,,7,2,8b/1b,,
{8}7-3[8:1],2,,,2-6[8:1],7,,8h[8:3],
{8},,1s5[4:1],,8b,,,6h[4:1],
{8},7,8,1,4,3,2,1h[4:1],
{8},8,2,7,3/8,,1/6,,
{8}2-6[8:1],7,,,7-3[8:1],2,,1h[8:3],
{8},,8z4[4:1],,1b,,,3h[4:1],
{8},2,1,8,5,6,7,8h[4:1],
{8},1,2,3,4-8[8:1],,1b,,
{8}6,1,1,3,8,8,,2/7,
{8},6,5,4,3,2/1,,,
{8}3,8,8,6,1,1,,2,
{8}7,4,5,1,8,2/7,,,
{2}4q5[4:1],7p6[4:1],
{2}2q3[4:1],8-4[8:1],
{8}3,3/5,,5,7/5,,7,1/7,
{8},1,1/3,,2,7,8/1,,
{8}6/5,4/7,,3/4,5/2,,1/2,3/8,
{8},7/8,6/1,,4/5,,1b/8b,,
{8}7h[8:3],5,,1,2h[8:3],4,,8,
{16},,6,,3,4,3,,7,,1,,,,,,
{8}2h[8:3],4,,8,7h[8:3],5,,1,
{16},,3,,6,5,6,,2,,8,,,,,,
{8}6h[8:3],8,,2,3h[8:3],1,,7,
{16},,6,,2,4,2,,6,,8,,,,,,
{8}3h[8:3],1,,7,6h[8:3],8,,2,
{16},,3,,7,5,7,,3,,1,,8b,,,,
{8},7,8,1,2,4,5,7,
{8}3,6,
E
