&title=ファンタジーゾーン OPA-OPA! -GMT remix-
&artist=Hiro(SEGA)「ファンタジーゾーン」
&wholebpm=142
&demo_seek=33
&demo_len=14.3
&lv_1=2
&lv_2=4
&lv_3=7
&lv_4=10+
&lv_5=13
&des_4=Jack
&des_5=mai-Star
&inote_1=(142.0){1},,
{2}1,1,{1},
{2}8,8,{1},
{2}1,1,{1},
{2}8,8,{1},
{1}1b,
{2}2,2,
{1}2,
{2}3,3,
{1}3,
{2}4,4,
{1}4,
{2}5,5,
{1}5,
{1}5b,
{2}6,6,
{1}6,
{1}7h[1:1],,
{2}8,8,
{1}8,
{1}8/1,
{1}8/1,
{2}7,7,
{1}7,
{1}6h[1:1],,
{2}5,5,
{1}5,
{1}4/5,
{1}5/4,
{2}3,3,
{1}3,
{1}2-7[4:3],,
{2}6,6,
{1}6,
{1}7-2[4:3],,
{2}2,2,
{1}1,
{1}2-6[4:3],,
{2}7,7,
{1}8,
{1}7-3[4:3],,
{1}2,
{1}2,
{1}3h[1:1],,
{1}4,
{1}4,
{1}5h[1:1],,
{1}6b,
{2}6,6,
{1}5,
{2}5,5,
{1}4,
{2}4,4,
{1}4/3,
{2}5,5,
{1}6/5,
{2}7,7,
{1}8/1,
E
&inote_2=(142.0){1},,
{2}1,1,
{1}1h[2:1],
{2}8,8,
{1}8h[2:1],
{2}1/2,1/2,
{1}2h[2:1],
{2}7/8,7/8,
{1}8b/7b,
{1}7h[2:1]/2h[2:1],
{4}2,2,2,,
{1}2/1,
{4}3,3,3,,
{1}4/3,
{4}5,5,5,,
{1}6/5,
{4}7,7,7,,
{2}8/7,8/7,
{1}1h[2:1]/8h[2:1],
{2}1,1,
{4}2,2,2,,
{1}1h[2:1],
{1}8h[2:1],
{4}7,7,7,,
{4}6,6,6,,
{2}6/5,6/5,
{4}4,5,4,,
{2}5,5,
{4}6,6,6,,
{1}5h[2:1],
{1}4h[2:1],
{4}3,3,3,,
{4}2,2,2,,
{2}2/1,2/1,
{4}8,1,8b,,
{4}1,1,8,8,
{1}1,
{1}1-5[4:3],,
{4}4,4,5,5,
{1}4,
{1}3h[2:1]/6h[2:1],
{2}5/4,6/3,
{4}4,5,4,5,
{1}4,
{1}5-1[4:3],,
{4}1,8,1,8,
{1}1,
{1}2h[2:1]/7h[2:1],
{2}1/8,2/7,
{2}1,1,
{2}2,2,
{2}3,3,
{2}4,5/4,
{1}5h[2:1],
{1}6h[2:1],
{1}7h[2:1],
{1}8h[2:1],
{1}1b/8b,
{2}7,7,
{2}8/7,8/7,
{2}6,6,
{1}6h[2:1]/5h[2:1],
{2}4,4,
{2}4/3,4/3,
{2}2,2,
{1}1b/2b,
{4}1,8,1,8,
{1}7/2,
E
&inote_3=(142.0){1},,
{2}1h[4:1],8h[4:1],
{4}3,3,4,4,
{2}8h[4:1],1h[4:1],
{4}6,6,5,5,
{2}2h[4:1],7h[4:1],
{4}3,4,3,4,
{2}7h[4:1],2h[4:1],
{1}7q5[2:1],
{2}1-5[4:1],7-3[4:1],
{4}1,1,2h[4:1],,
{4}8,8,7h[4:1],,
{4}3,3,4h[4:1],,
{4}6,6,5h[4:1],,
{4}2,2,2/1,,
{4}7,7,8/7,,
{4}1,8,2/7,,
{1}1h[4:3]/8h[4:3],
{1}6<2[2:1],
{4}4,4,5,5,
{4}4,3,4/3,,
{4}6,5,3,4,
{4}7,8,2,1,
{1}7h[4:3],
{2}8h[4:1],1h[4:1],
{2}2h[4:1],7h[4:1],
{4}1,8,8/1,7b/2b,
{4}2,1,8,7,
{4}3,4,5,6,
{2}2h[4:1],7h[4:1],
{2}1h[4:1],8h[4:1],
{4}3,3,3,2/4,
{4}6,6,6,5/7,
{2}1b/8b,8b/1b,
{4}1/8,2/7,2/7,8/1,
{8}1,1,1,,8,8,8,,
{4}1h[16:3],,8,7,
{1}6-1[8:3],
{1}3-8[8:3],
{8}7,7,7,,2,2,2,,
{4}1h[16:3],,8,8,
{4}1,3,5,7,
{2}1h[4:3],8h[4:1],
{8}1,8,1,,1,8,1,,
{4}1/8,,,1,
{2}1-3[4:1],8-6[4:1],
{2}3-5[4:1],6-4[4:1],
{8}1,2,3,,8,7,6,,
{4}4/5,,,6/5,
{4}3/4,2/5,6/5,7/4,
{2}8h[4:1]/1h[4:1],2b/7b,
{4}1,5,1,5,
{4}3,7,3,7,
{4}4,8,4,8,
{4}2,6,2b,,
{4}8,4,6,2,
{4}7,3,5,1,
{4}6,5,3,2,
{4}7,8,7h[4:5],,
{1}1h[4:3],
{2}8h[16:3],1h[16:3],
{2}8h[200:37],1h[16:3],
{2}2h[16:3],3h[16:3],
{4}4h[16:3],,5,5,
{2}4h[16:3],5h[16:3],
{2}3h[16:3],6h[16:3],
{2}7h[16:3],8h[16:3],
{4}8h[8:3]/1h[8:3],,,1/8,
{4}7h[8:3]/2h[8:3],,,7/2,
{1}7b/2b,
E
&inote_4=(142.0){1},,
{4}1,2,3,4/5,
{4}8,7,6,5/4,
{4}2,3,4,5/6,
{4}7,6,5,4/3,
{4}5,5/6,4,3/4,
{4}7,7/8,2,1/2,
{4}7,6/1,2,3/8,
{16}3/6,,,5/4,,,2b/7b,,,,,,,,,,
{8}2/1,2/1,,8/7,8/7,,1b/8b,8b/1b,
{4}2h[4:1],5,7h[4:1],4,
{4}1h[8:1]/2h[8:1],1h[8:1]/2h[8:1],,,
{4}7h[4:1],4,2h[4:1],5,
{4}7h[8:1]/8h[8:1],7h[8:1]/8h[8:1],,,
{4}3h[4:1],8,6h[4:1],1,
{4}1h[8:1]/8h[8:1],1h[8:1]/8h[8:1],,,
{4}6h[4:1],1,3h[4:1],8,
{16}8/7,,,8/1,,,2/1,,,8/1,,,8/7,,6/1,,
{4}2q5[2:1],,,6b,
{8}7/4,6,5,,2/5,3,4,,
{8}3/6,5,4,,7v4[8:1],,,1,
{16}4,,,2/3,,,8,,5,,,7/6,,,2,,
{16}7,,,1/8,,,,,,,7,,8-4[16:3],,1,,
{8}2,,,,,3,4,5,
{4}6,6/5,7/4,8/3,
{8}1h[4:1]/2h[4:1],,,1/8,8h[4:1]/7h[4:1],,,8/1,
{8}1/2,,7/8,,1/8,2/7,3/6,,
{8}5/2,3,4,,4/7,6,5,,
{8}3/6,4,5,,2v5[8:1],,,8,
{16}5,,,6/7,,,1,,4,,,3/2,,,7,,
{16}2,,,1/8,,,,,,,2,,1-5[16:3],,8,,
{8}7,,,,,7,8,1,
{4}2,1/2,8/3,7/4,
{8}5h[4:1]/6h[4:1],,,4/5,4h[4:1]/3h[4:1],,,5/4,
{8}6/5,,3/4,,7/2,2/7,1b/8b,,
{8}2,4,5,7,3,1,8,6,
{16}1h[16:3],,,8,,,,,,,4/3,,2/5,,,8/7,
{16},7-4[16:3]/8-3[16:3],,,,,,,,,5/6,,7/4,,,2/1,
{16},1-6[16:3]/2-5[16:3],,,,,,,,,,,,,,,
{8}7,5,4,2,6,8,1,3,
{16}8h[16:3],,,1,,,,,,,1,,8/2,,,3p6[2:1]/7p2[2:1],{1},
{2}1s5[4:1],8z4[4:1],
{8}2,4,5,7,3,1,8,6,
{16}1h[16:3],,,8,,,,,,,3/4,,2/5,,,7/8,
{16},7-4[16:3]/8-3[16:3],,,,,,,,,5/6,,7/4,,,2/1,
{16},1-6[16:3]/2-5[16:3],,,,,,,,,,,,,,,
{8}7,5,4,2,6,8,1,3,
{16}8h[16:3],,,1,,,,,,,8,,1/7,,,2q7[2:1]/6q3[2:1],{1},
{2}3p6[4:1],7^2[4:1],
{16}4,,5,,6/3,,,2,,7,,,1/8,,,,
{16}4,,3,,5/2,,,6,,1,,,8/7,,,,
{16}5,,6,,7/4,,,3,,8,,,2/1,,,,
{8}8/1,1/8,2/7,,2,8/2,7,1/7,
{16}1,,8,,2/7,,,3,,6,,,5/4,,,,
{16}1,,2,,3/8,,,7,,4,,,6/5,,,,
{16}8,,7,,6/1,,,2,,5,,,3/4,,,,
{8}5/4,5/4,6/3,,3,5/3,6,6/4,
{1}3q6[2:1],
{4}3h[4:1],4h[4:1],5h[4:1],6,
{4}5h[4:1],4,3h[4:1],6,
{4}6h[4:1],5h[4:1],4h[4:1],3,
{8}4h[4:1],,5,,2,8/2,7,1/7,
{4}2h[4:1],1h[4:1],8h[4:1],7,
{4}7h[8:1]/8h[8:1],2h[8:1]/1h[8:1],,,
{4}4h[4:1],5h[4:1],2h[4:1],7,
{16}1/8,,,4/3,,,5/6,,,7/2,,,1/8,,,,
{16}3/8,,2/1,1/2,,,6/1,,7/8,8/7,,,4b/5b,,,,
{16}2/7,,1/8,8/1,
E
&inote_5=(142.0){1},
{16},,,,,,1,8,,,,,1b,,,,
{16}1h[8:3],,,2,,,8,,8h[8:3],,,7,,,1,,
{16},,7,,8,,2,1,,3,,5,4,,6,,
{16}4h[8:3],,,3,,,5,,5h[8:3],,,6,,,4,,
{16},,2,,1,,7,8,,6,,4,5,,3,,
{16}7h[8:3],,,6,,,5h[2:1],,1,,,8,,,7,,
{16},,3,,7,,5,6,,1-5[16:1],,1,,,,,
{16}2h[8:3],,,3,,,4h[2:1],,7,,,8,,,1,,
{16}4/3,,,5/6,,,1v6[16:3]/8v3[16:3],,,,,,,,,,
{16}3/4,,3/4,2/5,,,5/6,,6/5,4/7,,,1/8,,1/8,1/8,
{4}3,4,5,6,
{2}1q7[8:1],7q5[8:1],
{4}7,8,1,2,
{2}5q3[8:1],3q1[8:1],
{16}1,,,8,,,7h[16:5],,1,,,2,,,,,
{4}1q7[4:1],7q5[4:1],5q3[4:1],,
{16}5,,,4,,,3h[16:5],,5,,,6,,,,,
{16}3/7,,,8/4,,,1/5,,,2/6,,,2,1,8,7,
{12}3,
{995}4,,,,,,,,,,,,,,,,,,,,,,,,,,,,,,,,,,,,,,,,,,,,,,,,,,,,,,,,,,,,,,,,,,,,,,,,,,,,,,,,,,,
{12}3,6,
{995}5,,,,,,,,,,,,,,,,,,,,,,,,,,,,,,,,,,,,,,,,,,,,,,,,,,,,,,,,,,,,,,,,,,,,,,,,,,,,,,,,,,,
{12}6,1,
{995}6,,,,,,,,,,,,,,,,,,,,,,,,,,,,,,,,,,,,,,,,,,,,,,,,,,,,,,,,,,,,,,,,,,,,,,,,,,,,,,,,,,,
{12}3,8b,,,
{16}1,,6,5,6,,3,4,3,,7,6,7,,2,3,
{16}2,,7,8,7,,2,1,2,,,,,,8/7,,
{16}1/2,,,3/4,,5/6,,,3/4,,,2/1,,6/5,,,
{16}8/7,,,2b/1b,,,,,,,2,,4,,6,,
{16}8,,3,4,2,,6,5,7,,2,4,3,,7,5,
{16}6,,1,8,7,,8,1,2,,,,1,,,,
{2}1s5[8:1]/8^5[8:1],1^4[8:1]/8z4[8:1],
{16}1b/8b,,,,3b/4b,,,,6,5,6,5,7,4,6,5,
{16}8,,2,5,2,,7,4,7,,1,4,1,,8,5,
{16}8,,4,6,2,,5,3,7,,,,,,6/5,,
{16}2/1,,,4/3,,8/7,,,4/3,,,5/6,,1/2,,,
{16}7/4,,,5b/6b,,,,,,,5,,3,,7,,
{16}1,,4,5,4,,7,8,7,,2,1,2,,,,
{4}8h[4:1],7h[4:1],6h[4:1],5-1[8:1],
{4}4-8[8:1],2-5[8:1],7-4[8:1],,
{12}3,
{995}4,,,,,,,,,,,,,,,,,,,,,,,,,,,,,,,,,,,,,,,,,,,,,,,,,,,,,,,,,,,,,,,,,,,,,,,,,,,,,,,,,,,
{12}3,6,
{995}5,,,,,,,,,,,,,,,,,,,,,,,,,,,,,,,,,,,,,,,,,,,,,,,,,,,,,,,,,,,,,,,,,,,,,,,,,,,,,,,,,,,
{24}6,,2,,,7,,,
{16}1b,8b,,,
{8}1h[4:1],2,8h[4:1],7,1h[4:1],2,8h[4:1],7,
{16}1h[16:3],,,8b,,,,,,,7,8,1,2,,5p3[16:5],
{16},4,,,,,,,,,2,1,8,7,,8q2[16:5],
{16},1,,,,,,,,,1,8,3,6,,,
{8}4h[4:1],3,5h[4:1],6,4h[4:1],3,5h[4:1],6,
{16}4h[16:3],,,5b,,,,,,,5,4,5,4,,5,
{16}2,1,,3,7,8,,6,1,8,,2/7,7/2,,5/4,,
{16}1,8,2,7,1,8,2,7,4,6,3,5,4,5,3b,,
{8}2h[8:1],3,2h[8:1],1,2h[8:1],3,2h[8:1],1,
{16}2h[16:3],,,8b,,,,,,,2,3,4,5,,7p5[16:5],
{16},6,,,,,,,,,5,6,7,8,,3p5[16:5],
{16},4,,,,,,,,,5,4,5,4,,,
{8}7h[8:1],6,7h[8:1],8,7h[8:1],6,7h[8:1],8,
{16}7h[16:3],,,1b,,,,,,,7,4,5,2,,8,
{16}1,1,,1,3,3,,3,5,5,,5,7,,7,,
{16}2,2,,2,8,8,,8,6,6,,6,4b,,,,
{16}1^6[8:1],,2,,2,,3,3,,6,,4,5,,,,
{16}8^3[8:1],,7,,7,,6,6,,3,,5,4,,,,
{16}1^6[8:1],,2,,3,,2,2,,7,,1,8,,,,
{16}8^3[8:1],,7,,6,,5,,3,4,2,5,1,6,7,8b,
{16}7-4[8:1],,4,,7,,2,2,,4,,8,8,,2,,
{16}2-5[8:1],,5,,2,,7,7,,5,,1,1,,6,,
{16}6^1[8:1],,1,,6,,3,3,,6,,4,5,,3,,
{16}3^8[8:1],,8,,3,,6,,4,5,3,6,2,7,1,8,
{12}1,
{995}3,,,,,,,,,,,,,,,,,,,,,,,,,,,,,,,,,,,,,,,,,,,,,,,,,,,,,,,,,,,,,,,,,,,,,,,,,,,,,,,,,,,
{12}5,7,
{995}2,,,,,,,,,,,,,,,,,,,,,,,,,,,,,,,,,,,,,,,,,,,,,,,,,,,,,,,,,,,,,,,,,,,,,,,,,,,,,,,,,,,
{12}4,6,
{995}8,,,,,,,,,,,,,,,,,,,,,,,,,,,,,,,,,,,,,,,,,,,,,,,,,,,,,,,,,,,,,,,,,,,,,,,,,,,,,,,,,,,
{12}1,8b,,,
{4}8p2[4:1],2p4[4:1],4p6[4:1],,
{16}8h[16:3],,,7b,,,,,8h[16:3],,,1b,,,,,
{4}1p3[4:1],3p5[4:1],5p7[4:1],,
{16}1h[16:3],,,8b,,,,,2b,2,2,2,7b,7,7,7,
{4}1-6[4:1],6-2[4:1],2p7[4:1],,
{16}6h[16:3],,,7b,,,,,6h[16:3],,,5b,,,,,
{4}8-3[4:1],3-6[4:1],6<3[8:1],,
{16}2/1,,,6/5,,,1/2,,,8/7,,,3b/4b,,,,
{16}3/4,,2/5,5/2,,,7/8,,6/1,1/6,,,3b/7b,,,,
{16}5/1,,5/1,6/2,3p6[2:1]/7p2[2:1],,,,,,,,,,,,,
E
