&title=バラライカ
&artist=Performed by 光吉猛修
&wholebpm=140
&demo_seek=59.25
&demo_len=14.05
&lv_1=2
&lv_2=3
&lv_3=7+
&lv_4=9+
&lv_5=12
&des_4=mai-Star
&des_5=はっぴー
&inote_1=(140.0){1},,,,,,
{1}2,,
{1}7,,
{1}1,
{1}1,
{1}8,
{1}8,
{1}7,
{1}7,
{1}8,
{1}8b,
{1}1,
{1}2,
{1}3,
{1}4,
{1}5,
{1}6,
{1}7,
{1}8,
{1}1h[1:1],,
{1}8h[1:1],,
{1}7,
{1}7,
{1}8,
{1}1,
{1}2b,
{2}3,3,
{2}4,4,
{2}5,5,
{2}6,6,
{2}7,7,
{2}8,8,
{2}1,1,
{2}2,2b,
{1}1-5[4:3],,
{1}4-8[4:3],,
{2}1,1,
{2}8,8,
{2}7,7,
{1}8b,
{1}1/8,
{1}1/8,
{1}1/8,
{1}1b,
{2}1,8,
{2}1,8,
{2}1,8,
{2}1,8,
{2}7,8,
{2}1,2b,
E
&inote_2=(140.0){1},,,,,,
{2}5,5,
{2}6,6,
{2}7,7,
{4}8,8,8b,,
{2}1,1,
{2}2,2,
{2}3,3,
{4}2,2,2,,
{2}3,3,
{2}4,4,
{2}5/4,5/4,
{4}4,4,4b,,
{2}5,5,
{2}4,4,
{1}3h[2:1],
{1}2-6[4:1],
{2}7,7,
{2}6,6,
{1}5h[2:1],
{4}4,4,4,,
{2}3,6,
{2}3,6,
{2}3,6,
{2}3,6,
{2}3,6,
{2}3,6,
{2}5/4,5/4,
{2}3b,2b,
{1}1b,
{4}1,1,1,,
{4}8,8,8,,
{2}1,2,
{4}1,1,1,,
{4}8,8,8,,
{4}1,1,1,,
{2}8,7,
{4}8,8,8,,
{4}1,1,1,,
{4}2,2,2,,
{2}3/4,4/3,
{4}5,5,5,,
{4}4,4,4,,
{4}5,5,5,,
{2}6/5,6/5,
{4}7,7,7b,,
{2}8,8,
{2}7,7,
{2}6,6,
{4}5,5,5,,
{2}4,4,
{2}3,3,
{2}1/2,2/1,
{2}7/8,8/7,
{2}1,8,
{4}1,8,1,8/1,
E
&inote_3=(140.0){1},,
{1}7/2,
{1}5/4,
{1}6/3,
{1}8/1,
{2}2,7,
{2}2,7,
{4}3,3,6,6,
{1}1-5[4:1],
{4}4/5,2,4/5,7,
{4}4/5,2,4/5,7,
{4}4/5,2,4/5,7,
{4}8/1,2/7,6b/3b,,
{4}4/5,2,4/5,7,
{4}4/5,2,4/5,7,
{2}2/1,7/8,
{4}6/3,2/7,8b/1b,,
{4}3,4,5,4,
{4}6,5,4,5,
{4}3,4,5,6,
{1}8-4[4:1],
{4}6,5,4,5,
{4}3,4,5,4,
{4}2,1,8,7,
{4}6/5,4/3,2b/7b,,
{4}4/5,,2,1,
{4}4/5,,7,8,
{4}5/4,,1,8,
{4}7/2,6/3,4/5,,
{4}4/5,,2/1,2/1,
{4}4/5,,7/8,8/7,
{4}6,1,3,8,
{2}6b/1b,3b/8b,
{1}2b/7b,
{4}3,5,3,2/7,
{4}6,4,6,7/2,
{4}1b/8b,,2,7,
{8}1,8,1,8,1,,,,
{4}2,3,4,5/6,
{4}7,6,5,3/4,
{2}1/2,7/8,
{4}5/3,6/4,2b/7b,,
{4}3,4,3,2/1,
{4}6,5,6,8/7,
{4}3b/6b,,3/4,6/5,
{8}4,5,4,5,4,,,,
{4}3,2,1,7/8,
{4}6,7,8,2/1,
{2}4/5,2/7,
{8}8/1,8/1,8/1,1/8,1/8,,,,
{2}4-2[16:3],5-7[16:3],
{2}4-2[16:3],5-7[16:3],
{2}4-2[16:3],5,
{8}1,8,1,8,1,,,,
{4}5/4,2,5/4,7,
{4}5/4,1,4/5,8,
{2}1-5[4:1],8-4[4:1],
{2}2-5[4:1],7-4[4:1],
{2}3,6,
{8}2,7,2,7,2,,8b/1b,
E
&inote_4=(140.0){1},
{16}4,5,4,5,4,5,4,5,3,,6,,3,,6,,
{2}1b/8b,2,
{2}7,3,
{2}6,2,
{4}7,,1,8,
{2}4,3/5,
{2}5,4/6,
{4}4,2/5,5,7/4,
{8}2,2,7,7,1/8,,1b/8b,,
{4}4,2/5,5,7/4,
{4}4,2/5,5,4/7,
{4}4,2/5,5,7/4,
{8}1,8,2,7,5/4h[4:1],,3b,,
{2}5/4-2[8:1],4/5-7[8:1],
{2}5/4-1[8:1],4/5-8[8:1],
{2}2/5,7/4,
{8}1,8,1,8,2b/7b,,2,3,
{8}4,,7,6,5,,8,1,
{4}2,4^6[8:1],,3/7,
{8}5/1,,4,5,4,,3/6,,
{8}1h[2:1],,,,8b,,3,2,
{8}1,,6,7,8,,5,4,
{4}3,1^7[8:1],,2/6,
{8}4/8,,8,1,8,,2/7,,
{8}5,4,5^7[8:1],4,,,4b,,
{4}7b/4,5,5/2b,4,
{4}7b/4,5,5/2b,4,
{4}4/7b,5,5/2b,4,
{8}3/7,3/7,2/6,2/6,5/1,,,,
{8}3/7b,,4,5,6/2b,,5,4,
{8}3/7b,,4,5,6/2b,,1b/8b,,
{8}3,4,5,6,6,5,4,3,
{2}5b/4h[2:1],2b,
{8}2b/7b,,7-3[8:1]/8-3[8:1],,,,1,8,
{16}1,,,,2b,,,,7,,4,5,4,,7,,
{16}7,,,,6/8,,,,2,,,1,1,,3,,
{8}4/8,,,4/8,3/7,2/6,1/5,4/8,
{2}4^7[8:1]/8^3[8:1],7b/3b,
{4}5/1,1^4[8:1]/5q1[8:1],,,
{2}2^5[8:1],6^1[8:1],
{2}2^5[8:1],6^1[8:1],
{8}2b,,2b,,2b,,7,8,
{16}7,,,,2/5,,,,4,,6,5,6,,4/7,,
{16}4,,,,8,,,,1/5,,,1,8,,2/7,,
{8}3h[8:3],,,6,7,8,1,2,
{8}3,,2-5[8:1]/7-4[8:1],,,,3,6,
{16}3,,,,8/4,,,,2/6,,,8,1,,7/2,,
{16}6,,,,3b,,,,5,,,4,5,,3/6,,
{8}7,,2b,,,8,1,,
{8}5,4,5,4,5h[4:1],,7b,,
{4}1,3,5,7,
{4}8,6,4,2,
{2}2/5,4/7,
{4}7h[2:1]/3h[2:1],,,6b/5b,
{1}2-7[8:3]/6-3[8:3],
{4}5/2,4/7,2/5,7/4,
{8}4b,5,4,5,2b,7,2,7,
{8}3b,6,3,6,1b,8,1,8,
{2}2b/5,4/7b,
{8}4,5,4,5,4h[4:1],,3b,
E
&inote_5=(140.0){1},
{16}1,5,2,6,3,7,4,8,1/5,,4/8,,3/7,,2/6,,
{8}1b/5b,,,,4/7,,,4,
{16}2/5,,,2/5,,,,,4/7,,,,,,4,,
{8}2/5,,,,2/5,,,5,
{16}4/7,,,4/7,,,,,2/5,,,,,,1,,
{8}5/2,4,6,5,4/7,5,3,4,
{8}5/2,4,6,5,4/7,5,3,4,
{8}5/2,3,4/7,6,5/2,3,4/7,6,
{8}3,1,8,6,4b/5b,,2b/7b,,
{4}1^6[8:1],2,8^3[8:1],7,
{4}1^6[8:1],2,8^3[8:1],7,
{4}1^6[8:1],2,8^3[8:1],7,
{8}5/1,2/6,7/3,8/4,1^6[8:1]/5^2[8:1],,,,
{4}4/8^3[8:1],7,5/1^6[8:1],2,
{4}4/8^3[8:1],7,5/1^6[8:1],2,
{4}4/8^3[8:1],7,5/1^6[8:1],2,
{8}8/4,3/7,2/6,5/1,4b/8b,,7s3[8:1],7,
{8},,2z6[8:1],2,,,7-2[4:1],7,
{4}2-6[4:1],6^3[4:1],3,2b,
{4}8p4[8:1],1-5[8:1],7-2[8:1],,
{8}6h[4:1]/8p3[8:1],,,,1b/2b,,7p3[8:1],7,
{8},,2q6[8:1],2,,,8-5[4:1],,
{4}5q4[4:1],4,2b,6v1[4:1],
{2}1<4[4:1],1-4[8:1],
{8}6p5[8:3],6,,,,,2b,,
{2}7/3-6[8:1],2/6-3[8:1],
{8}3/7,,2/6,2,7/3-6[8:1],,,,
{2}2/6-3[8:1],7/3-6[8:1],
{8}6/2,,3/7,7,2/6-3[8:1],,,,
{2}4^1[8:1]/8-5[8:1],2^5[8:1]/6^1[8:1],
{2}4v1[8:1]/8-5[8:1],1-5[8:1],
{4}6q4[8:1],3p5[8:1],6q3[8:1],,
{2}1-3[8:1]/7-5[8:1],1p4[8:1],
{8}7h[4:1]/2-5[8:1],,,,1b/2b,,1,1,
{16}8/7,,,,2b/5b,,,,3,4,3,4,3,,2,,
{16}4/3,,,,1b/6b,,,,3/8,,,6,5,,3,,
{8}4/3,,7b/2b,,2,3,4,5,
{8}6/2,7/3,8/4,5/1,3b/7b,1b/8b,2b/7b,,
{16}2^5[8:1]/6^1[8:1],,,,,,,,7h[16:3],,,6,7,,5,,
{16}4,,,,5b/6b,,,,2h[16:3],,,3,2,,4,,
{8}5,,7b/2b,6,7,8,1b,2,
{8}8b/3b,,6b/1b,,2b/7b,,8,8,
{16}2/1,,,,4b/7b,,,,6,5,6,5,6,,7,,
{16}5/6,,,,3b/8b,,,,1/6,,,3,4,,6,,
{8}6/5,,2b/7b,,7,6,5,4,
{8}3/7,6/2,1/5,8/4,2b/6b,8b/1b,3b/6b,,
{16}4/3,,,,6b/5b,,,,2h[16:3],,,3,2,,4,,
{16}5/8,,,,4b/3b,,,,7h[16:3],,,6,7,,5,,
{8}4/1,,2b/7b,3,2,1b,8b,7,
{8}6b/3b,4b/5b,7b/2b,8b/1b,6b/3b,,7b/2b,,
{2}4h[4:1]/6^8[8:1],5h[4:1]/3^1[8:1],
{2}4h[4:1]/6^8[8:1],5h[4:1]/3^1[8:1],
{2}4h[4:1]/6^8[8:1],5h[4:1]/3^1[8:1],
{8}7/5,8/4,1h[8:3]/3h[8:3],,,,6b/5b,,
{4}3^1[8:1],6^8[8:1],4^2[8:1],5^7[8:1],
{4}3^1[8:1],6^8[8:1],4^2[8:1],5^7[8:1],
{8}3^1[8:1],3,6^8[8:1],6,4^2[8:1],4,5^7[8:1],5,
{8}3^1[8:1],3,6^8[8:1],6,4^2[8:1],4,,,
{2}2-5[8:1]/6-1[8:1],4^1[8:1]/8^5[8:1],
{4}3q5[4:1]/5<3[4:1],,,2b/7b,
E
