&title=タカハせ!名人マン
&artist=ビートまりお ARM feat. 高橋名人
&wholebpm=150
&demo_seek=63.8
&demo_len=19.3
&lv_1=2
&lv_2=3
&lv_3=7
&lv_4=9+
&lv_5=13
&des_4=某S氏
&des_5=はっぴー
&inote_1=(150.0){1},,,,,
{1}1,
{1}1,
{1}1,
{1}1,
{1}8,
{1}8,
{1}8,
{1}8,
{1}7,
{1}7,
{1}7,
{1}6,
{1}6,
{1}5,
{1}5,
{1}4,
{1}4,
{1}3,
{1}3,
{1}2,
{1}2,
{1}1,
{1}1,
{1}1b,
{1}8,
{1}8-5[4:3],,
{1}4-1[4:3],,
{1}8,
{1}1,
{1}8h[1:2],,,
{1}8,
{1}8b,
{1}1b,
{1}1,
{1}2,
{1}3,
{1}4,
{1}5,
{1}6,
{1}7,
{1}8,
{1}8b,,
{1}1h[1:4],,,,,
{1}1,
{1}1,
{1}8,
{1}1/8,
{1}1h[1:4]/8h[1:4],,,,,,
{2}1b,1b,
{2}8,1/8,
{2}2,2,
{1}2,
{2}3,3,
{1}3,
{2}4,4,
{1}4,
{2}5,5,
{1}5b,
{2}6,6,
{1}7,
{2}7,7,
{1}8,
{1}8-4[4:3],,
{1}1-5[4:3],,
{1}1/8,
{1}1h[1:1]/8h[1:1],,
E
&inote_2=(150.0){1},,,,,
{2}1,1,
{1}1/2,
{2}8,8,
{1}8/7,
{1}6/5,
{1}4/3,
{1}5-8[4:3],,
{1}1b,
{2}1,1,
{2}2,2,
{1}1/2,
{1}1,
{2}8,8,
{2}7,7,
{1}8/7,
{1}8,
{2}6,6,
{1}6,
{2}5,5,
{1}5,
{2}4,4,
{2}3,3,
{1}3-7[4:3],,
{1}8h[2:1],
{1}1h[2:1],
{1}8h[2:1],
{1}1h[2:1],
{1}1/8,
{1}8/1,
{1}1h[1:2],,,,
{2}1,1,
{2}2,1b,
{2}8,8,
{1}8h[2:1],
{2}7,7,
{1}7h[2:1],
{1}5/6,
{1}3/4,
{1}3h[1:1]/6h[1:1],
{2},3,
{1}3-7[4:3],,
{1}8-5[4:3],,
{8},1-4[4:3],,,,,,,{1},,
{2}4/5,4/5,
{2}3/6,3/6,
{2}7/2,2/7,
{1}8b/1b,
{1}1h[1:4],,
{1}8h[1:2],,,,
{2}1,1,
{2}2,1b,
{2}8,8,
{1}8h[2:1],
{2}7,7,
{1}7h[2:1],
{2}5,5/6,
{2}4,4/3,
{2}4,5,
{1}5b/4b,
{2}3,3,
{1}3h[2:1],
{2}2,2,
{1}2h[2:1],
{2}1,1/2,
{2}8,8/7,
{2}1,8,
{1}2h[1:1]/7h[1:1],
{2},3,
{1}3-7[4:3],,
{2}8,8,
{2}1,1/8,
E
&inote_3=(150.0){1},,
{16}1,,,1,,,1,,,,,,,,,,
{4}8h[2:1],,,8b,
{4}1h[2:1],,,1b,
{4}1,2,3,4,
{4}5,6,7,,
{4}8,7,6,5,
{4}4,3,2,,
{1}1h[4:3],
{1}8h[4:3],
{1}1-5[8:3],
{1}8-4[8:3],
{4}4/5,3/6,2/7,1/8,
{4}1b,1,1,,
{4}8,8,8,,
{4}1,2,3,4,
{4}8,7,6,5,
{4}4,5,4,,
{2}3/6,3/6,
{4}1,3,5,7,
{4}8,6,4,2,
{4}3,4,5,6,
{4}5,4,3,,
{4}7,8,1,2,
{4}1,8,7,,
{4}1/8,1/8,2/7,3/6,
{4}5/4,,6/3,4-1[2:1]/5-8[2:1],{1},
{2},1b,
{4}1,6,3,8,
{4}2,5,4,7,
{4}1,5,3,7,
{4}2,6,4,8,
{1}1h[2:1],
{1}8h[2:1],
{1}8h[1:2]/1h[1:2],,,
{1}8,
{4}1b,1,8b,8,
{2}1h[4:1]/8h[4:1],2b/7b,
{4}1,2,3,4,
{4}5,6,7,8,
{4}8,7,6,5,
{4}4,3,2,1,
{1}8q5[2:1],
{1}1p4[2:1],
{4}4/5,5,7,1,
{4}3h[2:1],,4,4q7[1:1],{1},,
{1}3,
{1}4,
{1}5,
{1}6,,
{2}1/2,8/7,
{4}1,8,1,8,
{4}8/1,8/1,7/2,3/6,
{1}4h[4:3]/5h[4:3],
{1}2h[1:4]/7h[1:4],,,,,
{1}8,
{4}1b,3,8b,6,
{2}1h[4:1]/8h[4:1],2b/7b,
{4}1,2/8,1,8/2,
{4}8,7/1,8,7/1,
{4}3,2/4,3,2/4,
{4}6,5/7,6,5/7,
{1}3-8[8:3],
{1}6-1[8:3],
{4}1,8,2,7,
{4}8/1,2b/7b,,,
{4}4/3,3/4,5/6,6/5,
{4}3/4,5/6,3/4,5/6,
{4}2/1,1/2,7/8,7/8,
{4}1/2,8/7,1/2,8/7,
{2}1/5,7/3,
{4}1/5,2/6,3/7,,
{2}8/4,6/2,
{4}8/4,4/8,7/3,2/6,
{4}5/1,,7/2,7/2,
{1}8b/1b,
{16}8,,,8,,,
{8}8,,,,,{1},
{16},,1,,,1,,,1b,
E
&inote_4=(150.0){1},
{16}4/5,,,,,,,,,,,,,,,6/4-1[16:3],{1},
{4}3h[4:1],4h[4:1],5h[4:1],7b,
{4}6h[4:1],5h[4:1],4h[4:1],2b,
{4}2/1,4,8/7,5,
{2}2h[2:1],1,
{4}7/8,5,2/1,4,
{2}7h[2:1],8,
{8}3h[4:1],,5,5,,1,8,,
{8}6h[4:1],,4,4,,8,1,,
{4}3h[4:1],4h[4:1],5h[4:1],6h[4:1],
{1}7^2[4:1],
{1}3^6[4:1],
{4}2,4,5,6/8,
{4}7,5,4,3/1,
{1}7h[4:3]/2h[4:3],
{1}2q7[4:1],
{4}7,5,4,1/3,
{4}2,4,5,6/8,
{1}7h[4:3]/2h[4:3],
{1}6q3[4:1],
{8}2,,2,,8,1,8,,
{1}1p4[4:1]/2v3[4:1],
{8}7,,7,,1,8,1,,
{1}7v6[4:1]/8q5[4:1],
{4}5/3,6/4,5/2,7/4,
{4}1/8,,5/4,4^1[2:1]/5^8[2:1],{1},
{4}1,8,1b/8b,,
{4}2,3,4,5,
{4}7,6,5,4,
{4}1/2,3/4,5/6,8/7,
{4}2/1,7/8,5/6,3/4,
{8}2,,,,5/4,4/5,,,
{8}7,,,,5/4,5/4,,,
{8}4,4,4,4,5,5,5,5,
{8}4,4,4,4,5,5,5,5,
{1}4b,
{4}1,8,8b/1b,,
{4}6,1b,6,1b,
{4}4/6h[2:1],4,1b,,
{4}2h[4:1],1,7h[4:1],8,
{4}2h[4:1],1,7h[4:1],8,
{4}3h[4:1],1,6h[4:1],8,
{4}3h[4:1],1,6h[4:1],8,
{4}4/3,4/3,5h[4:1]/2h[4:1],,
{4}6/5,6/5,7h[4:1]/4h[4:1],,
{4}4,5b,6b,7b,
{4}8b,,5/4,4^1[2:1]/5^8[2:1],{1},
{16}1,,,8,,,2/7,,,,,,,,,,
{1}2>6[1:1],,
{8},7<3[1:1],,,,,,,{1},,
{8}4,,,4-1[4:1],4,,,,
{8}5,,,5-8[4:1],5,,,,
{2}3h[4:1],5h[4:1]/6h[4:1],
{1}2h[2:1]/7h[2:1],
{1}4h[8:15],
{1}5h[8:7],
{16},,,,4,,,,,,,,4,4,4,4,
{16}4,4,4,4,4,4,4,4,4,,,,,,,,
{1}6b/3b,
{4}8b/2b,7b/1b,8b/2b,,
{4}3/4,7b/8b,5/6,2b/1b,
{4}4/5,4-1[8:1]/5-8[8:1],,,
{4}2,1/2,7,7/8,
{4}2,1/2,7,7/8,
{4}6,2/8,3,7/1,
{4}6,2/8,3,1/7,
{4}4/2,3/5,4/6,5/7,
{4}8/6,7/1,8/2,1/3,
{2}3-8[8:1],6-1[8:1],
{1}2q5[8:3],
{4}6,8/2,3,1/7,
{4}6,2/8,3,1/7,
{4}5/6,2/8,3/4,1/7,
{4}5/6,8/2,4/3,7/1,
{4}6h[4:1],4h[4:1],2h[4:1],1,
{4}3h[4:1],5h[4:1],7h[4:1],8,
{4}2h[4:1],1h[4:1],8h[4:1],7>4[1:1],{1},
{4},,4/5,4^1[2:1]/5^8[2:1],{1},
{16}8/1,,,6/3,,,7/2,,,,,,,,,,
{2}8-5[8:1],1-4[8:1],
{4}5,4,6/3,1b/8b,
E
&inote_5=(150.0){1},,,
{4}1,6,8-5[8:1],,
{4}1^6[4:1],6^3[4:1],3p6[4:1],,
{8}8h[4:1],,7,6,1h[4:1],,2,3,
{8}7h[4:1],,6,5,2h[4:1],,3,4,
{8}5h[4:1],,6,7,4h[4:1],,3,2,
{8}6h[4:1],,7,8,3h[4:1],,1,,
{16}3,4,,4,
{415}2,,,,,,,,,,,,,,,,,,,,,,,,,,,,,,,,,,,,,,,,,,,,,,,,,,,,
{833}2,,,,,,,,,,,,,,,,,,,,,,,,,,,,,,,,,,,,,,,,,,,,,,,,,,,,,,,,,,,,,,,,,,,,,,,,,,,,,,,,,,,,,,,,,,,,,,,,,,,,,,,,,,,,,,,,,,,,,,,,,,,,,,,,,,,,,,,,,,,,,,,,,,,,,,,,,,,,,,,,,,,,,,,,,,,,,,,,,,,,,,,,,,,,,,,,,,,,,,,,,,,,,,,,
{8}4/7,5/6,,
{16}6,5,,5,7,,7,,,,2/5,,4/3,,,,
{4}7h[4:1],6p3[8:3],,,
{16}8h[4:1],,,,2h[4:1],,,,1,1,,2/8,,,,,
{16}1h[4:1],,,,7h[4:1],,,,8,8,,7/1,,,,,
{16}7h[16:3],,,8,7,,7,,2h[16:3],,,1,2,,2,,
{16}7h[16:3],,,8,7,,7,,6h[16:3],,,5,6,,6,,
{16}7h[16:3],,,8,7,,7,,3h[16:3],,,4,3,,3,,
{1}7>5[2:1],
{16}2h[16:3],,,1,2,,2,,7h[16:3],,,8,7,,7,,
{16}2h[16:3],,,1,2,,2,,3h[16:3],,,4,3,,3,,
{16}2h[16:3],,,1,2,,2,,6h[16:3],,,5,6,,6,,
{1}3s7[2:1],
{16}7h[16:3],,,8,7,,6,,5,,4,,3,,,,
{4}1h[4:1],2q3[8:3],,,
{16}2h[16:3],,,1,2,,3,,4,,5,,6,,,,
{4}8h[4:1],7p6[8:3],,,
{4}2h[4:1],4h[4:1],6h[4:1],8<1[8:3],
{4},,2h[4:1],1>8[4:3],{1},
{16},,2/8,,,1/7,,,8,8,1,8,,,,,
{4}7h[4:1],6h[4:1],5h[4:1],4h[4:1],
{4}2h[4:1],3h[1250:313],4h[4:1],5h[4:1],
{4}8h[4:1],7h[4:1],6h[4:1],5h[4:1],
{4}1h[4:1],2h[4:1],3h[4:1],4,
{8}8h[8:3]/3h[8:3],,,,5/4,4/5,,,
{8}6h[8:3]/1h[8:3],,,,5/4,4/5,,,
{16}4,5,4,5,4,5,4,5,4,5,4,5,4,5,4,5,
{16}4,5,4,5,4,5,4,5,4,5,4,5,4,5,4,5,
{4}4,7b/2b,,,
{12}7/2,,2,7,
{995}1,,,,,,,,,,,,,,,,,,,,,,,,,,,,,,,,,,,,,,,,,,,,,,,,,,,,,,,,,,,,,,,,,,,,,,,,,,,,,,,,,,,
{12}8,7/2,,,,,,
{4}7b/1b,3/4,8b/2b,6/5>7[8:3],
{2},8b/3b,
{8}2/1<5[4:1],,,,,8,8,8,
{8}7/8>4[4:1],,,,,6,5,4,
{8}3/4<8[4:1],,,,,3,4,5,
{8}6/5>1[4:1],,,,,5,6,7,
{2}7/8^3[8:1],1^6[8:1],
{2}8^3[8:1],1^6[8:1],
{4},7h[4:1],8h[4:1],1h[4:1],
{2}2h[2:1],3-8[8:1],
{16}2/7,,,,4,5,4,5,3,6,3,6,4,5,4,,
{16}7/8,,,2/1,,,2b/7b,,,,,,,,,,
{6}6,5,4,3,4,5,
{6}6,5,4,3,4,5,
{6}6,5,4,3,4,5,
{1}6^3[2:1],,
{12}6h[4:1],,,4,,3,4,,,3/4,,,
{12}3h[4:1],,,5,,6,5,,3,,1,,
{12}6,,6,5,,5,4,,4,3,,3,
{12}2,,2,1,,1,8,
{995}1,,,,,,,,,,,,,,,,,,,,,,,,,,,,,,,,,,,,,,,,,,,,,,,,,,,,,,,,,,,,,,,,,,,,,,,,,,,,,,,,,,,
{12}8,
{4}1,{1},,
{983}4,,,,,,,,,,,,,,,,,,,,,,,,,,,,,,,,,,,,,,,,,
{625}4,,,,,,,,,,,,,,,,,,,,,,,,,,
{983}4,,,,,,,,,,,,,,,,,,,,,,,,,,,,,,,,,,,,,,,,,4,,,,,,,,,,,,,,,,,,,,,,,,,,,,,,,,,,,,,,,,,
{625}4,,,,,,,,,,,,,,,,,,,,,,,,,,
{983}4,,,,,,,,,,,,,,,,,,,,,,,,,,,,,,,,,,,,,,,,,4,,,,,,,,,,,,,,,,,,,,,,,,,,,,,,,,,,,,,,,,,
{625}4,,,,,,,,,,,,,,,,,,,,,,,,,,
{983}4,,,,,,,,,,,,,,,,,,,,,,,,,,,,,,,,,,,,,,,,,4,,,,,,,,,,,,,,,,,,,,,,,,,,,,,,,,,,,,,,,,,
{625}4,,,,,,,,,,,,,,,,,,,,,,,,,,
{983}4,,,,,,,,,,,,,,,,,,,,,,,,,,,,,,,,,,,,,,,,,4,,,,,,,,,,,,,,,,,,,,,,,,,,,,,,,,,,,,,,,,,
{625}4,,,,,,,,,,,,,,,,,,,,,,,,,,
{983}4,,,,,,,,,,,,,,,,,,,,,,,,,,,,,,,,,,,,,,,,,4,,,,,,,,,,,,,,,,,,,,,,,,,,,,,,,,,,,,,,,,,
{625}4,,,,,,,,,,,,,,,,,,,,,,,,,,
{983}4,,,,,,,,,,,,,,,,,,,,,,,,,,,,,,,,,,,,,,,,,4,,,,,,,,,,,,,,,,,,,,,,,,,,,,,,,,,,,,,,,,,
{625}4,,,,,,,,,,,,,,,,,,,,,,,,,,
{983}4,,,,,,,,,,,,,,,,,,,,,,,,,,,,,,,,,,,,,,,,,4,,,,,,,,,,,,,,,,,,,,,,,,,,,,,,,,,,,,,,,,,
{625}4,,,,,,,,,,,,,,,,,,,,,,,,,,
{983}4,,,,,,,,,,,,,,,,,,,,,,,,,,,,,,,,,,,,,,,,,
{983}4,,,,,,,,,,,,,,,,,,,,,,,,,,,,,,,,,,,,,,,,,
{625}4,,,,,,,,,,,,,,,,,,,,,,,,,,
{983}4,,,,,,,,,,,,,,,,,,,,,,,,,,,,,,,,,,,,,,,,,4,,,,,,,,,,,,,,,,,,,,,,,,,,,,,,,,,,,,,,,,,
{625}4,,,,,,,,,,,,,,,,,,,,,,,,,,
{983}4,,,,,,,,,,,,,,,,,,,,,,,,,,,,,,,,,,,,,,,,,4,,,,,,,,,,,,,,,,,,,,,,,,,,,,,,,,,,,,,,,,,
{625}4,,,,,,,,,,,,,,,,,,,,,,,,,,
{983}4,,,,,,,,,,,,,,,,,,,,,,,,,,,,,,,,,,,,,,,,,4,,,,,,,,,,,,,,,,,,,,,,,,,,,,,,,,,,,,,,,,,
{625}4,,,,,,,,,,,,,,,,,,,,,,,,,,
{983}4,,,,,,,,,,,,,,,,,,,,,,,,,,,,,,,,,,,,,,,,,4,,,,,,,,,,,,,,,,,,,,,,,,,,,,,,,,,,,,,,,,,
{625}4,,,,,,,,,,,,,,,,,,,,,,,,,,
{983}4,,,,,,,,,,,,,,,,,,,,,,,,,,,,,,,,,,,,,,,,,4,,,,,,,,,,,,,,,,,,,,,,,,,,,,,,,,,,,,,,,,,
{625}4,,,,,,,,,,,,,,,,,,,,,,,,,,
{983}4,,,,,,,,,,,,,,,,,,,,,,,,,,,,,,,,,,,,,,,,,4,,,,,,,,,,,,,,,,,,,,,,,,,,,,,,,,,,,,,,,,,
{625}4,,,,,,,,,,,,,,,,,,,,,,,,,,
{983}4,,,,,,,,,,,,,,,,,,,,,,,,,,,,,,,,,,,,,,,,,4,,,,,,,,,,,,,,,,,,,,,,,,,,,,,,,,,,,,,,,,,
{625}4,,,,,,,,,,,,,,,,,,,,,,,,,,
{983}4,,,,,,,,,,,,,,,,,,,,,,,,,,,,,,,,,,,,,,,,,
{1}4,
{4},7b/2b,7b/2b,,
{4}2b/8b,6/5,1b/7b,3/4<2[8:3],
{2},6b/1b,
{16}8,,3,4,3,,6,5,6,,3,4,3,,6,5,
{16}6,,3,4,3,,6,5,6,,3,4,3,,7,5,
{16}6,,2,4,3,,7,5,6,,2,4,3,,7,5,
{16}6,,2,4,3,,7,5,6,,2,,1,,8,,
{8}7,,3p6[4:1],3,,,,7h[4:1],
{8},6<3[4:1],6,,,,,3-8[8:1]/4-7[8:1],
{8},,,5-2[8:1]/6-1[8:1],,,,1<5[4:1]/8>4[4:1],
{8},,,,,8/7,1/6,2/5,
{8}3^8[4:1]/4^7[4:1],,,,,2/1,3/8,4/7,
{8}5^2[4:1]/6^1[4:1],,,,,8/7,6/1,2/5,
{8}3v6[4:1]/4-1[4:1],,,,,2/1,3/8,4/7,
{8}5-8[4:1]/6v3[4:1],,,,,1,1,2h[4:1],
{16},,3,,2,,2,,1,2,3,,,,6h[4:1],,
{16},,7,,7,,,,
{821}8,,,,,,,,,,,,,,,,,,,,,,,,,,,,,,,,,,,,,,,,,,,,,,,,,,
{16}7,
{469}6,,,,,,,,,,,,,,,,,,,,,,,,,,,,,,,,,,,,,,,,,,,,,,,,,,,,,,,,,,,,,,,,,,,,,,,,,,,,,,,,,,,,,,,,,,,,,,,,,,,,,,,,,,,,,,,,,,,,,,
{8}5v2[4:1]/7-2[4:1],
{2},1v4[4:1]/6v4[4:1],
{4},7h[4:1],8h[4:1],1h[4:1],
{4}2^7[8:1],,6/1,3/8,
{16}2b/7b,,,,8,1,8,1,7,2,7,2,8,1,8,,
{16}6/2,,,3p6[8:1]/7^2[8:1],,,,,,,,,,,,,{1},
{16},,4/6,,,5/3,,,1^6[8:1]/8^3[8:1],,,,,,,
E
