&title=シアワセうさぎ
&artist=あまね+ビートまりお(COOL&CREATE)
&wholebpm=140
&demo_seek=71.3
&demo_len=14.3
&lv_1=2
&lv_2=4
&lv_3=7
&lv_4=8+
&lv_5=11
&des_4=はっぴー
&des_5=某S氏
&inote_1=(140.0){1},,
{1}1,
{1}1,
{1}2,
{1}2,
{1}3,
{1}3,
{2}4,4,
{2}5,5,
{1}6h[1:1],,,,
{1}7,
{1}7,
{1}8,
{1}8/1,
{1}1h[1:1],,
{1}2h[1:1],,
{1}1,
{1}2,
{1}2-7[4:3],,
{1}8h[1:1],,
{1}7h[1:1],,
{1}8,
{1}7,
{1}7-2[4:3],,
{1}3/4,
{1}3/4,
{2}4,4,
{1}5,
{1}6/5,
{1}6/5,
{2}7,7,
{1}8b,
{2}1,1,
{1}2,
{2}2,2,
{1}3,
{2}3,3,
{1}2,
{1}1-4[4:3],,
{2}8,8,
{1}7,
{2}7,7,
{1}6,
{2}6,6,
{1}7,
{1}8-5[4:3],,
{1}2h[1:1],,
{1}1h[1:1],,
{2}8,8,
{1}8,
{2}1,1,
{769},1b,
E
&inote_2=(140.0){1},,
{2}3,3,
{4}3,4,3,,
{2}6,6,
{4}6,5,6,,
{2}4,4,
{4}4,5,4,,
{2}6/5,5/4,
{4}4/3,5/4,6/5,,
{1}6h[1:1]/3h[1:1],,
{1}6,
{1}6,
{2}7,7,
{2}8,8,
{1}1h[4:3],
{4}8,8,8b/1b,,
{1}1h[2:1],
{1}2h[2:1],
{1}3h[2:1],
{4}4,5,4,,
{1}6h[2:1],
{1}7h[2:1],
{4}8,8,1,1,
{1}2/7,
{1}8h[2:1],
{1}7h[2:1],
{1}6h[2:1],
{4}5,4,5,,
{1}3h[2:1],
{1}2h[2:1],
{4}1,1,8,8,
{1}2h[2:1]/7h[2:1],
{2}2,2,
{4}1,1,1,,
{2}7,7,
{4}8,8,8,,
{1}1h[4:7],
{1}8h[4:3],
{2}1,8,
{4}1,1,1,8b,
{2}1,2,
{4}1,1,2,,
{2}3,4,
{4}3,3,4,,
{2}5,6,
{4}5,5,6,,
{4}7,7,8,8,
{2}8/1,8/1,
{2}8,7,
{4}8,8,7,,
{2}6,5,
{4}6,6,5,,
{2}4,3,
{4}4,4,3,,
{4}2,2,1,1,
{2}1/8,8/1,
{1}1-5[4:3],,
{1}8-4[4:3],,
{2}1/2,1/8,
{1}8/7,
{4}2,2,7,7,
{1}8b/1b,
E
&inote_3=(140.0){1},,
{4}3,3,3,3,
{4}7,7,7,7,
{4}1,1,1,1,
{4}5,5,5,5,
{4}2,2,6,6,
{4}4,4,8,8,
{2}1/2,1/2,
{2}7/8,7/8,
{1}1^4[4:3]/8^5[4:3],,
{2}4/8,7/3,
{4}6/2,,5/1,1/8,
{4}4,3,5,6,
{4}2,1,7,8,
{4}7/8,6/1,5/2,3/4,
{4}1/2,3/8,7/4,6b/5b,
{1}4h[1:1],
{1}6h[1:1],
{1}8h[1:1],
{1}2h[2:1],
{1}8-4[8:3],
{1}1-3[8:3],
{1}8-6[8:3],
{1}1-5[8:3],
{4}6,5,6,6/5,
{4}3,4,3,4/3,
{4}7,8,7,7/8,
{4}8/7,1/8,1/2,,
{1}8h[1:1],
{1}6h[1:1],
{4}4h[4:3],,,2,
{4}4/2,5/3,6b/4b,,
{4}6/5,5/6,3/4,3/4,
{4}5/6,3/4,5/6,,
{4}3/4,5/6,7/8,1/2,
{4}1/8,7/2,6b/3b,,
{1}1p4[2:1],
{1}8q5[2:1],
{1}2v4[2:1],
{1}7v5[2:1],
{4}3,4/3,6,6/5,
{4}2,3/4,7,6/5,
{4}3,2/4,6,5/7,
{4}2,1/3,8/6,6/8,
{4}1h[4:3],,2,2,
{4}8h[4:3],,7,7,
{4}1,8,2,7,
{4}3,,5/4,4b/5b,
{4}1/5,2/6,7/3,8/4,
{4}2/1,1/8,8/7,1/8,
{4}8/4,3/7,6/2,5/1,
{4}1h[4:1]/8h[4:1],,8b/1b,8b/1b,
{4}1,2,3,4,
{4}5,6,7,8,
{4}1h[4:3],,3,3,
{4}8h[4:3],,6,6,
{1}1-5[8:3],
{1}8-4[8:3],
{1}2^7[2:1],
{1}6q3[2:1],
{4}2,1,8,7,
{4}7,8,1,2,
{4}3,4,5,6,
{4}5,4,3,2,
{1}1b,
E
&inote_4=(140.0){1},,
{4}7h[4:1],8,2h[4:1],1,
{4}7h[4:1],8,3/5,6/4,
{4}2h[4:1],1,7h[4:1],8,
{4}2h[4:1],1,5/4,4/5,
{4}7h[4:1],8,2h[4:1],1,
{4}7h[4:1],8,3/6,6/3,
{2}2^5[4:1],7^4[4:1],
{2}2q6[4:1],7p3[4:1],
{1}1b,
{4}8,7,6,5,
{4}1,2,3,4,
{4}8,7,6,5/4,
{4}2,3/4,7,5/6,
{4}2,3/4,7,6/5,
{4}2/4,3,7/5,6,
{1}3q6[2:1],
{4}6h[2:1],,5,5,
{4}3h[2:1],,4,4,
{4}6h[2:1],,5,5,
{1}6q4[8:3],
{4}2,3p6[4:1],,,
{4}7,6q3[4:1],,,
{4}1,2^7[4:1],,,
{1}7v4[8:3],
{4}3h[2:1],,4,7,
{4}6h[2:1],,5,2,
{4}3h[2:1],,4,7,
{4}3/6,1^3[4:1]/8^6[4:1],,,
{4}1/6,7,6,5,
{4}8/3,2,3,4,
{4}7,2,8,1h[8:5],
{2}8h[8:3],2/7,
{4}1,7/8,6,5/4,
{4}3,2/1,8,1/7,
{4}8,2/1,3,4/5,
{4}6,7/8,1/6,,
{4}8h[4:3],7,6,7,
{4}1h[4:3],2,3,2,
{2}7h[8:3]/2h[8:3],2/7,
{4}6^3[4:1],,,8b/1b,
{4}5h[4:1],6,4h[4:1],3,
{4}5h[4:1],4,3/4,6/5,
{4}4h[4:1],3,5h[4:1],6,
{4}4h[4:1],5,6/5,4/3,
{4}6h[4:1],5,3h[4:1],4,
{4}7h[4:1],8,2,2,
{4}4/7h[4:1],6,5/2h[4:1],3,
{2}6h[4:1]/3h[4:1],2b,
{4}7/3h[4:1],1,2/6h[4:1],8,
{4}7/3h[4:1],1,4/6,5/3,
{4}2/6h[4:1],8,7/3h[4:1],1,
{4}2/6h[4:1],8,3/5,6/4,
{4}1/8,8/7,8/1,1/2,
{4}1/8,8/1,5/4,2/7,
{2}7^4[4:1],2^5[4:1],
{2}7p3[4:1],2q6[4:1],
{1}8b,
{4}3,3/4,6,6/5,
{4}2,3/4,7,6/5,
{4}5/4,4/3,4/5,6/3,
{2}8-5[4:1],1-4[4:1],
{4}5,6/5,4,3/4,
{2}6^3[4:1],2^7[4:1],
{4}6q3[4:1],,,
{1}4-1[4:3],,
E
&inote_5=(140.0){1},
{16},,,,,,,,3,,,3,,,2,,
{4}1/2-5[2:1],1,8,8,
{8}7,,7,,6,6,5,5,
{4}3/4-7[2:1],3,2,2,
{8}1,,1,,8,8,7,7,
{4}2/6^1[2:1],3,4,5,
{8}6,,7,,8/4,7,2/6,3,
{16}4/5,,2,,8,,7,7h[16:3],,,1,,5,,4h[4:1],,
{16},,3,,4,,6,,7/3,,,5/1,,,4/8,,
{1}2/6<4[2:1],
{8}7/3>5[2:1],,,,,,,7,
{8}2h[2:1]/7q5[4:1],,,,,,,2,
{16}7h[2:1]/2p4[4:1],,,,,,,,,,7,,,8,,,
{4}1/2^5[2:1],8,7,6,
{4}5/6^1[2:1],4,3,2-5[8:1],
{4}7-4[8:1],1-6[8:1],8-3[8:1],1,
{16}4/5,,3/6,,4,5,,7h[16:5]/2^5[8:1],,,,,,,,,
{16}8/7,,,2/1,,,3/4h[8:3],,,,,,5,,,,
{16}2/1,,,8/7,,,6/5h[8:3],,,,,,4,,,,
{16}7/8,,,4/5,,,2/1h[8:3],,,,,,8,,8h[4:1],,
{8},6,4,2,8,,2/6,,
{16}1/2h[16:3],,,3h[16:3],,,5h[8:3],,,,6,,6,,,,
{16}8/7h[16:3],,,6h[16:3],,,4h[8:3],,,,3,,3,,,,
{16}2/1h[16:3],,,8h[16:3],,,6h[8:3],,,,5,,5,,,,
{4}5/6,6/2,3/7,1/5,
{16}8h[16:3],,,2h[16:3],,,4-7[8:1],,,,1,,2,,,,
{16}2h[16:3],,,8h[16:3],,,6-1[8:1],,,,8,,7,,,,
{16}4h[16:3],,,6h[16:3],,,8-4[8:1],,,,3,,2,,1h[4:1],,
{16},,
{993}3,,,,,,,,,,,,,,,,,,,,,,,,,,,,,,,,,,,,,,,,,,,,,,,,,,,,,,,,,,,,,,,,,,,,,,,,,,,,,,,,,,,,,,,,,,,,,,,,,,,,,,,,,,,,,,,,,,,,,,,,,,,,
{8}5,
{999}7,,,,,,,,,,,,,,,,,,,,,,,,,,,,,,,,,,,,,,,,,,,,,,,,,,,,,,,,,,,,,,,,,,,,,,,,,,,,,,,,,,,,,,,,,,,,,,,,,,,,,,,,,,,,,,,,,,,,,,,,,,,,,
{4}1,3/7,
{16}8h[4:1]/1^4[8:1],,,,,,,,8,,,7,,,6,,
{16}4h[4:1]/5^8[8:1],,,,,,,,4,,,3,,,2,,
{8}6/1,,8/3,,1,5,3,7,
{2}7^4[8:1]/8^3[8:1],6b/1b,
{4}8h[4:1]/2h[4:3],,4,8-5[8:1],
{4}8-3[8:1],8-4[8:1],8h[4:1],,
{8}1/2h[4:1],,3,5,8/7h[4:1],,6,4,
{2}1^6[8:1]/2^5[8:1],3b/8b,
{16}5>1[4:1],,,,,,,,7,,,6,,,5,,
{16}4<8[4:1],,,,,,,,2,,,3,,,4,,
{8}5h[4:1],,6,5,4h[4:1],,3,4,
{16}7/3,,,1/5,,,8/4,,6/2,,,,1b,,,,
{16}7,,3,4,3,,4,,5,,7,,8,,2h[4:1],,
{8},1,1,,3,4/2,6,5/7,
{16}2,,6,5,6,,5,,4,,2,,1,,7h[4:1],,
{8},8,8,,7,8/6,2,1/3,
{16}4,,7,8,7,,8,,1,,3,,4,,6h[4:1],,
{8},5,5,,2-6[8:1],7-3[8:1],,,
{16}2,,8,,1,,7^4[8:1],7,,,,,,,2/6,,
{16},,7/3,,,,2,,6,,1,1,,,7,,
{16}2,,5,4,6,,4,,3,,1,,2,,8^3[8:1],,
{8},7,7,,5,6/4,4,3/5,
{16}7,,4,5,3,,5,,6,,8,,7,,1^6[8:1],,
{8},2,2,,1,8/2,8,1/7,
{16}6,,1,8,2,,8,,7,,5,,6,,4^7[8:1],,
{8},3,3,,5/1,2,7/3,6,
{16}4/5,,7,,1,,2,2h[16:3],,,8,,4,,5h[4:1],,
{16},,6,,5,,3,,2/6,,,4/8,,,5/1,,
{8}3-8[8:3]/7-4[4:3],,,,,,,8,
{16}8>4[4:1],,,,,,,,,,8,,,7,,,
{16}6^3[8:1],,,,,,,,2/1,,,5/6,,,1^6[8:1]/2^5[8:1],,
{8},,,,,1,8,7,
{8}6-2[8:1],,,7,8,1h[4:1],,4-8[8:1],
{8},,,,3/7,1/5,,3h[8:3],
{8},,4,4p5[4:1],,4>5[2:1],,,{1},
{1}1b/8b,
E
