&title=キズナの物語
&artist=Trefle「チェインクロニクル」
&wholebpm=128
&demo_seek=77.4
&demo_len=31.3
&lv_1=1
&lv_2=3
&lv_3=7
&lv_4=9
&lv_5=13
&des_4=Jack
&des_5=はっぴー
&inote_1=(128.0){1},
{769},1,,,,,,,,,,,,,,,,,,,,,,,,,,,,,,,,,,,,,,,,,,,,,,,,,,,,,,,,,,,,,,,,,,,,,,,,,,,,,,,,,,,,,,,,,,,,,,,,,,,,,,,,,,,,,,,,,,,,,,,,,,,,,,,,,,,,,,,,,,,,,,,,,,,,,,,,,,,,,,,,,,,,,,,,,,,,,,,,,,,,,,,,,,,,,,,,,,,,,,,,,,,,,,,,,,,,,,,,,,,,,,,,,,,,,,,,,,,,,,,,,,,,,,,,,,,,,,,,,,,,,,,,,,,,,,,,,,,,,,,,,,,,,,,,,,,,,,,,,,,,,,,,,,,,,,,,,,,,,,,,,,,,,,,,,,,,,,,,,,,,,,,,,,,,,,,,,,,,,,,,,,,,,,,,,,,,,,,,,,,,,,,,,,,,,,,,,,,,,,,,,,,,,,,,,,,,,,,,,,,,,,,,,,,,,,,,,,,,,,,,,,,,,,,,,,,,,,,,,,,,,,,,,,,,,,,,,,,,,,,,,,,,,,,,,,,,,,,,,,,,,,,,,,,,,,,,,,,,,,,,,,,,,,,,,,,,,,,,,,,,,,,,,,,,,,,,,,,,,,,,,,,,,,,,,,,,,,,,,,,,,,,,,,,,,,,,,,,,,,,,,,,,,,,,,,,,,,,,,,,,,,,,,,,,,,,,,,,,,,,,,,,,,,,,,,,,,,,,,,,,,,,,,,,,,,,,,,,,,,,,,,,,,,,,,,,,,,,,,,,,,,,,,,,,,,,,,,,,,,,,,,,,,,,,,,,,,,,,,,,,,,,,,,,,,,,,,,,,,,,,,,,,,,,,
{1}1,
{1}8,
{1}8,
{1}1,
{1}1,
{1}2h[1:1],,
{1}1,
{1}2,
{1}3,
{1}4,
{1}5,
{1}6,
{1}7,
{1}8,
{1}7,
{1}7,
{1}8,
{1}8,
{1}1,
{1}1,
{1}2,
{1}2,
{1}1,
{1}8,
{1}8,
{1}1,
{1}2,
{1}2,
{1}1,
{1}2b,
{1}3h[1:1],,
{1}4h[1:1],,
{1}5h[1:1],,
{1}6h[1:1],,
{1}7b,
{1}8-5[4:3],,
{1}4-1[4:3],,
{1}1,
{1}1,
{1}8,
{1}8,
{1}1b,
{1}2,
{1}3,
{1}4,
{1}5,
{1}6,
{1}7,
{1}8,
{1}1h[1:1],,
{1}1h[1:1],,
{1}8h[1:1],,
{1}8-4[4:3],,
E
&inote_2=(128.0){1},1,
{1}8,
{2}1,1,
{1}2h[2:1],
{1}3/4,
{1}6/5,
{1}7-3[4:3],,
{2}2,2,
{1}1,
{2}8,8,
{1}7,
{2}6,6,
{2}5,5,
{2}4,4,
{1}3b,
{2}1,1,
{1}2h[2:1],
{2}3,3,
{1}4h[2:1],
{2}5,5,
{1}6h[2:1],
{2}7,7,
{1}8h[2:1],
{4}1,1,,,
{4}8,8,,,
{4}7,7,,,
{1}6h[2:1],
{4}5,5,,,
{4}4,4,,,
{4}3,3,,,
{1}2h[2:1],
{2}1,1,
{2}2/1,2/1,
{2}3,3,
{1}4h[2:1]/3h[2:1],
{2}5,5,
{2}6/5,6/5,
{2}7,7,
{1}8-3[4:3],,
{1}1b,
{1}8b,
{4}1,1,8,8,
{1}7h[2:1]/2h[2:1],
{4}3,3,3,,
{4}4,4,4,,
{2}5,6,
{1}6/5,
{1}8b,
{1}1b,
{4}8,8,1,1,
{1}7h[2:1]/2h[2:1],
{4}6,6,6,,
{4}5,5,5,,
{1}4-1[4:3],,
{2}2,2,
{1}2h[2:1]/1h[2:1],
{2}8,8,
{1}7h[2:1]/8h[2:1],
{2}7,6,
{2}5,4,
{2}3,
{1}3-6[4:3],,
E
&inote_3=(128.0){1},2-7[2:1],
{1}6-3[2:1],
{1}1-6[2:1],
{1}8-3[2:1],
{1}4-1[2:1],
{1}5-8[2:1],
{1}3q6[4:3],
{4},,8b,8b,
{4}1,3,5,,
{4}8,6,4,,
{4}2,1,8,,
{4}6,5,4,4/3,
{4}1,2,3,4,
{4}8,7,6,5,
{4}3,6,2,7,
{4}1h[2:1],,8b,8b,
{1}7h[4:3],
{4}1,3,5,3,
{1}2h[4:3],
{4}8,6,4,6,
{1}7^2[2:1],
{1}3^6[2:1],
{1}1-5[2:1],
{1}8-4[2:1],
{4}1,1,1^3[16:3],,
{4}8,8,8^6[16:3],,
{4}3,3,3^5[16:3],,
{4}6,6,6^4[16:3],,
{4}1,1,1-3[16:3],,
{4}8,8,8-6[16:3],,
{2}3-5[16:3],6-4[16:3],
{1}1h[4:3],
{1}2h[1:1],
{1}8h[1:1],
{1}1h[1:1],
{1}7h[4:3],
{1}3h[1:1],
{1}5h[1:1],
{1}4h[1:1],
{1}6h[1:1],
{4},,1b/8b,1b/8-4[16:3],
{4},,1,1-5[16:3],
{4},,8,8,
{4}8,7,6,5,
{4}4,3,2,1b,
{4}8,8-4[16:3],,,
{4}1,1-5[16:3],,,
{4}1/2,2/1,8/7,8/7,
{4}8/1,2/7,6/3,4-1[16:3]/5-8[16:3],
{4},,1/2,1-6[16:3]/2-5[16:3],
{4},,7/8,7-4[16:3]/8-3[16:3],
{2},6/5,
{4}8/7,,2/1,1b/8b,
{4}2,2,2,1/8,
{4}7,7,7,8/1,
{1}2h[2:3]/7h[2:3],
{4},,,8b/1b,
{4}8,6,4,,
{4}1,3,5,,
{4}7,8,1,,
{4}3,4,5,5/6,
{4}8,7,6,5,
{4}1,2,3,4,
{4}6,3,7,
{2}2<5[4:5],{1},,
E
&inote_4=(128.0){1},2q4[8:5],
{1}7p5[8:5],
{2}3h[4:1],6h[4:1],
{1}4^1[8:5]/5^8[8:5],
{4}2,3,3/4,,
{4}7,6,6/5,4,
{1}3>6[4:5],,
{4}3,3,3,2/1,
{4}6,6,6,7/8,
{4}7,5,3,4/3,
{4}2,4,6,5/6,
{4}7,3,5,1/8,
{4}2,6,4,8/1,
{4}6,7/8,3,2/1,
{4}6,3,2/7,1b/8b,
{8}7,,1,,3,,5,6h[8:7],{1},
{8}2,,8,,6,,4,3h[8:7],{1},
{8}6,5,6,,3,4,3,,
{8}2,1,8,7h[8:3],,,,,
{8}4/3,,6/5,,7,8,1,2<5[8:5],{1},
{8}3,,4,,5,,6h[1:1],1h[8:7],{1},
{8}6,,5,,4,,3h[1:1],8h[8:7],{1},
{8}7,8,7,,2,1,2,,
{8}7,8,
{999}1,,,,,,,,,,,,,,,,,,,,,,,,,,,,,,,,,,,,,,,,,,,,,,,,,,,,,,,,,,,,,,,,,,,,,,,,,,,,,,,,,,,,,,,,,,,,,,,,,,,,,,,,,,,,,,,,,,,,,,,,,,,,,
{997}2h[1251:469],,,,,,,,,,,,,,,,,,,,,,,,,,,,,,,,,,,,,,,,,,,,,,,,,,,,,,,,,,,,,,,,,,,,,,,,,,,,,,,,,,,,,,,,,,,,,,,,,,,,,,,,,,,,,,,,,,,,,,,,,,,,,,,,,,,,,,,,,,,,,,,,,,,,,,,,,,,,,,,,,,,,,,,,,,,,,,,,,,,,,,,,,,,,,,,,,,,,,,,,,,,,,,,,,,,,,,,,,,,,,,,,,,,,,,,,,,,,,,,,,,,,,,,,,,,,,,,,,,,,,,,,,,,,,,,,,,,,,,,,,,,,,,,,,,,,,,,,,,,,,,,,,,,,,,,,,,,,,,,,,,,,,,,,,,,,,,,,,,,,,,,,,,,,,,,,,,,,,,,,,,,,,,,,,,,,,,,,,,,,,,,,,,,,,,,,,,,,,,,,,,,,,,,,,,,,,,,,,,,,,,,,,,,,,,,,,,,,,,,,,,,,,,,,,,,,,,,,,,,,,,,,,,,,,,,,,,,,,,,,,,,,,,,,,,,,,,,,,,,,,,,,,,,,,,,,,,,,,,,,,,,,,,,,,,,,,,,,,,,,,,,,,,,,,,,,,,,,,,,,,,,,,,,,,,,,,,,,,,,,,,,,,,,,,,,,,,,,,,,,,,,,,,,,,,,,,,,,,,,,,,,
{8}6/5,,3/4,,2,1,8,7>4[8:5],{1},
{4}4,3,2,1,
{1}8q5[2:1],
{4}5,6,7,8,
{1}1p4[2:1],
{4}4,5,6,8/7,
{4}4,3,2,2/1,
{4}7,3,6,2,
{1}1^4[2:1]/5^8[2:1],
{8}2,7,,7h[4:1]/2h[4:1],,,7b/2b,,
{8}3,,3,,7,8,1,,
{8}6,,6,,2,1,8,,
{2}7-5[16:3],2-4[16:3],
{1}4^1[8:3]/5^8[8:3],
{8}3h[8:3],,,4,4/3,,,,
{8}6h[8:3],,,5,5/6,,,,
{4}1/8,3/6,7/2,5/4,
{8}7b/2b,7b/2b,,,6,3,6,3,
{8}2,1,8,,3,6,3,6,
{8}7,8,1,,5,6,7,8,
{2}1-4[16:3],8-5[16:3],
{4}3h[8:5],6h[8:3],,7b/2b,
{8}7h[8:3],,,8,7/8,,,,
{8}2h[8:3],,,1,2/1,,
{4}1^6[4:3]/2^5[4:3],{1},,
{8}4/5,,2,7,,7/8,7/8,7^4[8:3]/8^3[8:3],{1},
{8}5/4,,7,2,,2/1,
{4}1^6[8:3]/2^5[8:3],{1},
{8}3h[4:1]/6h[4:1],,,2-4[8:1],,,,1-5[8:1],
{8},,,8-4[8:1],,,,7-5[8:1],
{8},,,4/5,,3/6,,2b/7b,
E
&inote_5=(128.0){1},2h[1:1],
{1}3h[1:1],
{4}4h[4:1],5h[4:1],6h[4:1],7h[4:1],
{1}8<3[2:1],
{1}2q5[2:1],
{4}7p4[2:1],,,3>6[1:1],{1},
{2},4^7[8:1]/5^2[8:1],
{8}4/8,7,6,5/1,2,3,4-7[8:1],,
{4}5-2[8:1],4-8[8:1],5-1[8:1],,
{8}5/1,2,3,8/4,7,6,5-2[8:1],,
{4}4-7[8:1],5-1[8:1],4-8[8:1],,
{8}5,6-1[8:1],7,,,3-8[8:1],2,,
{8},7-4[8:1],6,,,2-5[8:1],3,,
{8},7q6[8:1],6,,,2<3[8:3],3,,
{4},,5/4,3/6,
{2}7h[4:3]/8-5[8:1],8-6[8:1],
{2}2h[4:3]/1-4[8:1],1-3[8:1],
{2}7s3[4:1],2z6[4:1],
{2}7s3[4:1],2z6[4:1],
{2}7-4[8:1],2-5[8:1],
{2}6-4[8:1],3-5[8:1],
{2}5v4[8:1],3p6[8:1],
{1}7>4[2:1],
{2}4p5[4:1],8z4[4:1],
{2}1s5[4:1],8z4[4:1],
{4}1-4[4:1],4-7[4:1],7-2[4:1],2^5[4:1],
{4}5^8[4:1],8^3[4:1],3,5b,
{4}1p4[8:1],1^6[8:1],1p4[8:1],,
{4}8q5[8:1],8^3[8:1],8q5[8:1],,
{2}6-1[8:1],5-2[8:1],
{1}1<3[2:1],
{4}1v3[8:1],2v4[8:1],3v5[8:1],4v6[8:1],
{4}5v7[8:1],6v8[8:1],7v1[8:1],,
{4}8v6[8:1],7v5[8:1],6v4[8:1],5v3[8:1],
{16}4v2[8:1],,,,3v1[8:1],,,,,,,,,,8,1<5[16:5],
{16}2,,,,,,,,,,,,,,1,8>4[16:5],
{16}7,,,,,,,,,,,,,,6,5<1[16:5],
{16}4,,,,,,,,,,,,,,3,4-8[16:5],
{1}5,
{4}2b/6b,8/4,2^4[8:1]/6^4[8:1],2^8[8:1]/6^8[8:1],
{4}2b/6b,,3^5[8:1]/7^5[8:1],3^1[8:1]/7^1[8:1],
{4}3b/7b,,8^3[4:1],3^6[4:1],
{4}6^1[4:1],1^4[4:1],4^7[4:1],7p4[2:1],
{16},,,,,,,,,,,,,,3/7,2v8[16:7]/6v4[16:7],
{16}1/5,,,,,,,,,,,,,,6/2,3v1[16:7]/7v5[16:7],
{1}4/8,
{4}7-3[4:1],3-6[4:1],6-2[4:1],2<6[4:1],
{4}6b,,1^6[8:1]/2^5[8:1],2q7[8:1],
{4},,7^4[8:1]/8^3[8:1],7p2[8:1],
{2},2q7[8:1]/7^2[8:1],
{4}1-3[8:1],8-4[8:1],1-5[8:1],8-6[8:1],
{4}1-4[8:1],8-5[8:1],,7-2[8:1],
{4}3-6[8:1],8-4[8:1],,1-5[8:1],
{4}1-7[8:1],1v3[8:1],,1b/2b,
{1}1q5[4:3]/2-7[4:3],,
{4}2h[4:7]/8-5[8:1],8-3[8:1],8-6[8:1],8-4[8:1],
{4}8-5[8:1],8-3[8:1],8-6[8:1],,
{4}7h[4:7]/1-4[8:1],1-6[8:1],1-3[8:1],1-5[8:1],
{4}1-4[8:1],1-6[8:1],1-3[8:1],,
{4}1/8-5[8:1],1/8-3[8:1],2/8-6[8:1],2/8-4[8:1],
{4}1/8-5[8:1],1/8-3[8:1],2/8-6[8:1],2,
{4}7/1-5[8:1],7/1-3[8:1],,1q5[2:3]/7p3[2:3],,,{1},,
E
