&title=maiム・maiム feat.週刊少年マガジン
&artist=にしもと先生、タクマ、どんちゃん「ちょっと盛りました。」
&wholebpm=140
&demo_seek=15.3
&demo_len=13.7
&lv_1=3
&lv_2=5
&lv_3=7+
&lv_4=11+
&lv_5=13
&des_4=ニャイン
&des_5=はっぴー
&inote_1=(140.0){1},8,,,,
{1}1,,,,
{1}2,
{1}1,
{1}8,
{1}7,
{4}8,8,8,8,
{1}8,
{4}1,1,1,1,
{1}1b,
{4}8,8,8,8,
{1}8,,
{4}1,1,1,1,
{2}1,8,{1},
{4},,,6,{1},
{4},,,5,
{4}5,5,5,5,
{2}5,5b,
{4}4,4,4,4,
{1}4,
{4}5,5,5,5,
{1}5,
{1}4,
{4}4,4,4,4,
{1}4,
{1}3h[2:1],
{1}3,
{1}2h[2:1],
{1}2,
{4}1,1,1,1,
{1}1,
{4}8,8,8,8,
{1}8,
{4}1,1,1,1,
{1}1,,
{4}8,8,8,8,
{4}8,,,7b,
{4}7,7-2[2:1],,,{1},
{4}3,3-6[2:1],,,{1},
{2}5,5,
{2}4,4,
{2}3,3,
{2}2,2,
{4}1,1,1,1,
{1}1,
{4}8,8,8,8,
{1}8,
{4}1,1,1,1,
{1}1,,
{4}1/8,8/1,8/1,8/1,
{4}8/1,,,8b,
{1}8,
{1}8,
{1}1,
{1}1,
{4}2,2,,,
{4}1,1,,,
{4}8,8,,,
{4}7,7,,8b,
E
&inote_2=(140.0){1},,,,,
{1}3h[2:1],
{1}3h[2:1],
{1}3h[2:1],
{1}3h[2:1],
{2}4,3,
{2}4,4/3,
{2}5,6,
{2}5,6/5,
{1}4-1[2:1],
{1}8-5[2:1],
{1}4-1[2:1],
{1}8-5[2:1],
{2}4h[4:1],4h[4:1],
{2}3,3,
{2}3,3,
{2}6,6,
{2}6,6,
{1}5h[1:1],
{4},,,5b,
{1}4h[1:1],
{4},,,4b,
{1}4-1[2:1],
{1}8-5[2:1],
{1}4-1[2:1],
{1}8-5[2:1],
{2}4h[4:1],4h[4:1],
{2}3,3,
{2}3,3,
{2}6,6,
{2}6,6,
{1}3,
{1}3,
{1}6,
{1}6,
{1}4-1[2:1],
{1}8-5[2:1],
{1}4-1[2:1],
{1}8-5[2:1],
{2}4h[4:1],4h[4:1],
{2}3,3,
{2}3,3,
{2}6,6,
{2}6,6,
{1}6-3[2:1],,
{1}2-7[2:1],,
{4}8,8,8,,
{4}1,1,1,,
{4}2,2,2,,
{4}3,3,3,,
{1}4-1[2:1],
{1}8-5[2:1],
{1}4-1[2:1],
{1}8-5[2:1],
{2}4h[4:1],4h[4:1],
{2}3,3,
{2}3,3,
{2}6,6,
{2}6,6,
{4}6,6,6h[4:1],,
{4}5,5,5h[4:1],,
{4}4,4,4h[4:1],,
{4}3,3,3h[4:1],,
{4}4,4,3,,
{4}5,5,6,,
{4}4,5,4/5,,
{4}5,4,4/5,6b/3b,
E
&inote_3=(140.0){1},1/8,
{1}1/8,
{1}1/8,
{1}1/8,
{2}1/2,3/4,
{2}6/5,8/7,
{2}5/6,3/4,
{4}1,1,8,7b,
{4}1,2,3,4,
{4}5,6,7,1/8,
{4}7,6,5,4,
{4}3,2,1,1b,
{4}7/8,7/8,2/1,2/1,
{8}8,,8,,7,7,7,,
{4}3/4,4/3,5/6,5/6,
{8}4,,4,,2,2,2,,
{4}8/1,7/8,1/8,1/2,
{8}8,8,8,,6,6,6,,
{4}7,8,1,2,
{2}3-6[4:1],7-2[4:1],
{4}1h[2:1],,8,8/1,
{2}2,4,
{8}6,,,,,8b,8b,,
{2}6,4,
{8}2h[8:3]/1h[8:3],,,,,1b/8b,1b/8b,,
{4}7/8,7/8,6/5,6/5,
{8}3h[4:3],,,,2,2,2,,
{4}1/2,2/1,4/3,3/4,
{8}6h[4:3],,,,5,5,5,,
{4}2/3,2/3,1/2,1/2,
{4}3,3,5,5,
{4}7,7,1,1,
{4}7/8,7/8,6/5,5/6,
{8}3h[2:1]/4h[2:1],,,,,1b/2b,1b/2b,,
{4}1,2,3,4,
{4}5,6,7,8,
{4}7,6,5,4,
{4}3,2,1,1/8,
{4}7/8,7/8,2/1,2/1,
{8}8h[4:3],,,,7,7,7,,
{4}1/2,2/1,7/8,7/8,
{8}6h[4:3],,,,5,5,5,,
{4}3/4,3/4,5/6,5/6,
{2}4h[2:1],2h[2:1],
{4}3,4,5,6,
{2}7h[2:1],1h[2:1],
{4}8,6,4,2b,
{4}1,1^4[4:1],,,
{4}6,6^1[4:1],,,
{4}2,2^5[4:1],,,
{4}7,7^2[4:1],,,
{4}3,3^8[4:1],,,
{4}7,7^4[4:1],,,
{4}2,2^7[4:1],,,
{4}6,6^3[4:1],,,
{4}2/1,4/3,5/6,7/8,
{8}1-5[8:1],,,,,8,8/1,,
{4}8/7,6/5,3/4,2/1,
{8}8-4[8:1],,,,,1,1/8,,
{2}2h[2:1],6h[2:1],
{4}4,4,5,5,
{4}4,6,2,8,
{2}7h[2:1],3h[2:1],
{8}5,,3,,1,8b,8b,,
{4}3h[4:1],4h[4:1],5h[4:1],6,
{4}6h[4:1],5h[1607:404],4h[4:1],3,
{4}2h[4:1],3h[4:1],4h[4:1],5,
{4}7h[4:1],6h[4:1],5h[4:1],4,
{8}2,,2,,,8b,8b,,
{4}1,1,8b/7b,7b/8b,
{8}2,,2,,,8b,8b,,
{4}2/1,6/5,4/3,7/2,
E
&inote_4=(140.0){1},
{4}1/2,3/2,2/1,3/4,
{4}5/4,6/5,4/5,7/6,
{4}8/1,1/2,8/1,8/7,
{4}3/4,6/5,2/1,7/8,
{8}2,2,2,,4,4,4,,
{8}1,1,1,,8,8/7,6/7,,
{8}1,1,1,,2,2,2,,
{4}1/8,6/5,3b/2b,8b/1b,
{8}1,2,3,3,1,8,7,6,
{8}8,2,4,6,6,5/4,3/2,,
{8}1,2,3,3,1,8,7,6,
{8}7/5,6/8,1/7,3,2,8b/1b,8b/7b,,
{4}2/8,1/5,3/7,2/6,
{8}8-4[8:1],8,,,3/5,6/4,7/5,,
{4}3/7,2/6,4/7,2/6,
{8}1-5[8:1],1,,,4/6,5/3,4/6,,
{4}8^5[8:1],1^4[8:1],1^6[8:1],,
{16}8,,2,,4,5,4,,6,,4,,1,,1,,
{8}8-4[8:1],8,,2,2,5,7b,,
{16}1,,7,,5,6,5,,3,,5,,8,,8,,
{8}1-5[8:1],1,,7,7,4,2b/1b,,
{2}3h[4:1],4h[4:1],
{8}5h[4:1],,,,6,8b/7b,8b/1b,,
{2}7h[4:1],6h[4:1],
{8}8,1,2,3,4,6b/5b,8b/7b,,
{4}8/2,1/5,3/7,2/6,
{8}8-4[8:1],8,,,3/5,6/4,5/7,,
{4}7/3,6/2,4/7,6/2,
{8}1-5[8:1],1,,,6/4,3/5,6/4,,
{4}8^5[8:1],1^4[8:1],1^6[8:1],,
{16}8,,2,,4,5,4,,6,,4,,1,,1,,
{8}8-4[8:1],8,,2,2,5,7b,,
{16}1,,7,,5,6,5,,3,,5,,8,,8,,
{8}1-5[8:1],1,,7,7,3b/4b,1b/2b,,
{8}2,3,1,2,8,1,7,8,
{8}6,7,5,3,4,6/5,7/6,,
{8}5,3,4,2,4,6,4,2,
{8}3,5,7,1,3,2/4,1/3,,
{4}7-2[8:1],3-6[8:1],7-2[8:1],,
{8},1,7,5,3,1,1b,,
{4}2-7[8:1],6-3[8:1],2-7[8:1],,
{8},8,2,4,6,4,2b,,
{2}1h[2:1],7h[2:1],
{16}8,,1,,2,3,2,,8,,7,,6,5,6,,
{8}7^2[4:1],,,,3,1,7b,,
{16}6,,5,,4,3,4,,6,,7,,8,1,8,,
{8}7^4[4:1],,,,3,5,7b,,
{16}1h[16:3],,,8,8h[16:3],,,7,7h[16:3],,,6,6h[16:3],,,5,
{16}5h[16:3],,,4,4h[16:3],,,3,3h[16:3],,,2,2h[16:3],,,4,
{16}4h[16:3],,,6,6h[16:3],,,8,8h[16:3],,,6,6h[16:3],,,4,
{16}4h[16:3],,,3,3h[16:3],,,4,4h[4:1],,,,,,,,
{4}3/4,1/2,7h[4:1]/8h[4:1],,
{4}1/8,2/3,4h[4:1]/3h[4:1],,
{4}1/2,7/8,7h[4:1]/6h[4:1],,
{4}5/6,8/7,2b/1b,,
{8}1/5,1,5,5,7/3,3,7,7,
{8}1-5[8:1],1,,7,4/6,3/5,4/2,,
{8}3/7,7,3,3,1/5,5,1,1,
{8}8-4[8:1],8,,2,5/3,4/6,3/5,,
{4}1^4[8:1],8^5[8:1],8^3[8:1],,
{16}8,,2,,4,3,4,,6,,4,,1,2,1,,
{16}8-4[8:1],,8,,,,2,3,2,,5,,7b,,,,
{16}1,,7,,5,6,5,,3,,5,,8,7,8,,
{16}1-5[8:1],,1,,,,7,6,7,,5b/6b,,7b/8b,,,,
{16}6h[16:3],,,5,5,,6,,7h[16:3],,,8,8,,1,,
{16}2h[16:3],,,3,3,,2,,1,,8/1,,7/8,,,,
{16}1h[16:3],,,2,2,,3,,1h[16:3],,,8,8,,7,,
{16}6h[16:3],,,5,5,,4,,5,,5/7,,6b/8b,,,,
{8}2/1,,7/8,,,8b/1b,1b/2b,,
{8}1/8,,6/7,,8,8b/2b,1,3b/1b,
{8}8/2,,1/7,,,8b/1b,2b/1b,,
{16}3,4,3,4,3,,7,6,7,,8b/1b,,2b/7b,
E
&inote_5=(140.0){1},
{4}5h[4:1],6,6h[4:1],8,
{4}4h[4:1],3,3h[4:1],1,
{4}5h[4:1],6,4h[4:1],1,
{4}4h[4:1],3,5h[4:1],8,
{8}1h[4:1],2,3,,8h[4:1],7,6,,
{8}2h[4:1],4,5,,7,5,4/6,,
{8}2/4,3,4/2,,7/5,6,7/5,,
{4}4-1[8:1],3-8[8:1],6-1[8:1],8,
{16}8/3,,8/3,,8/3,7/2,6/1,,1/6,,1/6,,6/1,2/7,3/8,,
{16}8/3,,8/3,,8/3,7/2,6/1,,1/6,,8/3,,7b/2b,,,,
{16}8/3,,8/3,,8/3,2/7,6/1,,1/6,,6/1,,6/1,2/7,3/8,,
{641}1,,,,,,,,,,,,,,,,,,,,
{639}2,,,,,,,,,,,,,,,,,,,,3,,,,,,,,,,,,,,,,,,,,
{641}4,,,,,,,,,,,,,,,,,,,,5,,,,,,,,,,,,,,,,,,,,
{639}6,,,,,,,,,,,,,,,,,,,,7,,,,,,,,,,,,,,,,,,,,
{641}8,,,,,,,,,,,,,,,,,,,,1,,,,,,,,,,,,,,,,,,,,
{639}2,,,,,,,,,,,,,,,,,,,,3,,,,,,,,,,,,,,,,,,,,
{641}4,,,,,,,,,,,,,,,,,,,,5,,,,,,,,,,,,,,,,,,,,
{639}6,,,,,,,,,,,,,,,,,,,,7,,,,,,,,,,,,,,,,,,,,
{641}8,,,,,,,,,,,,,,,,,,,,1,,,,,,,,,,,,,,,,,,,,
{639}2,,,,,,,,,,,,,,,,,,,,3,,,,,,,,,,,,,,,,,,,,
{641}4,,,,,,,,,,,,,,,,,,,,5,,,,,,,,,,,,,,,,,,,,
{639}6,,,,,,,,,,,,,,,,,,,,7,,,,,,,,,,,,,,,,,,,,
{641}8,,,,,,,,,,,,,,,,,,,,
{8}1b,,
{8}6/8,7,3/1,2,8/6,7,1/3,2,
{8}8,7/6,5,4/3,2,1/8,7b,,
{8}1/3,2,8/6,7,1/3,2,8/6,7,
{8}1,2/3,4,5/6,7,8/1,2b,,
{8}8/7,6,1/2,3,8/7,6,1/2,3,
{16}8/1,,8/1,,7,6,7,,1/8,,8/1,,2,3,2,,
{16}4/5,,3/6,,7/2,,1,8,1,,1/8,,7/2,,,,
{16}5/4,,4/5,,2,3,2,,4/5,,4/5,,7,6,7,,
{16}8/1,,7/2,,6/3,,5,4,5,,5/4,,6b/3b,,,,
{4}1,3,5,7,
{8}1,,3,,5,7b/1b,8b/2b,,
{4}8,6,4,2,
{8}1/7,8/2,1/7,2/8,,1b/6b,8b/3b,,
{4}8-4[8:1],6-2[8:1],7-3[8:1],5-2[8:1],
{8},,,,4,8b,8b,,
{4}1-5[8:1],3-7[8:1],2-6[8:1],4-7[8:1],
{8},,1-5[4:1],,,1b,1b,,
{8}5/4,3/8,4/5,1/6,5/4,3/8,5/4,6/1,
{16}8,,8,,7,6,5,,1,,1,,3,4,5,,
{16}8,,8,,1,,1,2,3,,7b/4b,,5b/8b,,,,
{8}4/7,6/5,5/2,3/4,7/4,5/6,5/2,3/4,
{8}5-1[4:1],,,,,1b/6b,3b/8b,,
{4}7-2[8:1],1-4[8:1],3-6[8:1],5-8[8:1],
{8}7-2[8:1],,1-4[8:1],,3-6[8:1],5b,5b,,
{4}1-6[8:1],7-4[8:1],5-2[8:1],3-8[8:1],
{8}1-6[8:1],,7-4[8:1],,5-2[8:1],8b,8b,,
{8}1/7,4,2/8,5,1/7,4,2/8,5,
{8}2^5[16:3],,6^3[16:3],,2^5[8:1],8b,8b,,
{8}2/8,5,1/7,4,2/8,5,1/7,4,
{8}7^4[16:3],,3^6[16:3],,7^4[8:1],1b,1b,,
{2}3-8[8:1]/5-8[8:1],4-1[8:1]/6-1[8:1],
{8}3-8[8:1]/5-8[8:1],3/5,,,4-1[8:1]/6-1[8:1],6/4,,,
{8}3/5,,3/1,2/8,1/7,8b/6b,7b/5b,,
{8}3-8[8:1]/5-8[8:1],3/5,,,4-1[8:1]/6-1[8:1],6/4,,,
{8}8/6,7/1,2/8,3/1,4/2,1b,1b,,
{4}1^4[4:1],4^7[4:1],7^2[4:1],2^5[4:1],
{4}5^8[4:1],8^3[4:1],3^6[4:1],6^1[4:1],
{4}1^4[4:1],4^7[4:1],7^2[4:1],2^5[4:1],
{4}5^8[4:1],8^3[4:1],3b,6b,
{4}8^5[4:1],5^2[4:1],2^7[4:1],7^4[4:1],
{4}4^1[4:1],1^6[4:1],6^3[4:1],3^8[4:1],
{4}8^5[4:1],5^2[4:1],2^7[4:1],7^4[4:1],
{4}4b,1b,1-4[8:1]/8-5[8:1],,
{8}6/7,8,2/1,3,4/5,6,7/8,1,
{8}7/5-1[8:1],,,,2/4-8[8:1],1b,1b,,
{8}3/2,1,7/8,6,5/4,3,1/2,8,
{16}1,5,2,6,3,7,4,8,5,,8b,,8-4[8:1],,,,
{4}2-6[8:1],7-3[8:1],1-5[8:1],,
{2}1^4[8:1]/4^7[8:1],5^2[8:1]/8^5[8:1],
{16}3,4,,4,5,,5,,5,,7b,,7b,,,,
{4}5-1[8:1],3-7[8:1],6-1[8:1],,
{16}8,8,4,4,6,6,2,2,,,1b/5b,,3b/7b,,,,
{4}2^7[4:1],7-3[4:1],3^6[4:1],6b,
{4}7-2[4:1],2^7[4:1],7^4[4:1],4b,
{8}2^5[8:1],5^8[8:1],2h[2:1],,,,1b,,
{4}4-1[8:1],3-7[8:1],6-1[8:1],8b,
{8}7/5-1[8:1],,3-8[8:1],,,2,3b/1b,,
{8}2/4-8[8:1],,6-1[8:1],,7,6b/8b,2,1b/3b,
{8}5-1[8:1],,3-8[8:1],,,2,3b/1b,,
{16}1,1,7,8,7,7,2,1,6b/8b,,3b/1b,,7b/2b,
E
