&title=Save This World νMIX
&artist=「PHANTASY STAR PORTABLE」
&wholebpm=143
&demo_seek=39.7
&demo_len=13.7
&lv_1=3
&lv_2=4
&lv_3=8
&lv_4=10+
&lv_5=13
&lv_6=13
&des_4=某S氏
&des_5=はっぴー
&des_6=しろいろ
&inote_1=(143.0){1},,
{4},2,,,
{4},2,,,
{4},1,,,
{4},1,,,{1},
{1}1/8,,
{1}7/2,,
{1}8/1,
{1}7/2,
{1}8/1,
{1}2/7,
{1}1,
{1}2,
{2}3,3,
{1}4,
{1}5,
{1}6,
{2}7,7,
{1}8,
{1}8b,
{2}8,8,
{1}8,
{2}7,7,
{1}7,
{1}6,
{1}6,
{2}5,5,
{1}5b,
{2}4,4,
{1}4,
{2}3,3,
{1}3,
{2}2,2,
{2}1,1,
{1}8,
{1}1h[8:7],,
{4}2,2,
{2}2,{1},
{4}1,1,
{2}1,{1},
{4}8,8,
{2}8,{1},
{4}7,7,
{2}7,{1},
{1}7-2[4:3],,
{1}3-6[4:3],,
{1}7-3[4:3],,
{1}2-6[4:3],,
{4},,,1b,
{4}1,1,
{2}1,{1},
{4}3,3,
{2}3,{1},
{1}5,
{1}5,
{2}7,7,
{1}7b,
{4}8,8,8,,
{4}7,7,7,,
{4}6,6,6,,
{4}5,5,5,,
{2}4,4,
{2}3,3,
{1}2,
{8}1,,,1,,,,1,{1},
{8},,,,,,,1/8,
E
&inote_2=(143.0){1},,,
{4},8-4[4:1],,,{1},,,
{1}1h[8:3],
{1}2,
{1}8h[8:3],
{1}7,
{1}6h[4:3],
{1}5h[4:3],
{2}6,6,
{2}7,7,
{4}8,8h[2:1],,,
{4}1,1h[2:1],,,
{4}2,2h[2:1],,,
{4}3,3h[2:1],,,
{4}2,2,,,
{4}1,1,,,
{1}8-5[4:1],,
{1}1b,
{4}8,8,7,7,
{1}6h[2:1],
{4}7,7,8,8,
{1}1h[2:1],
{4}8,8,,,
{4}6,6,,,
{4}4,4,,,
{1}2-7[4:1],
{1}8h[4:3],
{1}1h[4:3],
{1}2h[4:3],
{1}3h[4:3],
{2}2,1,
{2}8,7,
{1}6-1[4:1],,
{1}1b/8b,
{2}1,1,
{2}2,2,
{2}3,3,
{2}4,4,
{2}5,5,
{2}6,6,
{2}7,7,
{2}8,8,
{1}1h[4:7],,
{1}8h[4:7],,
{2}2,2,
{2}4,4,
{2}6,6,
{1}8h[4:3],
{1}8b,
{4}1,1,2,2,
{1}3h[2:1],
{4}2,2,1,1,
{1}8h[2:1],
{4}1,1,,,
{4}3,3,,,
{4}5,5,,,
{1}7-2[4:1],
{4}1,1,8,8,
{4}7,7,6,6,
{4}5,5,4,4,
{4}3,3,2,2,
{1}1h[8:3],
{1}2h[8:3],
{1}1h[4:3],
{1}8h[4:3],
{2}8-5[4:1],,
E
&inote_3=(143.0){1},,
{8},1,1,1,,1h[8:3]/5h[8:3],,,
{4},1-4[2:1],,,
{4},8-5[2:1],,,
{4},2-6[4:3],,,{1},
{8}3,,,,,,,3,
{1}3,
{8}6,,,,,,,6,
{4}6,5h[4:1],4h[4:1],3h[4:1],
{1}2h[2:1],
{1}1h[2:1],
{1}8h[2:1],
{1}7h[2:1],
{4}1h[4:3],,2,2,
{4}3h[4:3],,4,4,
{4}5h[4:3],,6,6,
{4}7h[4:3],,8,8,
{8}2h[8:3],,,7h[8:3],,,,,
{8}1,1,8,8,,,,,
{751}1h[8:5],,,,,,,,,,,,,,,,,,,,,,,,,,,,,,,,,,,,,,,,,,,,,,,,,,,,,,,,,,,,,,,,,,,,,,,,,,,,,,,,,,,,,,,,,,,,,,,,,,,,,,,,,,,,,,,,,,,,,,,,,,,,,,,,,,,,,,,,,,,,,,,,,,,,,,,,,,,,,,,,,,,,,,,,,,,,,,,,,,,,,,,,,,,,,,,,,,,,,,,,,,,,,,,,,,,,,,,,,,,,,,,,,,,,,,,,,,,,,,,,,,,,,,,,,,,,,,,,,,,,,,,,,,,,,,,,,,,,,,,,,,
{999}8h[2000:499],,,,,,,,,,,,,,,,,,,,,,,,,,,,,,,,,,,,,,,,,,,,,,,,,,,,,,,,,,,,,,,,,,,,,,,,,,,,,,,,,,,,,,,,,,,,,,,,,,,,,,,,,,,,,,,,,,,,,,,,,,,,,,,,,,,,,,,,,,,,,,,,,,,,,,,,,,,,,,,,,,,,,,,,,,,,,,,,,,,,,,,,,,,,,,,,,,,,,,,,,,,,,,,,,,,,,,,,,,,,,,,,,,,,,,,,,,,,,,,,,,,,,,,,,,,,,,,,,,,,,,,,,,,,,,,,,,,,,,,,,,,,,,,,,,,,,,,,,,,,,,,,,,,,,,,,,,,,,,,,,,,,,,,,,,,,,,,,,,,,,,,,,,,,,,,,,,,,,,,,,,,,,,,,,,,,,,,,,,,,,,,,,,,,,,,,,,,,,,,,,,,,,,,,,,,,,,,,,,,,,,,,,,,,,,,,,,,,,,,,,,,,,,,,,,,,,,,,,,,,,,,,,,,,,,,,,,,,,,,,,,,,,,,,,,,,,,,,,,,
{8}2h[8:7]/7h[8:7],{1},
{1}1-6[4:1]/2-5[4:1],
{4}7h[4:1],8h[4:1],1h[4:1],2h[4:3],
{1}6h[2:1],
{4}6h[4:1],5h[4:1],4h[4:1],3h[4:3],
{8}7h[2:1],,,,,8,7,6,
{8}5h[8:3],,,,,1,2,3,
{4}4h[4:1],5h[4:1],6h[4:1],7h[4:1],
{2}8h[2:1],1,
{1}7-4[4:1]/8-3[4:1],
{4}2h[4:1],1h[4:1],8h[4:1],7h[4:3],
{1}3h[2:1],
{4}3h[4:1],4h[4:1],5h[4:1],6h[4:3],
{1}2h[2:1],
{8}7h[4:3],,,2,,,2,,
{8}2h[4:3],,,7,,,7,,
{1}7h[4:3]/2h[4:3],
{8}1h[4:3],,,8h[8:3],,,,1-4[2:1]/8-5[2:1],{1},
{1}1-5[4:1],
{1}5-2[4:1],
{1}2-7[4:1],
{1}7-4[4:1],
{1}4-8[4:1],
{1}8^3[4:1],
{1}3^6[4:1],
{1}6^1[4:1],
{2}3,3,
{2}3,3,
{2}6,6,
{2}6,6,
{4}2,2,2,2,
{4}7,7,7,7,
{8}1h[4:3],,,8h[8:3],,,,1-4[4:1]/8-5[4:1],{1},
{1}1-6[4:1]/2-5[4:1],
{4}7h[4:1],8h[4:1],1h[4:1],2h[4:3],
{1}6h[2:1],
{4}6h[4:1],5h[4:1],4h[4:1],3h[4:3],
{8}7h[2:1],,,,,8,7,6,
{8}5h[8:3],,,,,1,2,3,
{4}4h[4:1],5h[4:1],6h[4:1],7h[4:1],
{2}8h[2:1],1,
{1}7-4[4:1]/8-3[4:1],
{4}2h[4:1],1h[4:1],8h[4:1],7h[4:3],
{1}3h[2:1],
{4}3h[4:1],4h[4:1],5h[4:1],6h[4:3],
{1}2h[2:1],
{8}7h[4:3],,,2,,,2,,
{8}2h[4:3],,,7,,,7,,
{1}2h[4:3]/7h[4:3],
{8}1h[8:5],,,8h[4:1],,,,1-4[4:5]/8-5[4:5],{1},
{8},,,,,,,2b/7b,
E
&inote_4=(143.0){1},,
{8},1,1-5[8:1],,,,,,
{4},2h[1:1],8,,
{4}8,6h[1:1],4,,
{4}4,3h[2:1],1,7h[2:1],
{4}5,4-8[4:1],,,
{8}5h[2:1],,,,,,,6/4,
{16}6/4,,,,,,,,1,,,2,,,3,,
{8}4h[2:1],,,,,,,3/5,
{4}5/3,1/5,3/7,2/6,
{8}4h[2:1]/8h[2:1],,,,,,,4/8,
{8}3h[2:1]/7h[2:1],,,,,,,3/7,
{8}6/2h[2:3],,,3-8[8:7],,,,,{1},
{8}5/1,2,1/3,,3/5,6,7/5,,
{4}6/2,3/7,5/1,3/4,
{8}8/2,7,6/8,,6/4,3,2/4,,
{4}7/3,6/2,4/8,5/6,
{8}2-6[8:1],,,8-3[8:1],,,,,
{8}6,5,4,3,,1h[8:3],,,
{8}2,3,,8h[8:3],,,7,6-1[8:5],{1},
{1}1^4[4:1]/5^8[4:1],
{8}2,1,2/8,,7,8,1-5[8:3]/7-3[8:3],,
{8},,,,,8,1,2,
{8}3,4,5/3,,6,5,4-8[8:3]/6-2[8:3],,
{8},,,,,1,8,7,
{8}6h[8:3],,,4,,8,1,2,
{4}3,2/6,1/5,8/4,
{2}3h[4:1]/7h[4:1],1h[4:1]/5h[4:1],
{1}1-6[4:1]/5-2[4:1],
{8}3,5,5,7,7,1,1,3,
{8}3-7[8:1],,,,,7,7,8,
{8}8,2,2,4,4,6,6,8,
{8}8-4[8:1],,,,,8,1,2,
{8}3h[4:3],,,2,,,5,,
{8}7h[4:3],,,6,,,1,,
{8}4/8,,,,,8,1,2,
{8}3-7[8:1],,,6-2[8:1],,,,1-5[8:5]/8-4[8:5],{1},
{16}1,,,2,,,3,,,4,,,6/5,,,,
{16}8,,,7,,,6,,,5,,,4/3,,,,
{16}3,,,4,,,5,,,6,,,7/8,,,,
{16}6,,,5,,,4,,,3,,,1/2,,,,
{16}1,,,3,,,5,,,7,,,8/1,,,,
{16}8,,,6,,,4,,,2,,,8/1,,,,
{16}1,,,2,,,5,,,6,,,1b/7b,,,,
{16}8,,,7,,,4,,,3,,,8b/2b,,,,
{4}2-6[2:1],,,7,
{4}7-3[2:1],,,1,
{4}1-5[2:1],,,8,
{4}8-4[2:1],,,2,
{4}8,8,1,1,
{4}2,2,3,3,
{4}4,5,6,7,
{8}8,1,2,3,4,5,6,7,
{1}4^1[4:1]/8^5[4:1],
{4}2-6[8:1],1,3-8[8:1],2,
{8}6h[8:3]/2h[8:3],,,,,2,1,8,
{4}7-3[8:1],8,6-1[8:1],7,
{8}4h[8:3]/8h[8:3],,,,,7,8,1,
{8}2h[8:3],,,3,,6,5,4,
{4}3,6/2,5/1,4/8,
{2}3h[4:1]/7h[4:1],4h[4:1]/8h[4:1],
{1}4-7[4:1]/8-3[4:1],
{4}2^5[8:1],8,8^5[8:1],1-5[4:1],
{8}1,,,,,6,3,2,
{4}7^4[8:1],1,1^4[8:1],8-4[4:1],
{8}8,,,,,6,5,4,
{8}3h[4:3],,,2-5[8:1],,,,,
{8}7h[4:3],,,6-1[8:1],,,,,
{8}8/4,,,,,5,4,3,
{8}2-6[8:1],,,7-3[8:1],,,,4-8[8:11]/5-1[8:11],{1},
{8},,,,,,,7b/2b,
E
&inote_5=(143.0){1},,
{8},1/5,2/6,8/4,,7h[8:9]/3h[8:17],,,{1},
{1}7-4[4:5],
{1}3-8[4:5],,
{16}2h[16:13],,,,,,,,,,,,,1-5[8:1],,1,
{16}8h[16:13],,,,,,,,,,,,,7-3[8:1],,7,
{16}6h[16:13],,,,,,,,,,,,,5-1[8:1],,5,
{16}4h[16:13],,,,,,,,,,,,,3-7[8:1],,3,
{16}2h[2:1],,,,,,1,,1h[16:5],,,,,8-4[8:1],,8,
{16}7h[2:1],,,,,,6,,6h[16:5],,,,,5-1[8:1],,5,
{16}4h[2:1],,,,,,3,,3h[16:5],,,,,2-6[8:1],,2,
{2}1h[2:1],8-4[8:1],
{4}2^5[8:1],1h[4:1],6^1[8:1],5h[4:1],
{8}2^5[8:1],,2h[4:1],,6^1[8:1],6,6h[4:1],,
{4}3^8[8:1],4h[4:1],7^4[8:1],8h[4:1],
{8}3^8[8:1],,3h[4:1],,7^4[8:1],7,7h[4:1],,
{8}2h[8:3],,,3-8[8:1],,,1^4[8:1],,
{8},,6,5,,6-1[4:1],,,
{8}8-4[4:1],,,2^7[2:1],,,
{4}5-2[4:3],{1},
{8},,,,,,,8,
{4}8^5[8:1],8-4[8:1],8-5[8:1],8-3[8:1],
{8}8,,,,,2,3,4,
{4}1^4[8:1],1-5[8:1],1-4[8:1],1-6[8:1],
{8}1,,,,,8-5[8:1],5-2[8:1],,
{8},,,,,1-4[8:1],4-7[8:1],,
{4},1h[4:1],8h[4:1],7h[4:1],
{2}6h[4:3],3h[4:1],
{8}3-7[4:1]/6-2[4:1],,,,,,,7,
{4}7^4[8:1],7-3[8:1],7-4[8:1],7-2[8:1],
{8}7,,,,,4,3,2,
{4}2^5[8:1],2-6[8:1],2-5[8:1],2-7[8:1],
{4}2,,,7-3[2:1],
{4},1-5[2:1],,2-6[2:1],
{4},4-8[2:1],,7^4[2:1],
{8},,,,,1,2,3h[8:3],
{8}8h[4:1],,,3^8[4:1]/8^5[4:1],,,,,
{16}7h[16:3],,,6h[16:3],,,5h[16:3],,,6,,,6/5,,,,
{16}2h[16:3],,,3h[16:3],,,4h[16:3],,,3,,,4/3,,,8,
{16}8h[16:3],,,7h[16:3],,,6h[16:3],,,7,,,7/8,,,1,
{16}1h[16:3],,,2h[16:3],,,3h[16:3],,,2,,,1/2,,,7,
{16}7h[16:3],,,5h[16:3],,,3h[16:3],,,2,,,2/4,,,2,
{16}1,,1,2,,7,8,,8,7,,7,7/6,,,8,
{16}7,,7,8,,1,
{313}2,,,,,,,,,,,,,,,,,,,,,,,,,,,,,,,,,,,,,,,
{938}2,,,,,,,,,,,,,,,,,,,,,,,,,,,,,,,,,,,,,,,,,,,,,,,,,,,,,,,,,,,
{16}1,,2,3/2,,,3,
{16}4,,4,3,,6,5,,5,6,,6,6/7,,,5,
{16}6,,6,5,,4,3,,3,4,,3,2/3,,,,
{1}1h[1:1],
{1}3h[1:1],
{8}5h[8:7],,,,,,,7h[2:1],
{8},,,8b,,,8h[4:1],,
{8}6h[8:3],,,4h[8:3],,,2h[4:1],,
{8}8-4[4:1],,,,,6-1[4:1],,,
{8}3-8[4:1],,,,,,,1^6[4:3]/8^3[4:3],{1},
{8},,,,,,,8,
{4}8-3[8:1],8-5[8:1],4-1[8:1],4-7[8:1],
{8},,,,,3,2,1,
{4}1-6[8:1],1-4[8:1],5-8[8:1],5-2[8:1],
{8},,,,,1-6[8:1],6-2[8:1],2-5[8:1],
{8},,,,,8-3[8:1],3-7[8:1],7-4[8:1],
{4},,8h[4:1],1h[4:1],
{2}2h[4:3],7h[4:1],
{8}2-6[4:1]/7-3[4:1],,,,,,,8,
{4}8^3[8:1],8^5[8:1],4^7[8:1],4^1[8:1],
{8},,,,5,4,3,2,
{4}1^6[8:1],1^4[8:1],5^2[8:1],5^8[8:1],
{4},,,2-6[2:1],
{4},8-4[2:1],,7-3[2:1],
{4},5-1[2:1],,2^5[2:1],
{8},,,,,8,7,6h[8:3],
{8}1h[4:1],,,1^4[8:1]/6^1[8:1],,,,7h[8:15]/2h[8:15],{1},
{8},,,,,,,5b/1b,
E
&inote_6=(143.0){1},,
{8},1/5,2/6,3-8[8:1]/7-4[8:1],,,,,
{4}7pp8[4:1],8-5[4:1],,,
{4}2^7[4:1],7-3[4:1],3^6[4:1],,
{4},7pp8[4:1],8-5[4:1],,
{1}4>8[2:1],
{8}1-6[8:1],6-2[8:1],2-5[8:1],,,,,,
{16},,5/7,,1/8,,2/4,,3h[16:3],,,2h[16:3],,,1,,
{8}8-3[8:1],3-7[8:1],7-4[8:1],,,,,,
{4},1/2,5/6,3/8,
{8}4<2[4:1],,,,6,,,2/4,
{8}1/8,5/7,,6h[4:1],,4h[4:1],,2,
{8}1-6[8:1],6-2[8:1],2-5[8:1],5pp1[8:5]*qq1[8:5],,,,,
{2},1-5[8:1]/5<1[8:1],
{2}4-2[8:1]/8-6[8:1],2-5[8:1]/6-1[8:1],
{2}1^6[8:1]/5^2[8:1],2v4[8:1]/6v8[8:1],
{2}4p7[8:1]/8p3[8:1],3^6[8:1]/7^2[8:1],
{8}4,5,4,2/7,,1/8,3/6,,
{2}4-2[8:1]/8-6[8:1],2q6[8:1]/6q2[8:1],
{2}2^7[8:1]/6^3[8:1],3v5[8:1]/7v1[8:1],
{2}1q6[8:1]/5q2[8:1],2^7[8:1]/6^3[8:1],
{1}8<1[2:1],
{16}1/6,,7,8,6,,2,1,3,,6,5,7,,4/8,,
{4}4-1[8:1]/8-5[8:1],4/8,1v4[8:1]/5v8[8:1],1V74[4:1]/5V38[4:1],
{8},,,,,3/7,2/6,1/5,
{4}1-4[8:1]/5-8[8:1],1/5,4v1[8:1]/8v5[8:1],4V61[4:1]/8V25[4:1],
{8},,,,,1/6,7-4[8:1]/8-3[8:1],1/6,
{8}7/8,,,1/6,,3/8,1-6[8:1]/2-5[8:1],3/8,
{4}1/2,4/7,1/3,6/8,
{4}1-4[8:1]*-6[8:1],1,8-3[8:1]*-5[8:1],8,
{8}1z5[2:1]/5s1[2:1],1/5,,,,,,3/7,
{4}3-8[8:1]/7-4[8:1],3/7,4v7[8:1]/8v3[8:1],4V27[4:1]/8V63[4:1],
{8},,,,,4/8,3/7,2/6,
{4}2-5[8:1]/6-1[8:1],2/6,1v6[8:1]/5v2[8:1],1V36[4:1]/5V72[4:1],
{8},,,,,1/6,7-4[8:1]/8-3[8:1],1/6,
{8}7/8,,,1/6,,3/8,1-6[8:1]/2-5[8:1],3/8,
{8}1/2,,,3/8,,,1-6[8:1]/8-3[8:1],,
{8}1/8,,,1/8,,5/7,4/5,2/4,
{8}1/3,,4/5,6/8,,1/8,4/5,2b>8[8:5]/7b<1[8:5],{1},
{16}3h[16:3],,,4h[16:3],,,5h[16:3],,,6h[16:3],,,7-3[8:1],,,,
{16}1h[16:3],,,8h[16:3],,,7h[16:3],,,6h[16:3],,,5-2[8:1],,,,
{16}8h[16:3],,,1h[16:3],,,2h[16:3],,,3h[16:3],,,4-8[8:1],,,,
{16}1h[16:3],,,3,,,8h[16:3],,,6,,,2/7,,,7,
{16}7h[16:3],,,8h[16:3],,,1h[16:3],,,2h[16:3],,,3-7[8:1],,,5,
{16}5h[16:3],,,4h[16:3],,,3h[16:3],,,2h[16:3],,,1-6[8:1],,,4,
{16}4h[16:3],,,5h[16:3],,,6h[16:3],,,7h[16:3],,,8-4[8:1],,,5,
{16}5h[16:3],,,7,,,4h[16:3],,,2,,,2/7,,,,
{1}5>6[2:1]/7q5[2:1],
{1}2p4[2:1]/4<3[2:1],
{1}2>1[2:1]/8qq1[2:1],
{1}1pp8[2:1]/7<8[2:1],
{1}6/5>6[2:1]*p6[2:1],
{1}3/4<3[2:1]*q3[2:1],
{1}1/2>1[2:1]*pp1[2:1],
{1}8/7<8[2:1]*qq8[2:1],
{16}3/8,,2,1,3,,7,8,6,,3,4,2,,1/5,,
{4}1q5[8:1]/5q1[8:1],1^6[8:1]/5^2[8:1],1v4[8:1]/5v8[8:1],1V74[4:1]/5V38[4:1],
{8},,,,,2/6,3/7,4/8,
{4}4p8[8:1]/8p4[8:1],4^7[8:1]/8^3[8:1],4v1[8:1]/8v5[8:1],4V61[4:1]/8V25[4:1],
{8},,,,,2/5,3-8[8:1]/4-7[8:1],2/5,
{8}3/4,,,2/5,,4/7,5-2[8:1]/6-1[8:1],4/7,
{4}5/6,3/8,5/7,2/4,
{4}5-2[8:1]*^8[8:1],5,4^1[8:1]*-7[8:1],4,
{8}3/7,2/6,1/5,4h[8:3]/8h[8:3],,,,4/8,
{4}4q8[8:1]/8q4[8:1],4^1[8:1]/8^5[8:1],4v7[8:1]/8v3[8:1],4V27[4:1]/8V63[4:1],
{8},,,,,2/6,3/7,4/8,
{4}1p5[8:1]/5p1[8:1],1^4[8:1]/5^8[8:1],1v6[8:1]/5v2[8:1],1V36[4:1]/5V72[4:1],
{8},,,,,2/5,3^8[8:1]/4^7[8:1],2/5,
{8}3/4,,,3/8,,4/7,5^2[8:1]/6^1[8:1],4/7,
{8}5/6,,,1/6,,,4-7[8:1]/5-2[8:1],,
{8}4/5,,,1/8,,6/8,1/8,1/3,
{8}2/4,,1/8,5/7,,4/5,1/8,3b>5[8:5]/6b<4[8:5],{1},
{16}4/5,,3,4,2,,6,5,7,,1,8,1,,2b/7b,
E
