&title=Riders Of The Light
&artist=「BAYONETTA(ベヨネッタ)」
&wholebpm=143
&demo_seek=65.4
&demo_len=16.7
&lv_1=3
&lv_2=4
&lv_3=7
&lv_4=11+
&lv_5=12+
&des_4=はっぴー
&des_5=ニャイン
&inote_1=(143.0){1},1,
{1}1,
{2}2,2,
{1}2,
{1}2-7[2:1],,
{2}7,7,
{1}7,
{1}6-3[2:1],,
{2}2,2,
{1}2,
{1}2-6[2:1],,
{2}6,6,
{1}6,
{1}7-3[2:1],,
{1}4,
{1}3,
{1}2,
{1}1,
{2}2,2,
{2}1,1,
{2}7,7,
{2}6,6,
{1}5h[2:1],
{1}4h[2:1],
{1}3h[2:1],
{1}2h[2:1],
{2}1,8,
{2}1,8,
{2}2,7,
{2}2,7,
{4}7/2,,,3,
{4},,,2,
{4},,,1,
{4},,,8,
{1}8b,
{4}1,1,1,,
{1}1,
{2}2,2,
{1}3,
{1}4,
{1}5,
{2}6,6,
{1}7,
{1}8,
{2}8,1,
{2}8,1,
{1}8,
{1}1,
{2}7,2,
{2}7,2,
{1}7,
{1}2,
{4},2,,2,
{4},1,,1,
{4},8,,8,
{4},7,,7,
{1}7,
{4}8,,8,1,
{1}8b,
E
&inote_2=(143.0){1},,,
{2}2,2,
{2}2,2,
{1}2-6[4:3],,
{2}7,7,
{2}7,7,
{1}7-3[4:3],,
{2}1,1,
{2}2,2,
{1}1-5[4:3],,
{2}8,8,
{2}7,7,
{1}8-4[4:3],,
{1}1h[2:1],
{1}1h[2:1],
{1}8h[2:1],
{1}8h[2:1],
{2}2,1,
{2}8,7,
{2}7,8,
{2}1,2b,
{1}8/1,
{1}2,
{1}3,
{1}4,
{1}5/4,
{1}6,
{1}7,
{1}8,
{2}2/1,3,
{2}4,5,
{2}7/8,6,
{2}5,4,
{1}2h[2:1],
{2}1,8/1,
{2}2,2,
{2}1,1b,
{1}2-6[4:3],,
{2}7,7,
{2}8,8b,
{1}7-3[4:3],,
{2}8/1,1/8,
{2}2/1,2b/1b,
{1}1-5[4:3],,
{2}8/1,8/1,
{2}8/7,7b/8b,
{1}8-4[4:3],,
{2}1/2,3,
{2}4,5,
{2}7/8,6,
{2}5,4,
{1}2h[2:1],
{2}1,8,
{1}1b/8b,
E
&inote_3=(143.0){1},
{2}7,2,
{4}8,8,1,1,
{4}7,7,6,6,
{4}2,2,3,3,
{2}7h[2:1],6,
{2}2h[2:1],3,
{4}1,1,3,3,
{4}8,8,6,6,
{2}6h[2:1],7,
{2}3h[2:1],2,
{4}8,7,6,6,
{4}1,2,3,3,
{2}6h[2:1],5h[2:1],
{4}4h[2:1],,3,3,
{4}7,6,5,5,
{4}2,3,4,4,
{1}6^3[2:1],
{1}2^7[2:1],
{4}6,6/5,6,6/5,
{4}3,3/4,3,3/4,
{4}7,6/7,5,6/5,
{4}7,7/6,5,5/6,
{4}2,2/3,4,4/3,
{4}2,2/3,4,4/3,
{4}5,6,7,8,
{4}1,2,3,4,
{4}7h[2:1],,6,6,
{4}2h[2:1],,3,3,
{4}7h[2:1],,6,6,
{4}2h[2:1],,3,3,
{4}2,3,4,5,
{4}7,6,5,4,
{4}2,3,4,5/6,
{4}7,6,5,3/4,
{8}2,2,1,1,8,,,,
{8}7,7,8,8,1,,,,
{4}6,6/5,3,3/4,
{4}6,7/5,3,4/2,
{2}1h[2:1],8h[2:1],
{4}1,1,8,8b,
{8}1,,1,,2,,,8,
{8}8,,8,,7,,,2,
{8}2,,2,,3,,,7,
{8}7,,7,,6,,,1,
{8}1,,2,,3,,,8,
{8}8,,7,,6,,,2,
{8}2,,3,,4,,,7,
{4}7,6,5,,
{4}3h[2:1],,4,3/4,
{4}6h[2:1],,5,5/6,
{4}2h[2:1],,3,3/2,
{4}7h[2:1],,6,6/7,
{1}7^4[2:1],
{1}2^5[2:1],
{2}6h[2:1],7h[2:1],
{2}8h[2:1],1b,
{4}1,2/1,8,8/7,
{4}2,3/1,7,8/6,
{4}7,7,2,2,
{4}8,8,1,1,
{4}8h[2:1]/1h[2:1],,,1/8,
{4}2,1,8,7,
{1}1b/8b,
E
&inote_4=(143.0){1},
{16}8h[16:3],,,7h[16:3],,,6,,1h[16:3],,,2h[16:3],,,3,,
{16}5h[16:5],,,6,,6,,,4h[16:5],,,3,,3,,,
{2}5h[16:3],3h[16:3],
{2}1h[16:3],7h[16:3],
{2}4h[16:3],6h[16:3],
{2}8h[16:3],2h[16:3],
{16}5h[16:3],,,6,,,,,3h[16:3],,,4,,,,,
{16}1h[16:3],,,2,,,,,7h[16:3],,,8,,,,,
{16}4h[16:3],,,3,,,,,6h[16:3],,,5,,,,,
{16}8h[16:3],,,7,,,,,2h[2000:383],,,1,,,,,
{16}6/8,,,5,,,,,2h[8:3],,,3,,,4,,
{16}1/3,,,4,,,,,7h[8:3],,,6,,,5,,
{16}6/8,,,5,,,,,2h[8:3],,,3,,,4,,
{16}1/3,,,4,,,,,7h[8:3],,,6,,,5,,
{16}1/7,,,6/5,,,,,2h[8:3],,,3,,,4,,
{16}2/8,,,4/3,,,,,7h[8:3],,,6,,,5,,
{8}4h[8:3],,,3h[8:3],,,2h[4:1],,
{8}1h[4:3],,,5h[8:3],,,,,
{16}2-5[8:1],,,,,,,,8,,8,,8,7,,7,
{16}6-1[8:1],,,,,,,,1,,1,,1,2,,2,
{16}3-8[8:1],,,,,,,,1,,1,,1,8,,8,
{16}7-4[8:1],,,,,,,,3,,3,,3,2,,2,
{16}1-6[8:1],,,,,,,,6,,6,,6,5,,5,
{16}4-7[8:1],,,,,,,,3,,3,,3,4,,4,
{16}5-2[8:1],,,,,,,,2,,2,,2,1,,1,
{16}8-3[8:1],,,,,,,,7,,7,,7,8,,8,
{16}1^6[4:1],,,,2h[16:9],,,,,,4,,,4,,,
{16}8^3[4:1],,,,7h[16:9],,,,,,5,,,5,,,
{16}4^7[4:1],,,,3h[16:9],,,,,,1,,,1,,,
{16}5^2[4:1],,,,6h[16:9],,,,,,8,,,8,,,
{4}8-4[8:1],1,2-6[8:1],3,
{4}4-8[8:1],5,6-2[8:1],7,
{4}7-3[8:1],6,5-1[8:1],4,
{4}3-7[8:1],2,1-5[8:1],8b,
{16}4,,3,,2,,1,,6h[16:3],,,7h[16:3],,,8,,
{16}5,,6,,7,,8,,2h[16:3],,,4h[16:3],,,3,,
{16}4,,3,,2,,1,,6h[16:3],,,7h[16:3],,,8,,
{16}5,,6,,7,,8,,2h[16:3],,,4h[16:3],,,3,,
{16}5h[8:3],,,7,,,8,,4h[8:3],,,2,,,1,,
{16}7/5,,,4/3,,3/4,,,6-1[8:1],,,,,,,,
{16}8/6,,,7,,,5/6,,1/3,,,2,,,3/4,,
{16}8/6,,,7,,,5/6,,3/1,,,2,,,3/4,,
{16}7/5,,,6,,,7/8,,2/4,,,3,,,1/2,,
{16}5/7,,,6,,,7/8,,2/4,,,3,,,1/2,,
{16}5/7,,,6,,,3/4,,2/4,,,3,,,5/6,,
{16}7/5,,,6,,,4/3,,4/2,,,3,,,6/5,,
{16}6/8,,,5,,,4/3,,3/1,,,4,,,5/6,,
{16}6/8,,,5,,,3/4,,1/3,,,4,,,5/6,,
{16}1h[16:3],,,7h[16:3],,,5,,8h[16:3],,,2h[16:3],,,4,,
{16}1h[16:3],,,7h[16:3],,,5,,8h[16:3],,,2h[16:3],,,4,,
{16}1h[16:3],,,3h[16:3],,,5,,8h[16:3],,,6h[16:3],,,4,,
{16}1h[16:3],,,3h[16:3],,,5,,8h[16:3],,,6h[16:3],,,4,,
{16}1h[16:3],,,3,,,2/4,,8h[16:3],,,6,,,5/7,,
{16}6,,6/4,,,3/5,,,5/6,,,3/4,,,,,
{8}6h[1:1],,,5-1[8:1],,,,,
{8}3h[4:3],,,4-8[8:1],,,,,
{16}4^1[8:1],,,,,,,,6h[16:3],,,7h[16:3],,,8,,
{16}5^8[8:1],,,,,,,,2h[16:3],,,4h[16:3],,,3,,
{16}4^1[8:1],,,,,,,,6h[16:3],,,7h[16:3],,,8,,
{16}5^8[8:1],,,,,,,,2h[16:3],,,4h[16:3],,,3,,
{16}5h[8:3],,,7,,,8,,4h[8:3],,,2,,,1,,
{16}7/5,,,4/3,,3/4,,,6-1[8:1],,,,,,,,
{1}8b,
E
&inote_5=(143.0){1},
{16}3h[16:3],,,5h[16:3],,,6,,6h[16:3],,,4h[16:3],,,3,,
{16}1/2,,,8/1,,8h[8:1]/1h[8:1],,,3/4,,,6/5,,7/8,,,
{2}1-5[8:1],8-4[8:1],
{2}7-3[8:1],6-2[8:1],
{16}3h[16:3],,,4,5,,5,,2h[16:3],,,1,8,,8,,
{16}7h[16:3],,,6,5,,6,,8,8,,1,1,,2,,
{2}3-7[8:1],1-5[8:1],
{2}6-2[8:1],4-8[8:1],
{16}7h[16:3],,,6,5,,5,,8h[16:3],,,1,2,,2,,
{16}4h[16:3],,,5,6,,5,,3,3,,1,1,,3,,
{16}5-1[8:1],,,5,,,2,,3-7[8:1],,,3,,,6h[16:5],,
{16},,,5,,4/3,,2/1,,,8h[4:1],,,,7,,
{16}1h[16:3],,,2,3,,3,,1h[16:3],,,8,7,,7,,
{16}6h[16:3],,,5,4,,5,,7,7,,1,1,,3,,
{16}3-8[8:1],,,3,,,7,,6-1[8:1],,,6,,,2h[4:1],,
{16},,3,,,5/4,,,7/6,,8h[4:1],,,,1,,
{8}2-6[8:1],,,3-7[8:1],,,4-8[8:1],,
{16}1-5[8:1],,,,,,7-3[10000:1227],,,,8b,,,1b,,,
{16}2h[2:1],,,,,,,,3,,,8,,,7h[8:3],,
{16}6,,5,,4h[8:3],,,,6,,6,,8,8,,2,
{16}2h[16:3],,,4h[16:3],,,6,,6h[16:3],,,4h[16:3],,,2,,
{16}3h[16:3],,,5h[16:3],,,7b,,5h[16:3],,,3h[16:3],,,1b,,
{16}2h[16:3],,,3,3,,5,,4h[16:3],,,3,3,,1,,
{16}2h[16:3],,,3,3,,5,,6h[16:3],,,5,5,,3,,
{16}2-5[8:1],,,2,,,6,,4-7[8:1],,,4,,,8,,
{16}6-1[8:1],,,6,,,2b,,8-3[8:1],,,8,,,4b,,
{16}6h[16:3],,,4h[16:3],,,2,,3h[16:3],,,5h[16:3],,,7,,
{16}3h[16:3],,,1h[16:3],,,7,,8h[16:3],,,2h[16:3],,,4,,
{2}5-1[2:1],2-6[2:1],
{2}8-4[2:1],3h[2:1],
{16}5h[16:3],,,7h[16:3],,,8,,6h[16:3],,,4h[16:3],,,3,,
{16}2h[16:3],,,4h[16:3],,,5,,3h[16:3],,,1h[16:3],,,7,,
{16}1h[16:3],,,2,3,,3,,1h[16:3],,,8,7,,7,,
{16}5h[16:3],,,3,3,,1b,,3h[16:3],,,5,5,,7b,,
{1}7h[4:7],,
{16}7,,6,,5,,4,,2/3,,,1/8,,,7b/8b,,
{16}1,,2,,3,,4,,5/6,,,3/4,,,2b/1b,,
{1}8h[4:3],
{16}7/8,,,2b/8b,,1h[8:1]/7h[8:1],,,8/1,,,,1b/2b,,,,
{2}1-5[8:1],8-4[8:1],
{2}7-3[8:1],6-2[8:1],
{16}3h[16:3],,,4,5,,5,,2h[16:3],,,1,8,,8,,
{16}7h[16:3],,,6,5,,6,,8,8,,1,1,,2,,
{2}3-7[8:1],1-5[8:1],
{2}6-2[8:1],4-8[8:1],
{16}7h[16:3],,,6,5,,5,,8h[16:3],,,1,2,,2,,
{16}4h[16:3],,,5,6,,5,,3,3,,1,1,,3,,
{16}5-1[8:1],,,5,,,2,,3-7[8:1],,,3,,,6h[16:5],,
{16},,,5,,4/3,,2/1,,,8h[4:1],,,,7,,
{16}1h[16:3],,,2,3,,3,,1h[16:3],,,8,7,,7,,
{16}6h[16:3],,,5,4,,5,,7,7,,1,1,,3,,
{16}3-8[8:1],,,3,,,7,,6-1[8:1],,,6,,,2h[4:1],,
{16},,3,,,4/5,,,6/7,,8h[4:1],,,,1,,
{8}2-6[8:1],,,3-7[8:1],,,4-8[8:1],,
{16}1-5[8:1],,,,,,7-3[10000:1227],,,,8b,,,1b,,,
{16}7^2[8:1],,6,,5,,4,,3/2,,,1/8,,,8/7,,
{16}1^6[8:1],,2,,3,,4,,6/5,,,4/3,,,2/1,,
{16}2^7[8:1],,3,,4,,5,,7/6,,,8/1,,,1/2,,
{16}8^3[8:1],,7,,6,,5,,4/3,,,5/6,,,7/8,,
{1}1h[4:3],
{16}3/4,,,5b/1b,,2h[8:1]/6h[8:1],,,8/4,,,,3b/7b,,,,
{1}5b/1b,
E
