&title=Pixel Voyage
&artist=YMCK
&wholebpm=170
&demo_seek=104.9
&demo_len=23.3
&lv_1=1
&lv_2=3
&lv_3=6
&lv_4=9+
&lv_5=12+
&des_4=はっぴー
&des_5=某S氏
&inote_1=(170.0){1},,,,,
{1}7,,
{1}8,,
{1}1,,
{1}2,
{1}2b,
{1}1,,
{1}1,,
{1}8,,
{1}8,,
{1}7,,
{1}7,,
{1}6,,
{1}6,,
{1}5-8[2:1],,
{1}1-4[2:1],,
{1}5,
{1}6,
{1}7,
{1}8,
{1}1,
{1}1,
{1}1b,,
{1}2,
{1}3,
{1}2h[1:1],,
{1}1,
{1}1,
{1}1b,,
{1}8,
{1}7,
{1}6h[1:1],,
{1}6-3[2:1],,,,
{1}2,
{1}3,
{1}2,
{1}1h[1:1],,
{1}8h[1:1],,
{1}7h[1:1],,
{1}7,,
{1}6,,
{1}7,
{1}8,
{1}1,
{1}8/1,
{2},7,
{2},7,
{2},7b,{1},
{2},8,
{2},1,
{2},2h[1:1],{1},
{2},2,
{2},2,
{2},2b,{1},
{2},1,
{2},8,
{2},7h[1:1],{1},
{2},8-5[2:1],{1},,,
{16},8b,
E
&inote_2=(170.0){1},,,,
{1}1/8,
{1}1,
{1}2,
{1}3,
{1}4,
{1}5,
{1}6,
{1}7,
{1}8b,
{2}1,1,
{1}1,
{2}8,8,
{1}8,
{1}1h[2:1],
{1}1h[2:1],
{1}8h[2:1],
{1}8h[2:1],
{2}2,2,
{1}2b,
{2}7,7,
{1}7b,
{1}2h[2:1],
{1}2h[2:1],
{1}7h[2:1],
{1}7h[2:1],
{1}1-4[4:3],,
{1}8-5[4:3],,
{2}4,3,
{2}2,1,
{2}8,7,
{1}6/5,
{2}5,5,
{2}6,6,
{1}7h[1:1],,
{2}8,8,
{2}1,1,
{1}2h[1:1],,
{2}4,4,
{2}3,3,
{1}2h[1:1],,
{2}1,1,
{2}8,8,
{1}7h[1:1],,
{1}6,
{1}6,
{1}7,
{1}7,
{2}8,7,
{2}6,5,
{2}4,3,
{1}2h[1:1],,
{1}7h[1:1],,
{1}2h[1:1],,
{2}1,1,
{1}1b,
{2}8,8,
{1}8b,
{1}1h[2:1],
{1}8h[2:1],
{2}1,8,
{1}8h[1:1]/1h[1:1],
{2},1,
{2}2,3,
{2}4,5h[2:1],
{2},6h[2:1],
{2},7,
{2}7,8,
{2}8,1-5[4:3],{1},
{2},8,
{2}7,6,
{2}5,4h[2:1],
{2},3h[2:1],
{2},2,
{2}2,1,
{2}1,8-4[4:3],{1},
{2},5,
{2},4,
{2},3,
{2}2,1,
{1}1/8,
E
&inote_3=(170.0){1},,,
{1}4-1[16:13]/5-8[16:13],,
{1}8,
{1}1,
{2}7,8,
{2}1,2,
{2}8,7,
{2}1,2,
{1}3-6[16:9],,
{4},7,,1,
{4},2,,8,
{4},7,,1,
{4},2,,8,
{4},6,,4,
{4},3,,5,
{4},6,,4,
{4},3,,5,
{4},7,,1,
{4},2,,8,
{4},7,,1,
{4},2,,8,
{4},6,,4,
{4},5,,5,
{4}4,,3,2,
{2}1/2,1/8,
{4},8,7,,
{1}7/8,
{4},2,1,,
{1}1/2,
{2}1,2,
{2}3,4,
{1}4-1[16:13]/5-8[16:13],,
{8}7,,8,8,,,,,
{8}2,,1,1,,3,,4^1[16:11],{1},
{4},8,7,6,
{2}6/5,4/3,
{8}1,,1,,2,2,,3-6[16:11],{1},,
{8}3,,4,4,,,,,
{8}5,,6,6,,7,,8^5[16:11],{1},
{4},1,2,3,
{2}4/3,5/4,
{8}5,,6,,7,7,,1-4[16:11],{1},,
{4}6/5,5/6,,,{1},
{4}3/4,3/4,,,{1},
{2}3-6[16:5],7-2[16:5],
{2}3-6[16:5],7-2[16:5],
{2}3-6[16:5],7-2[16:5],
{4},,,3,
{4}4h[2:1],,,5,
{4}6h[2:1],,,7,
{4}8h[2:1],,,1,
{4}2h[2:1],,,3,
{4}4h[2:1],,,5,
{4},6/7,6/7,,
{2}8,1,
{4},2/3,2/3,,
{2}4,5,
{2}3,1,
{2}7,5,
{2}3,1,
{2}7,7/8,
{8},,,,5/6,,7,7,
{8},,,,6/5,,7,7,
{8},6,,5^8[16:11],,,,,
{4},,,1,
{4}2,3,1/2,,
{2}1/8,2/1,
{8}8,8,,6-3[16:11],,,,,{1},
{8},,,,3/4,,2,2,
{8},,,,3/4,,2,2,
{8},4,,5^8[16:11],,,,,
{4},,,1,
{4}2,3,2/1,,
{2}3/2,2/1,
{8}3,3,,4-1[16:11],,,,,{1},
{2},8h[2:1],
{2},1h[2:1],
{2},2/7,{1},
{1}1b/8b,
E
&inote_4=(170.0){1},
{8}1h[8:3],,,2h[8:3],,,,,
{8}8h[8:3],,,7h[4:1],,6^3[8:3],,,{1},
{1}1b,
{4}1,2,3,4,
{4}8,7,6,5,
{4}4h[4:1],3h[4:1],4h[4:1],5h[4:1],
{4}6h[4:1],5h[4:1],4h[4:1],3,
{4}2,3,4,5/6,
{4}7,6,5,3/4,
{4}8h[4:1],7h[4:1],8h[4:1],1h[4:1],
{4}2h[4:1],1h[4:1],8b,,
{4}8,7,6,,
{8}3,3,,4,,,,,
{4}1,2,3,,
{8}6,6,,5,,,,,
{2}5h[2:1],6h[2:1],
{4}7h[2:1],,8,7,
{4}6,5,4,3,
{1}2-6[2:1],
{4}2,3,4,,
{8}6,6,,5,,,,,
{4}7,6,5,,
{8}3,3,,4,,,,,
{2}4h[2:1],3h[2:1],
{4}2h[2:1],,1,2,
{4}3,4,5,6,
{1}7-3[2:1],
{2}2h[2:1],4,
{2}7h[2:1],6,
{2}1h[2:1],3,
{2}8h[2:1],6,
{4}8,7,6,4/5,
{4}3,2,1,7/8,
{2}1h[4:3],8h[4:1],
{1}2b/7b,
{4}8,8,1,1,
{4}2,2,3,3,
{4}4h[4:7],3,2,1,
{4}8,7,6,5,
{4}1,1,8,8,
{4}7,7,6,6,
{4}5h[4:3],6,7,8,
{1}1^4[2:1],
{4}4,4,5,5,
{4}6,6,7,7,
{4}8h[4:7],7,6,5,
{4}4,3,2,1,
{4}5,5,4,4,
{4}3,3,2,2,
{4}1h[1:1],2,3,4,
{1}5^8[2:1],
{8}8,8,7,7,,7,,,
{8}6,,,5,,,4,,
{8}1,1,2,2,,,3,,
{4}4,5,6,5,
{4}4h[2:1],3,5h[2:1],6,
{4}4h[2:1],3,5h[2:1],6,
{4}4h[2:1],3,5h[4:1],6,
{1}6h[4:3]/7-2[2:1],
{1}3h[4:3]/2-7[2:1],
{1}2h[4:3]/6^3[2:1],
{1}7h[4:3]/3^6[2:1],
{1}1h[4:3]/7^4[2:1],
{1}8h[4:3]/2^5[2:1],
{4},8,8h[2:1],,
{8}7,,,7^4[2:1],,,,,
{4},1,1h[2:1],,
{8}2,,,2^5[2:1],,,,,
{2}6h[2:1],7,
{4}8h[2:1],,1,1,
{8}1h[8:5],,,,,2,2,,
{4}2b,,7h[2:1],2h[4:1],
{8},,,,8,,8,8h[8:5],
{8},,,,2,,3,3,
{8},4-8[2:1],,,,,,,
{4},,,1,
{4}3,5,7,8,
{4}6,4,2,1,
{8}1,1-5[2:1],,,,,,,
{8},,,,6h[8:3],,,5,
{8},5,,4,4,,3,3h[8:5],
{8},,,,2,,2,2,
{8},8-4[2:1],,,,,,,
{4},,,1,
{4}8,7,6h[4:1],5h[4:1],
{4}4h[4:1],3h[4:1],2,1,
{8}1,1-5[2:1],,,,,,,
{8},,,,7h[8:3],,,6h[4:1],
{8},5h[8:3],,,4h[1:1],,,,
{2},3h[2:1],
{2}2h[2:1],1h[2:1],
{2}8,
{613}2b/7b,,,,,,,,,,,,,,,,,,,,,,,,,,,,,,,,,,,,,,,,,,,,,,,,,,,,,,,,,,,,,,,,,,,,,,,,,,,,,,,,,,,,,,,,,,,,,,,,,,,,,,,,,,,,,,,,,,,,,,,,,,,,,,,,,,,,,,,,,,,,,,,,,,,,,,,,,,,,,,,,,,,,,,,,,,,,,,,,,,,,,,
{619}1,,,,,,,,,,,,,,,,,,,,,,,,,,,,,,,,,,,,,,,,,,,,,,,,,,,,,,,,,,
{629}8,,,,,,,,,,,,,,,,,,,,,,,,,,,,,,,,,,,,,,,,,,,,,,,,,,,,,,,,,,,
{641}1,,,,,,,,,,
{653},,,,,,,,,,,,,,,,,,,,,,,,,,,,,,,,,,,,,,,,,,,,,,,,,,,8,
E
&inote_5=(170.0){1},2h[2:1]/3-8[4:1],
{1}7h[2:1]/6-1[4:1],
{4}1h[4:1],3h[4:1],5h[4:1],7,
{1}8b/1b,
{1}3-8[4:1],
{1}7-4[4:1],
{4}5h[4:1],1h[4:1],2h[4:1],4h[4:1],
{4}8h[4:1],7h[4:1],5h[4:1],3h[4:1],
{4}6-1[4:1],,,2,
{4}2-5[4:1],,,7,
{2}1^4[8:1],5^8[8:1],
{8}1,8,1,2/7,,,,,
{4}1h[4:3],8,3,8,
{8}2/8,2-5[8:1]/8-5[8:1],,,,,,,
{4}8h[4:3],1,6,1,
{8}1/7,1-4[8:1]/7-4[8:1],,,,3,,2,
{8}1h[8:3],,,6,6h[8:3],,,4,
{4}3/4,,5h[4:1],6h[4:1],
{4}8h[4:1],3h[4:1],2h[4:1],1h[4:1],
{8}6h[8:3],,,1h[8:3],3h[4:1],,,,
{8}3/1,2,,2,1/4,3,,3,
{8}5/1,1^6[8:1]/5^2[8:1],,,,,,,
{8}6/8,7,,7,8/5,6,,6,
{8}8/4,4^7[8:1]/8^3[8:1],,,,3/8,,1/6,
{8}8-3[8:1],,,2,2-5[8:1],,,7,
{4}7/3,,4h[4:1],3h[4:1],
{4}8h[4:1],6h[4:1],2h[4:1],1h[4:1],
{8}4h[8:3],,,8h[8:3],6h[4:1],,,,
{4}1-5[4:1],1,,,
{8}6,7,,8h[8:3],,,,,
{4}8-4[4:1],8,,,
{8}3/4,4/2,,3h[8:3]/1h[8:3],,,,,
{8}2h[2:1],,,3,3,,,,
{8}7h[2:1],,,6,6,,8,,
{16}1,2,3,4,5,6,7,8,1,2,3,4,5,6,7,8,
{4}1b,,1h[4:1],2h[4:1],
{8}3h[8:3],,4,4-8[8:1],,,,,
{8}7h[8:3],,6,6-1[8:1],,8,,8,
{4}8^5[4:1],5^2[4:1],2^7[4:1],7^4[4:1],
{4}4,1,2,3,
{4}4h[2:1],6,7h[2:1],2,
{8}1h[2:1],,8,,2,6,,2^5[8:3]/6^1[8:3],{1},
{8}2-6[8:1],,,7-4[8:1],,1-5[8:1],,,
{8}6h[8:3],,5,5-1[8:1],,,,,
{8}2h[8:3],,3,3-8[8:1],,1,,1,
{4}1>5[4:1],4^7[4:1],7^2[4:1],2^5[4:1],
{4}5,8,7,6,
{2}5-1[8:1],8-4[8:1],
{8}1h[4:1],,8h[4:1],,7,3,,3^8[8:3]/7^4[8:3],{1},
{8}1/5,,,4/8,,3/7,,2/6,
{16}5,,5,,5,,5,,,,2,3,2,,,,
{16}7,6,7,,,,3,,,,3,4,3,,6,,
{16}5/4,,5/4,,4/5,,5/4,,,,3,4,5,6,7,8,
{12}1,
{995}8,,,,,,,,,,,,,,,,,,,,,,,,,,,,,,,,,,,,,,,,,,,,,,,,,,,,,,,,,,,,,,,,,,,,,,,,,,,,,,,,,,,
{12}2,7,
{995}3,,,,,,,,,,,,,,,,,,,,,,,,,,,,,,,,,,,,,,,,,,,,,,,,,,,,,,,,,,,,,,,,,,,,,,,,,,,,,,,,,,,
{12}6,4,
{995}5,,,,,,,,,,,,,,,,,,,,,,,,,,,,,,,,,,,,,,,,,,,,,,,,,,,,,,,,,,,,,,,,,,,,,,,,,,,,,,,,,,,
{12}3,6,
{995}2,,,,,,,,,,,,,,,,,,,,,,,,,,,,,,,,,,,,,,,,,,,,,,,,,,,,,,,,,,,,,,,,,,,,,,,,,,,,,,,,,,,
{12}7,
{8}1/8h[8:3],,5,4,8/3h[8:3],,6,5,
{8}3/4h[8:3],,3,2,4/1h[8:3],,8,7,
{8}1/6h[8:3],,4,3,6/2h[8:3],,1,8,
{4}7h[4:3],,,4h[2:1],
{4}2h[2:1],,1h[4:1],7h[4:3],
{4}8h[4:3],,,3h[2:1],
{2}5h[4:3],4h[4:5],
{1}6h[4:5],
{2}7h[4:3],1h[4:1],
{4},4,4,,
{8}4,3,,2h[8:3],,,,,
{4},5/6,5/6,,
{8}5/6,4/7,,7h[8:3]/8h[8:3],,,,,
{8}8/2h[2:1],,,3,3,,,,
{8}1/7h[2:1],,,6,6,,,,
{8}1,2,3,4,5,6,7,8,
{16}1,2,3,4,5,6,7,8,
{641}1,,,,,,,,,,,,,,,,,,,,
{639}2,,,,,,,,,,,,,,,,,,,,3,,,,,,,,,,,,,,,,,,,,
{641}4,,,,,,,,,,,,,,,,,,,,5,,,,,,,,,,,,,,,,,,,,
{639}6,,,,,,,,,,,,,,,,,,,,7,,,,,,,,,,,,,,,,,,,,
{641}8,,,,,,,,,,,,,,,,,,,,1b,,,,,,,,,,,,,,,,,,,,
{639}2b,,,,,,,,,,,,,,,,,,,,3b,,,,,,,,,,,,,,,,,,,,
{641}4b,,,,,,,,,,,,,,,,,,,,5b,,,,,,,,,,,,,,,,,,,,
{639}6b,,,,,,,,,,,,,,,,,,,,7b,,,,,,,,,,,,,,,,,,,,
{641}8b,,,,,,,,,,,,,,,,,,,,
{8},,,,6/7h[8:3],,2,8,
{8},8/2,,7/1,3/2h[8:3],,7,1,
{8},5/6,,3/8,3^8[4:1],,8^5[4:1],,
{4}5^2[4:1],2^7[4:1],7,6,
{4}5,4,3h[2:1],2,
{4}2h[2:1],1,1h[2:1],8,
{8}7,8,,5-2[8:3]/6-1[8:3],,,,,
{8},,,,1h[8:3],,,3h[4:1],
{8},5h[4:1],,6,1,8,1,8h[8:3],
{8},,7,,3,4,3,4h[4:1],
{8},5h[4:1],,6,6^1[4:1],,1^4[4:1],,
{4}4^7[4:1],7^2[4:1],2,3,
{4}4,5,6h[2:1],7,
{4}7h[2:1],8,8h[2:1],1,
{8}2,1,,3-8[8:3]/4-7[8:3],,,,,
{8},,,,4/8,,,1/5,
{8},2/6,,3/7,4-1[2:1],,,,
{2},5-8[2:1],
{2}4-1[2:1],5^8[2:1],
{2},
{613}1/8,,,,,,,,,,,,,,,,,,,,,,,,,,,,,,,,,,,,,,,,,,,,,,,,,,,,,,,,,,,,,,,,,,,,,,,,,,,,,,,,,,,,,,,,,,,,,,,,,,,,,,,,,,,,,,,,,,,,,,,,,,,,,,,,,,,,,,,,,,,,,,,,,,,,,,,,,,,,,,,,,,,,,,,,,,,,,,,,,,,,,,
{619}4b/5b,,,,,,,,,,,,,,,,,,,,,,,,,,,,,,,,,,,,,,,,,,,,,,,,,,,,,,,,,,
{629}4b/5b,,,,,,,,,,,,,,,,,,,,,,,,,,,,,,,,,,,,,,,,,,,,,,,,,,,,,,,,,,,
{641}4b/5b,,,,,,,,,,
{653},,,,,,,,,,,,,,,,,,,,,,,,,,,,,,,,,,,,,,,,,,,,,,,,,,,4b/5b,
E
