&title=Living Universe
&artist=「PHANTASY STAR PORTABLE2」
&wholebpm=155
&demo_seek=40
&demo_len=12
&lv_1=2
&lv_2=3
&lv_3=8
&lv_4=10
&lv_5=11+
&lv_6=12+
&des_4=ニャイン
&des_5=某S氏
&des_6=rioN
&inote_1=(155.0){1},,,,,
{1}1,
{1}1,
{1}2,
{1}2,
{1}2-7[4:3],,
{1}6-3[4:3],,
{1}2-6[4:3],,
{1}7-3[4:3],,
{1}2,
{1}3,
{1}4,
{1}5,
{1}6/5,
{1}6,
{1}7,
{1}8,
{1}8h[2:1],
{2}7,7,
{1}8b,
{1}1,
{1}2,
{2}1,1,
{1}8,
{1}7,
{1}6,
{2}5,5,
{1}4b,
{1}3,
{1}2,
{2}1,1,
{1}2b,
{2}1,1,
{2}8,8,
{4}1,1,1,,
{1}8b,
{1}7,
{8}6,,,,6,,,6,{1},
{1}7,
{1}6,
{1}5,
{4}6,6,,,
{4}7,7,,,
{4}8,8,,,
{8}1,,,,,,,1,
E
&inote_2=(155.0){1},,,,,
{1}2,
{1}7,
{1}1,
{1}8b,
{1}2-5[2:1],,
{1}6h[4:7],,
{1}6,
{1}7,
{1}8,
{2}1,1b,
{1}2h[8:3],
{1}3h[8:3],
{8}2,,,2,,,,,
{8}8,,,8,,,,,
{1}7h[8:3],
{1}6h[8:3],
{1}7-2[2:1],,
{1}1b,
{4}2,2,,,
{4}3,3,,,
{4}1,1,,,
{4}7,7,,,
{4}6,6,,,
{4}5,5,,,
{4}7,7,,,
{4}1,1,,,
{4}3,3,,,
{4}4,4,,,
{4}2,2,,,
{4}8,8,,,
{4}7,7,7,,
{4}8,8,8,,
{4}1,1,1,,
{4}2,2,2b,,
{1}8h[4:3],
{1}7h[4:3],
{1}6-2[2:1],,
{1}1b,
{1}8,
{1}1h[2:3],,
{2}2,2,
{2}4,4,
{2}6,6,
{8}8h[2:1],,,,,,,1b,
E
&inote_3=(155.0){1},,,,,
{1}5h[4:3]/4h[4:3],
{1}3h[4:3]/6h[4:3],
{1}2h[4:3]/7h[4:3],
{1}1^4[16:5]/8^5[16:5],
{1}6,
{1}4/3,
{1}3,
{1}5/6,
{1}7,
{1}2/1,
{1}2,
{1}8/7,
{8}1/2,,,1/3,,,,,
{8}2/3,,,2/4,,,,,
{8}4/5,,,4/6,,,,,
{8}5/6,,,5/7,,,,,
{8}7/8,,,7/1,,,,,
{8}1/8,,,2/8,,,,,
{1}2h[4:3]/7h[4:3],
{833}6h[4:3]/3h[4:3],,,,,,,,,,,,,,,,,,,,,,,,,,,,,,,,,,,,,,,,,,,,,,,,,,,,,,,,,,,,,,,,,,,,,,,,,,,,,,,,,,,,,,,,,,,,,,,,,,,,,,,,,,,,,,,,,,,,,,,,,,,,,,,,,,,,,,,,,,,,,,,,,,,,,,,,,,,,,,,,,,,,,,,,,,,,,,,,,,,,,,,,,,,,,,,,,,,,,,,,,,,,,,,,,,,,,,,,,,,,,,,,,,,,,,,,,,,,,,,,,,,,,,,,,,,,,,,,,,,,,,,,,,,,,,,,,,,,,,,,,,,,,,,,,,,,,,,,,,,,,,,,,,,,,,,,,,,,,,,,,,,,,,,,,,,,,,,,,,,,,,,,,,,,,,,,,,,,,,,,,,,,,,,,,,,,,,,,,,,,,,,,,,,,,,,,,,,,,,,,,,,,,,,,,,,,,,,,,,,,,,,,,,,,,,,,,,,,,,,,,,,,,,,,,,,,,,,,,,,,,,,,,,,,,,,,,,,,,,,,,,,,,,,,,,,,,,,,,,,,,,,,,,,,,,,,,,,,,,,,,,,,,,,,,,,,,,,,,,,,,,,,,,,,,,,,,,,,,,,,,,,,,,,,,,,,,,,,,,,,,,,,,,,,,,,,,,,,,,,,,,,,,,,,,,,,,,,,,,,,,,,,,,,,,,,,,,,,,,,,,,,,,,,,,,,,,,,,,,,,,,,,,,,,,,,,,,,,,,,,,,,,,,,,,,,,,,,,,,,,,,,,,,,,,,,,,,,,,,,,,,,,,,,,,,,,,,,,,,,,,,,,,,,,,,,,,,,,,,,,,,,,,,,,,,,,,,,,,,,,,,,,,,,,,,,,,,,,,,,,,,,,,,,,,,,,,,,,,,,,,,,,,,,,,,,,4^1[10000:3137]/5^8[10000:3137],{1},
{4},7/8,,3/4,
{4},1/2,,5/6,
{4},7/8,,3/4,
{4},1/2,,5/6,
{4}1,2,8,7,
{4}4,3,5,6,
{4}1,2,5,4,
{4}3,1/2,2/3,4/3,
{4},7/8,,3/4,
{4},1/2,,5/6,
{4},8/7,,4/3,
{4},1/2,,5/6,
{4}2,1,7,8,
{4}3,4,6,5,
{4}4,5,6,7,
{4}8,7/8,6/7,5/6,
{4}1,7/8,5,3/4,
{4}8,1/2,4,5/6,
{4}1,7/8,5,3/4,
{4}8,1/2,8/1,7/2,
{1}2h[4:3]/7h[4:3],
{1}3h[4:3]/4h[4:3],
{1}5h[4:3]/6h[4:3],
{1}4h[2:1]/5h[2:1],
{1}2h[4:3]/7h[4:3],
{1}3h[4:3]/6h[4:3],
{1}5h[4:3]/4h[4:3],
{8}4^1[16:5]/5^8[16:5],,,,,,,3b/6b,
E
&inote_4=(155.0){1},1h[1:1],
{1}7h[1:1],
{1}3h[1:1],
{1}5h[1:1],
{4}1h[2:1],,3,4,
{4}8h[2:1],,7,6,
{4}5h[4:3],,,1-4[2:1],{1},
{1}6-2[2:1],
{1}1-5[2:1],
{1}7-3[2:1],
{1}1^6[2:1],
{2}5/2h[2:1],3,
{2}2/8h[2:1],7,
{2}8/3h[2:1],4,
{4}3/7h[4:1],5-1[4:1],,,
{8}8h[8:3],,5,5,,6,,,
{8}3h[8:3],,1,1,,2,,,
{8}6h[8:3],,8,8,,8^3[2:1],,,{1},
{8}1h[8:3],,3,3,,2,,,
{8}5h[8:3],,7,7,,,,,
{4}1h[2:1],,5,3^8[2:1]/7^4[2:1],
{4},,,3^6[2:1]/7^2[2:1],{1},
{4}1/2,3,7/5,6,
{4}2/3,1,6h[4:1],5,
{4}7/8,6,4/2,3,
{4}7/6,8,3h[4:1],4,
{4}1/2h[4:1],3,5h[4:1],7,
{4}4/2h[4:1],3,7h[4:1],8,
{4}1/3h[4:1],2,5h[4:1],7,
{4}4/2h[4:1],3,8/7h[4:1],8,
{8}1h[4:1],,2,2h[4:1],,3h[4:1],,4-8[4:1],
{8},,,,,8,8h[4:1],,
{8}7h[4:1],,6,6h[4:1],,5h[4:1],,4^7[4:1],
{8},,,,,2,2h[4:1],,
{8}3h[4:1],,4,4h[4:1],,5h[4:1],,6-2[4:1],
{8},,,,,,,2/1,
{8},7/6,,3/4,,8/7,,1/3,
{8},4/6,,8/2,,,1b/7b,,
{8}1/8,,2,3-8[4:1],,,,4-7[4:1],
{8},,,,,,,1h[4:1],
{8},8h[4:1],,7h[8:3],,,6h[2:1],,
{4},5h[2:1],,4,
{4}7b/2b,7,7,7,
{4}6b/1b,1,1,1,
{4}4b/8b,8,8,8,
{4}2b/4b,4-8[4:1],,,
{4}8/3h[4:3],2,4,6,
{4}7/6h[4:3],1,3,5-2[2:1],
{4},,,4-7[2:1],
{8},,,,,,,8b/1b,
E
&inote_5=(155.0){1},1-5[2:1],
{1}5-2[2:1],
{1}2-7[2:1],
{1}7-4[2:1],
{4}5h[2:1]/4-8[2:1],,,5,
{4}6h[2:1],,,6,
{4}8h[2:1]/7h[4:7],,,8^3[4:3],{1},
{8}2h[1:1],,,,,,,3,
{8}3h[1:1],,,,,,,4,
{8}4h[1:1],,,,,,,5,
{8}5h[1:1],,,,,,,6,
{8}6h[2:1],,,7,7h[2:1],,,8,
{8}8h[2:1],,,1,1h[2:1],,,2,
{8}2h[2:1],,,3,3h[2:1],,,4,
{4}4h[4:1],5h[4:1],6h[4:1],7,
{8}7/8h[4:1],,1,2/3,,6/5,,5,
{8}5/6h[4:1],,7,1/8,,3/4,,4,
{8}4/3h[4:1],,2,1/8,,5/6,,6,
{8}6/5h[4:1],,4,2b/3b,,7b/8b,,7,
{8}7/1h[4:1],,2,4/6,,5/7,,5,
{8}5/7h[4:1],,8,1/3,,4/2,,4,
{8}2-7[8:1],2,,8-4[8:1],8,,7-2[8:1],7,
{8},5-8[8:5],5,,,,
{4}4-7[4:3],{1},
{8}1-6[8:1],,1,7-4[8:1],,7,,3,
{8},5h[8:3],6h[2:1],,,5,5,,
{8}6-2[8:1],,6,3-7[8:1],,3,,5,
{8},4h[8:3],2h[2:1],,,4,4,,
{8}1-5[8:1],,1,7-3[8:1],,7,,5^2[4:1],
{8},5/6h[8:5],,,,2,2,,
{8}8-4[8:1],,8,2-6[8:1],,2,,4^7[4:1],
{8},4,3h[2:1],,,7,7b,,
{8}8-3[8:1],,8,2-5[8:1],,2,,6,
{8},4h[8:3],3h[2:1],,,4,4,,
{8}3-7[8:1],,3,6-2[8:1],,6,,4,
{8},5h[8:3],7h[2:1],,,5,5,,
{8}8-4[8:1],8,8,2-6[8:1],,2,,4^7[4:1],
{8},4,3h[2:1],,,,,8/7,
{8},1/2,,6/5,,4/3,,8/6,
{8},7/2,,3/5,,,4b,6b,
{8}1-6[8:1],,1,7-4[8:1],,7,,3,
{8},5h[8:5],6h[2:1],,,,,7/1,
{8},4,8,3,,6h[8:3],2h[4:1],,
{8},,5,4h[4:1],,,1^6[2:1],2h[8:7],
{4},,,6,
{8}4h[8:3],,,3h[8:3],,,8^3[2:1],,
{4}7h[4:3],,,3,
{8}5h[8:3],,,6h[8:3],,,1-5[2:1],,
{4},,,5-2[2:1],
{4},,,2-7[2:1],
{4},,,7-4[2:1],
{8},,,,,
{16}1-4[16:1],,,,,,
E
&inote_6=(155.0){1},
{8}7/8,6,5,4h[8:3],,,1,,
{8}1/2,3,4,5h[8:3],,,8,,
{8}1/8,2/7,3h[4:1]/6h[4:1],,,,4,4-1[8:1],
{8},,5,5-8[8:1],,,1,1,
{8}2b/6b,5h[8:1],4h[8:1],3h[4:1],,1,1,2/8,
{8}3/7,4h[8:1],5h[8:1],6h[4:1],,8,8,1/7,
{16}2V46[4:1]/6V82[4:1],,,,,,,,,,,,3,4,2,5,
{1}1w5[4:1],
{8}7/2-6[8:1],,2/8,8,,3/4,8,5/6,
{8}2/7-3[8:1],,1/7,1,,5/6,1,3/4,
{8}5/2-6[8:1],,1/2,1,,3/4,8,5/6,
{8}4/7-3[8:1],,7/8,8,,5/6,1,3/4,
{8}8/2-6[8:1],,2/4,4,,5/6,1,3/4,
{8}1/7-3[8:1],,5/7,5,,3/4,8,5/6,
{8}8/2-6[8:1],,2/4,4,,5/6,1,3/4,
{8}6/5h[4:1],,4,1-5[8:1]/8-4[8:1],,1b/8b,,,
{8}3/1-5[8:1],,8,8-4[8:1],,7,7,,
{8}6/8-4[8:1],,1,1-5[8:1],,2,2,,
{8}3/8-4[8:1],,7/8,7-3[8:1],,6,6,,
{8}6/1-5[8:1],,1/2,2-6[8:1],,3,3,,
{8}2/1^4[8:1],,1/8,8-4[8:1],,6/8,6,,
{8}7/8^5[8:1],,1/8,1-5[8:1],,1/3,3,,
{8}7/8,8/7-3[8:1],,1/7,1-5[8:1],,1/8,8-4[8:1],
{8},2/8,2>7[4:1],,,,,,
{16}1/8,,2,7,3,6,4,5,3,6,2,7,1,8,2,7,
{8}3h[4:1],,2,6/8-5[8:1],,8/1-4[8:1],,1/3s7[4:1],
{8},8,8,,,5/6,1/8,3/4,
{8}6h[4:1],,7,3/1-4[8:1],,1/8-5[8:1],,8/6z2[4:1],
{8},1,1,,,3/4,1/8,5/6,
{8}3h[4:1],,2,6/8p4[8:1],,8/1^6[8:1],,1/3s7[4:1],
{8},8,8,,,5/6,1/8,3/4,
{8}6h[4:1],,7,3/1q5[8:1],,1/8^3[8:1],,8/6z2[4:1],
{8},1,1,,,3/4,1/8,5/6,
{8}3h[4:1],,2,6/8v2[8:1],,8/1V75[8:1],,1/3s7[4:1],
{8},8,8,,,5/6,1/8,3/4,
{8}6h[4:1],,7,3/1v7[8:1],,1/8V24[8:1],,8/6z2[4:1],
{8},1,1,,,3/4,5/6,1/8,
{8}4b/5b,3/6,2/7,1-5[8:1]/8-4[8:1],,1-6[8:1]/8-3[8:1],,1/8,
{8},4/5,4^1[8:1]/5^8[8:1],,,,,2b/1b-5[8:1],
{8},1b/8b-4[8:1],,8b/7b-3[8:1],,6b/7b,,7b/8b-4[8:1],
{8},8b/1b-5[8:1],,1b/2h[8:3],,,3,3,
{8}2/4,,5/7,4-8[8:1]/5-1[8:1],,4-7[8:1]/5-2[8:1],,4/5,
{8},1/8,1^4[8:1]/8^5[8:1],,,,,2/4-1[8:1],
{8},4/5,6,7/5-8[8:1],,4/5,3,2/7,
{16}1/8,,1/8,,2/7,,2/7,,,,4,5,3,6,2,7,
{16}1>7[4:1],,,,,,,,,,8,7,6,5,4,3,
{16}2V48[8:1],,,,,,7V51[8:1],,,,,,,,4,5,
{8}4,,4/5,3/6,,1/2,4/7,7/8,
{16}2/5,,,,,,1/8,1/8,1/8,,,,,,,,
{8}3b/7b,4h[8:1],5h[8:1],6h[4:1],,8,8,1/7,
{8}2/6,5h[8:1],4h[8:1],3h[4:1],,1,1,2/8,
{16}3V17[4:1]/7V53[4:1],,,,,,,,,,,,6,5,7,4,
{8}8w4[4:1],,,,,,,2b/7b,
E
