&title=L'épilogue
&artist=SOUND HOLIC feat. Nana Takahashi
&wholebpm=145
&demo_seek=73.7
&demo_len=15.6
&lv_1=2
&lv_2=5
&lv_3=8
&lv_4=11+
&lv_5=13+
&des_4=mai-Star
&des_5=mai-Star
&inote_1=(145.0){1},,,,,
{1}2,
{1}3,
{1}4,
{1}5,
{1}6,
{1}7,
{1}8b,,
{1}1,
{1}1,
{1}2,
{1}2,
{1}1,
{1}1,
{1}8,
{1}8,
{1}7-3[2:1],,
{1}2-6[2:1],,
{1}7,
{1}7,
{1}8,
{1}8,
{1}1h[2:1],
{1}2h[2:1],
{1}1h[2:1],
{2}8,8,
{1}7h[2:1],
{1}6h[2:1],
{2}7,8,
{1}1b,
{1}2-7[2:1],,
{1}6-3[2:1],,
{1}4-1[2:1],,
{1}8-5[2:1],,
{2}1,1,
{1}1,
{2}8,8,
{2}7,7,
{2}8,8,
{1}8,
{2}1,1,
{2}2,2b,
{1}3-6[2:1],,
{1}7,
{1}7,
{1}6-3[2:1],,
{1}2,
{1}1,
{2}8,8,
{1}8,
{2}1,1,
{1}1,
{2}8,8,
{2}7,7,
{2}8,8,
{1}8/1,
{4}2,2,,,
{4}3,3,,,
{4}2,2,,,
{2}1,1,
{4}8,8,,,
{4}7,7,,,
{4}8,8,,,
{2}1,1,
{4}1-4[2:1],,,,
E
&inote_2=(145.0){1},,,,
{1}5-1[8:3],
{2}8,7,
{2}1,2,
{2}4,3,
{2}5,6,
{2}8,7,
{2}1,2,{1},,
{2}1,7,
{2}8,2,
{2}3,4,
{2}5,6,
{2}5,3,
{2}4,6,
{2}7,8,
{2}7,6,
{1}6-2[8:3],
{1}3-7[8:3],
{1}8-5[8:3],
{4}4,3,2,3,
{1}2-6[8:3],
{1}7-3[8:3],
{1}4-8[8:3],
{1}8/7,
{4}1,2,3,,
{4}2,3,4,,
{4}3,4,5,,
{1}6h[2:1],
{4}8,7,6,,
{4}5/6,5/6,5/6,,
{4}3/4,4/3,3/4,,
{1}5b/4b,
{1}2h[4:3],
{1}1h[4:3],
{1}8h[4:3],
{4}8,7,6,5,
{1}4h[4:3],
{1}3h[4:3],
{1}2h[4:3],
{1}1-4[8:3],
{4}3b,3,4,,
{4}6,6,5,,
{4}7,7,8,,
{1}1-5[8:3],
{4}6,6,5,,
{4}3,3,4,,
{4}2,2,1,,
{1}8-4[8:3],
{1}6h[4:3]/5h[4:3],
{1}5h[4:3]/7h[4:3],,
{4}6,5,4,3,
{1}4h[4:3]/3h[4:3],
{1}2h[4:3]/4h[4:3],
{1}4h[4:3]/3h[4:3],
{1}4-8[8:3],
{4}1,2,3,,
{4}2,3,4,,
{4}3,4,5,,
{1}6h[2:1],
{4}8,7,6,,
{4}5/6,5/6,5/6,,
{1}4h[4:3]/5h[4:3],
{1}5-1[8:3],
{4}8b,8,7,,
{4}5,5,6,,
{4}4,3,2,,
{1}1-5[8:3],
{4}4,4,3,,
{4}1,1,2,,
{4}8,7,6,5,
{606}5,,,,,,,,,,,,,,,,,,,,,,,,,,,,,,,,,,,,,,,,,,,,,,,,,,,,,,,,,,,,,,,,,,,,,,,,,,,,,,,,,,,,,,,,,,,,,,,,,,,,,,,,,,,,,,,,,,,,,,,,,,,,,,,,,,,,,,,,,,,,,,,,,,,,,,,,,,,,,,,,,,,,,,,,,,,,,,,,,,,,,,,,,,,,,,,,,,,,,,,,,,,,,,,,,,,,,,,,,,,,,,,,,,,,,,,,,,,,,,,,,,,,,,,,,,,,,,,,,,,,,,,,,,,,,,,,,,,,,,,,,,,,,,,,,,,,,,,,,,,,,,,,,
{341}4-8[10000:3717],,,,,,,,,,,,,,,,,,,,,,,,,,,,,,,,,,,,,,,,,,,,,,,,,,,,,,,,,,,,,,,,,,,,,,,,,,,,,,,,,,,,,,,,,,,,,,,,,,,,,,,,,,,,,,,,,,,,,,,,,,,,,,,,,,,,,,,,,,,,,,,,,,,,,,,,,,,,,,,,,,,,,,,,,,,,,,,,,,,,,,,,,,,,,,,,,,,,,,,,,,,,,,,,,,,,,
E
&inote_3=(145.0){1},
{2}1,2h[2:1],
{1}1^6[2:1],
{2}8,6h[2:1],
{4}1,1,1,1b/8b,
{4}1,2,3,4,
{4}5,6,7,8/1,
{4}8,7,6,5,
{8}4,,3,,2,,1,1,
{4}1,3,5,7,
{4}8,6,4,2,
{2}1h[2:1],8h[2:1],
{4}2,7,1b/8b,,
{4}2,1,2,3,
{4}7,8,7,6,
{4}5,4,3,3,
{4}2,1,8^5[16:3],,
{4}2,3,4,5,
{4}6,5,4,3,
{4}1/2,2,3,4,
{4}5/6,6,7,1b/8b,
{8}3,,1,1h[8:3],,,8,,
{4}1,2,3,4,
{8}6,,8,8h[8:3],,,1,,
{2}8-4[16:3],1-5[16:3],
{8}7,,6,6h[8:3],,,5,,
{4}5/6,3/4,1/2,,
{8}2,,3,3h[8:3],,,4,,
{4}4/3,5/6,8/7,1b/2b,
{4}1,1,6,5/6,
{4}8,8,3,4/3,
{4}2,1,8,8/7,
{4}7,8,1^4[16:3],,
{4}6,6,8-4[16:3],,
{4}3,3,1-5[16:3],,
{4}7,8/7,6/1,2/1,
{1}8b/3b,
{4}3,2,1h[4:1],8,
{4}6,7,8h[4:1],1,
{4}3/6,2/7,1h[4:1]/8h[4:1],,
{2}1-5[16:3],8-4[16:3],
{4}1^4[16:3],,6,7,
{4}8^5[16:3],,3,2,
{4}1h[4:1],8,7,6,
{8}1,,2,,3,3,3b,,
{8}8,8,8,,4,4,4,,
{8}5,5,5,,1,1,1,,
{8}7,7,7,,3,3,3,,
{8}6,6,2,2,8,8,1,,
{8}2,2,1,,7,7,8,,
{8}3,3,4,,6,6,5,,
{2}4-8[16:3],5-1[16:3],
{4}8,2/7,3/6,4b/5b,
{4}1h[1:1],,,5,
{4}5h[1:1],,,2,
{4}2h[4:3],,,6,
{4}6,6,6,6b,
{4}3h[1:1],,,7,
{4}7h[1:1],,,4,
{4}4h[4:3],,,8,
{4}8,8,1b/8b,,
{8}1,,2,,3,,4,4,
{8}8,,7,,6,,5,5,
{8}5,,4,,3,,2,2,
{4}2/1,2/1,8/7,8/7,
{4}3,8,1,6,
{4}1,3,5,7,
{4}6,4,2,8-4[4:1],{1},
{2}1-4[16:3],8-5[16:3],
{2}2-6[16:3],7-3[16:3],
{2}1-5[16:3],8-4[16:3],
{4}1,1^4[16:3]/8^5[16:3],,,
{4}2/8,1,4/6,5,
{4}6/8,7,4/2,3,
{2}8/7,2/1,
{4}4/8,3/7,6/2,1^4[4:1]/5^8[4:1],,,
E
&inote_4=(145.0){1},
{2}6h[2:1],2h[2:1],
{1}8-4[4:1],
{2}7h[2:1],3h[2:1],
{4}5-1[4:1],,,1b/8b,
{4}3/2,3/1,3/8,3/7,
{4}3/6,6/7,6/8,6/1,
{4}2/6,2/5,2/4,2/3,
{8}3/1,,3/8,,3/7,,7/4,6,
{4}7/5,7/6,6/8,6/1,
{4}6/2,3/7,4/8,1/5,
{2}3/7,5/1,
{4}8/4,3^8[4:1]/7^4[4:1],,,
{4}1h[2:1],3,8h[2:1],6,
{4}1h[2:1],5,4h[4:3],8,
{4}7,6,5h[1:1],4,
{4}3,2,1,7b/2b,
{4}4/8^5[2:1],3,2,1,
{4}8/1^4[2:1],7,6,5,
{4}1/4-8[2:1],2,3,4,
{4}8/5-1[2:1],7,6,5,
{8}8/1,,3,4,,6,5,,
{4}2/1,3/1,8/7,6/8,
{8}4/5,,2,1,,7,8,,
{4}5/6,7/5,3/4,4/2,
{8}8/4,,6,5,,1,2,,
{4}8-4[8:1],2-6[8:1],7-3[8:1],,
{8}1/5,,3,4,,8,7,,
{4}1-5[8:1],7-3[8:1],2-5[8:1],,
{8}8,8h[4:1],6,6,4,4h[4:1],2,2,
{8}1,1h[4:1],3,3,5,5h[4:1],7,7,
{8}8,7,6,5,4,3,2,1,
{16}8h[8:3],,,2,,,1h[4:1],,,,7,,1b/8b,,,,
{8}1,2,3,4,5,6,8/7,1/2,
{8}8,7,6,5,4,3,2/1,7/8,
{4}1-4[8:1],5-8[8:1],3-6[8:1],7^2[8:3],
{4},,,2b,
{16}2,,,4,,,3,,8,,,6,,,7,,
{16}6,,,4,,,5,,4/3,,,,6/5,,,,
{16}6,,,8,,,7,,8,,,2,,,1,,
{16}2,,,3,,,1,,7-3[8:1],,,,,,,,
{16}5,,,4,,,6,,8/7,,,2,,,1,,
{16}2/3,,,8,,,1,,3/4,,,6,,,5,,
{16}8/2,,,4,,,3,,5/8,,,2,,,1,,
{16}7/4,,,5,,,6,,4-1[8:1]/5-8[8:1],,,,,,,,
{4}1-5[8:1],8-4[8:1],2-6[8:1],,
{4}7-3[8:1],1-5[8:1],8-4[8:1],,
{4}3-8[8:1],4-7[8:1],1-5[8:1],,
{4}2,1/5,8/4,7b/3b,
{4}1-5[8:1],5-1[8:1],8-4[8:1],,
{4}2-6[8:1],6-2[8:1],7-3[8:1],,
{4}2-6[8:1],4-8[8:1],5-1[8:1],,
{4}3-8[4:1],7,6,5b,
{4}6h[2:1],5,2,8/7,
{4}3h[2:1],4,7,1/2,
{4}8/2,1,6/4,5,
{4}7/1,8,3/5,4,
{4}2h[4:1],4h[2:1],6^1[8:1],,
{4}7h[4:1],5h[2:1],3^8[8:1],,
{4}1h[4:1],8h[4:1],7h[4:1],6,
{4}1-5[2:1],1h[2:1],,,
{8}2,2h[4:1],8,8h[4:1],1,1h[4:1],7,7,
{8}3,3h[4:1],5,5h[4:1],4,4h[4:1],6,6,
{8}2,2h[4:1],6,6h[4:1],5,5h[4:1],1,1,
{16}7/2,,,8/1,,,2/1,,,,3/8,,7b/4b,,,,
{8}7,7h[4:1],8,8h[4:1],1,1h[4:1],2,2,
{8}6,6h[4:1],5,5h[4:1],4,4h[4:1],3,3,
{8}5,6,7,8,1,2,3,4,
{8}5-1[8:3],,,,,8,8,6,
{16}4h[4:1],,,,3h[2:1],,,2,,,2,,2h[4:1],,1,,
{16}1h[4:1],,8,,
{970}8h[16:3],,,,,,,,,,,,,,,,,,,,,,,,,,,,,,,,,,,,,,,,,,,,,,,,,,,,,,,,,,,,,,,,,,,,,,,,,,,,,,,,,,,,,,,,,,,,,,,,,,,,,,,,,,,,,,,,,,,,,,,,,,,,,,,,,,,,,,,,,,,,,,,,,,,,,,,,,,,,,,,,,,,,,,,,,,,,,,,,,,,,,
{69}7,,,,,,,,,,,,,
{8}5/1,7/3,6/2,
{16}4/8h[4:1],,,,2h[16:3],,,3,,,4-8[8:1],,5-1[16:1],,,,
{8},,,,,1,1,3,
{16}5h[4:1],,,,6h[2:1],,,7,,,7,,7h[4:1],,8,,
{16}8h[4:1],,1,,1h[16:3],,,2,,,3,,1,,6,,
{4}8^5[8:1],3^8[8:1],4-8[8:1],,
{16}1,,2,,6,5,,3,,4,,3,8,,1,,
{1}7b/2b,
E
&inote_5=(145.0){1},
{2}6h[2:1],2h[1667:833],
{4}8-4[2:1],8h[2:1],,,
{2}2h[4:1]/1-6[8:1],3h[4:1]/4-7[8:1],
{16}7,,,1,,,3,,1/5,,,,3b/7b,,,,
{16}2h[16:3],,,1h[16:3],,,8h[4:1],,,,7h[16:5],,8,8,,3h[4:1],
{16},,,4h[16:3],,,5h[4:1],,,,6h[16:5],,2,2,,2h[4:1],
{16},,,4h[16:3],,,6h[4:1],,,,4h[16:5],,2,2,,2h[4:1],
{16},,,8h[16:3],,,6h[4:1],,,,7,8,1,2,3,,
{16}1h[16:3],,,4h[16:3],,,6h[4:1],,,,1-6[16:1],,1,,,3-8[16:1],
{16},,,1,,,1^4[16:1],,,,,,1,8,7,6,
{16}4,,,,5,,,,4,5,,2,,1,,8,
{16}1,,3,,5,,7,,5,,1,8b,,,,,
{16}3,7,,1,,1,,1,5,,3,,3,,3,,
{16}3,7,,5,,5,,5,,5,,5,1,,7,,
{16}6,2,,8,,8,,8,,8,,8,4,,2,,
{16}2,6,,4,,4,,4,8,,6,,6,,6b,,
{16}2/4,1,,1,,8,,8,2/7,,6,,6,,6,,
{16}3/5,4,,4,,4,,3,,3,,3,1/2,,8,,
{16}7/8,1,,2,,4,,6,,8,,3,1/2,,2,,
{16}5/6,7,,4,,2,,8,1,,3,,5,,7b,,
{8}1/2,,7/8,3/4-8[8:1],,4/1-5[16:1],1,,
{4}4/3,6/5,8/7,2/1,
{8}8/6,,2/4,5/1^4[8:1],,5/1^6[8:1],1,5,
{8}5,,7,,8/2,1,4/6,5,
{8}1/3h[4:1],,7,7/5h[4:1],,6,7,8,
{4}1-5[8:1],1/7-3[8:1],7/5-1[8:1],5/8,
{8}7/2h[4:1],,7,4/8h[2:1],,2,3,4,
{4}1/5-1[8:1],5/8-4[8:1],8/2-6[8:1],1b/2b,
{16}2,1,,5,6,,3,4,,8,7,,1/7,,7/5,,
{16}1,2,,7,8,,2,8,,7,1,,7/2,,8/1,,
{16}1,7,,5,7,,3,
{937}5,,,,,,,,,,,,,,,,,,,,,,,,,,,,,,,,,,,,,,,,,,,,,,,,,,,,,,,,,,,,,,,,,,,,,,,,,,,,,,,,,,,,,,,,,,,,,,,,,,,,,,,,,,,,,,,,,,,,
{989}1,,,,,,,,,,,,,,,,,,,,,,,,,,,,,,,,,,,,,,,,,,,,,,,,,,,,,,,,,,,,,,,
{8}3,7/3,5/1,
{16}1/3,,,3/5h[16:3],,,7h[4:1],,,,1,,1b,,,,
{16}3,4,2,4,3,,6,5,7,5,6,,1,2,3,4,
{16}6,5,6,5,6,,3,4,3,4,3,,6,4,5,3,
{16}7,8,6,8,7,8,6,8,4,3,5,3,4,3,5,3,
{4}4-8[2:1],4h[2:1],,,
{16}2,1,3,,7/8,,5,6,,3,4,,1,6,1,,
{16}7,8,6,,1/2,,4,3,,6,5,,8,3,8,,
{16}3,4,3,,5/6,,6,5,,7,8,,2,1,3,,
{16}6,5,6,,4/3,,3,4,,2,1,,7,8,6,1b,
{16}7^4[8:1],8,7,,2,,2,4,,5,7,,1,7,2,,
{16}2^5[8:1],1,2,,7,,7,5,,4,2,,8,2,7,,
{16}1-5[8:1],8,1,,7,,7,3,,5,1,,1,6,5,,
{16}8-4[8:1],1,8,,2,,2,6,,4,8,,3,4,3,,
{16}7,8,,3,4,,6,5,,2,1,,5,4,5,,
{16}2,1,,1,8,,8,7,,1,8,,4,5,3,,
{16}7,8,,8,1,,1,2,,8,1,,5,4,6,,
{16}2,1,,6,5,,3,4,,7,8,,4b,5,4,,
{16}2,1,,3,4,,8,7,,5,6,,2,1,2,,
{16}7,8,,6,5,,1,2,,4,3,,7,8,7,,
{4}1-4[8:1],8-5[8:1],2^7[8:1],,
{16}3,5,,5,7,,7,1,,1,3,,1b,8,2,,
{4}4^1[4:1],1-5[4:1],5^8[4:1],,
{4}1^4[4:1],4-8[4:1],8^5[4:1],,
{4}7-2[4:1],2-5[4:1],5-8[4:1],8-3[4:1],
{8}3-6[4:1],,6-1[4:1],,1^4[8:1],1^6[8:1],,,
{8}1^4[4:1],1,4^7[4:1],4,7^2[8:1],7,,,
{8}8^5[4:1],8,5^2[4:1],5,2^7[8:1],2,,,
{4}2^7[4:1],7-3[4:1],3^6[4:1],,
{4}8-5[8:1],1-4[8:1],6-3[8:1],,
{16}4,4,,6,6,,8,8,,2,2,,8/4b,,6/2,,
{16}3,1,,5,7,,7,
{937}1,,,,,,,,,,,,,,,,,,,,,,,,,,,,,,,,,,,,,,,,,,,,,,,,,,,,,,,,,,,,,,,,,,,,,,,,,,,,,,,,,,,,,,,,,,,,,,,,,,,,,,,,,,,,,,,,,,,,
{989}1,,,,,,,,,,,,,,,,,,,,,,,,,,,,,,,,,,,,,,,,,,,,,,,,,,,,,,,,,,,,,,,
{8}3,4/8b,6/2,
{16}6,5/7,,3,2/4,,7,8/6,,2,3/1,,4b/8,,6/2,,
{16}5/1,,,6/2,,,3/7,,,,8/4,,5b/1b,,,,
{16}2,3,4,5,6,,1,8,7,6,5,,7,8,1,2,
{16}7,6,5,4,3,,8,1,2,3,4,,2,1,8,7,
{16}5,6,7,8,1,2,3,4,5,6,7,8,1,2,3,4,
{4}5-1[2:1],5h[2:1],,,
{16}3,5,4,,6/2,,4-8[8:1],4,,8,,,1,7,1,,
{16}6,4,5,,3/7,,5-1[8:1],5,,1,,,8,2,8,,
{16}1^6[8:1],2,3,,4,,5-1[8:1],5,,1,,,8,7,6,,
{16}8^3[8:1],7,6,,5,,4-8[8:1],4,,8,,,1,2,3,4,
{16}7,4,5,,4/8,,5/1-5[8:1],1,,
{563}5,,,,,,,,,,,,,,,,,,,,,,,,,,,,,,,,,,,,,,,,,,,,,,,,,,,,,,,,,,,,,,,,,,,,,,,,,,,,,,,,,,,,,,,,,,,,,,,,,,,,,,,,,
{63}6,,,,
{16}4,6,,
{16}2,5,4,,5/1,,4/8-4[8:1],8,,4,,,3,5,3,,
{16}7^2[8:1],6,7,,6,,3,4,,6,5,,5/1,,2/6,,
{16}7/3,,8/4,,3/1,8/2,,3/4,,5/6,,2/6,7/3,8/4,1/5,6b/2b,
E
