&title=LUCIA
&artist=SHIKI
&first=0
&des=
&wholebpm=154
&demo_seek=49.7
&demo_len=14.1
&des_4=はっぴー
&des_5=mai-Star
&des_6=サファ太
&lv_1=2
&lv_2=5
&lv_3=7
&lv_4=12
&lv_5=13
&lv_6=13+
&inote_1=(154.0){1},,,,,,,,,
{1}1,,
{1}8,,
{1}7,,
{1}6,,
{1}7,
{1}7,
{1}8,
{1}8,
{1}1,
{1}1,
{1}2,
{1}2b,
{1}3-6[2:1],,
{1}7,
{1}8,
{1}1-4[2:1],,
{1}8-5[2:1],,
{2}1,1,
{1}1,
{2}2,2,
{2}3,3,
{1}2,
{1}1,
{2}8,8,
{1}8b,
{2}1,1,
{1}2,
{2}1,1,
{2}8,8,
{1}7,
{1}8,
{2}1,1,
{1}1b,
{1}2h[1:1],,
{1}3h[1:1],,
{1}2,
{1}1,
{1}8,
{1}7,
{1}6-2[2:1],,
{1}1h[1:1],,
{1}8,
{1}7,
{2}8,8,
{2}1,1b,
{2}2,2,
{2}2,3,
{2}4,4,
{2}5,5,
{2}6,6,
{2}7,7,
{2}8,8,
{2}1,1,
{4}8-4[2:1],,,,
E
&inote_2=(154.0){1},,,,,
{1}6,
{1}5,
{1}4,
{1}4-1[16:5],
{2}8,7,
{2}6,5,
{1}5h[4:3],
{1}7h[4:3],
{2}1,2,
{2}3,4,
{2}4,2,
{1}1h[4:3],
{2}3,4,
{2}5,6,
{1}6h[4:3],
{1}4h[4:3],
{2}2,1,
{2}8,7,
{2}6,1,
{1}1,
{4},8,,7,
{4},1,,2,
{4},5,,6,
{4},3,,4,
{4},8,,7,
{4},1,,2,
{4},5,,6,
{1}5-8[16:9],
{4}7b,,8,8,
{2}7,8/7,
{4}6,,6,5,
{1}5h[2:1],
{4}6,,8,1,
{2}8,1/8,
{4}3,,1,8,
{1}1h[2:1],
{4}3b,,4,4,
{2}3,3/4,
{4}2,,2,1,
{1}1h[2:1],
{4}2,,4,5,
{2}4,4/5,
{2}6,8,
{4}1,,1/8,1/8,
{1}1-4[16:9]/8-5[16:9],,,,
{2}5,6,
{2}4,3,
{2}5,6,
{1}7-2[16:9],
{4},1,,8,
{4},2,,1,
{4},3,,2,
{4},4,,3,
{4},5,,4,
{1}5,
{2}6,5,
{1}4-1[16:9],
{4}8b,,7,7,
{2}6,5/6,
{4}5,,4,4,
{1}5h[2:1],
{4}4,,3,3,
{2}2,2/3,
{4}1/2,,8,1,
{4}8,,1,1,
{16}1-5[16:9],,,,,,,,,,,,,,
E
&inote_3=(154.0){1},1,
{1}1,
{1}5,
{1}5,
{1}2-6[8:3],
{1}8-4[8:3],
{2}4,8,
{4}1/5,3/7,7/3,1b/5b,
{4}4,4,4,,
{4}8,8,8,,
{4}3,3,3,,
{4}7,7,7,2/6,
{4}1,1,1,,
{4}5,5,5,,
{4}8,8,8,,
{4}4,4,4,7/3,
{1}1h[8:3],
{1}5h[8:3],
{1}2h[8:3],
{4}6h[8:3],,,6,
{8}3h[8:3],,,5,,,,,
{8}3h[8:3],,,1,,,,,
{8}3h[8:3],,,7,,,,,
{8}7h[8:3],,,1,,,8b,,
{1}1h[4:3],
{1}3h[4:3],
{1}5h[4:3],
{1}7h[4:3],
{1}1-6[8:3],
{1}7-3[8:3],
{1}6-3[8:3],
{1}2-7[8:3],
{4}3,4,2,4,
{4}1,4,8,4,
{4}8,5,8,6,
{2}8h[2:1],7,
{4}6,5,7,5,
{4}8,5,1,5,
{4}1,4,1,3,
{1}1/2,
{4}2,2,2,2,
{4}4,4,4,4,
{4}6,6,7,7,
{1}8-4[8:3],
{4}5,5,4,4,
{4}3,3,2,2,
{4}1,1,8,8,
{4}7,7,6,6/5,
{1}8h[4:3],
{1}6h[4:3],
{1}4h[4:3],
{1}2h[4:3],
{1}1/8-4[8:3],
{1}8/1-5[8:3],
{2}2h[4:3],7h[4:1],
{1}1b/8b,
{4}1h[2:1],,3,4,
{2}5,6,
{4}7h[2:1],,8,1,
{2}2,1/8,
{4}3h[2:1],,1,7,
{4}5,,4/3,5/6,
{4}8b/1b,,5/4,6/3,
{2}2/7,1-4[16:3]/8-5[16:3],
{4}6,7,8,1,
{4}2,3,4,5,
{4}5,4,3,2,
{4}1,8,7,6/5,
{4}1,3,5,7,
{4}8,6,4,2,
{4}1/2,3/4,5/6,7/8,
{4}7/8,6/1,1/2,8/3,
{1}1b/8b,
E
&inote_4=(154.0){1},7h[1:1],
{1}1h[1:1],
{1}3h[1:1],
{8}5h[8:7],,,,,,,8,
{8}8h[8:7],,,,,,,6,
{8}6h[8:7],,,,,,,4,
{8}4h[8:7],,,,,,,2,
{2}2h[2:1],4-8[8:1],
{8}1,2,3h[4:1],,2h[4:1],,4,,
{8}8,7,6h[4:1],,7h[4:1],,5,,
{8}1,2,3h[4:1],,2h[4:1],,4,,
{8}8,7,6h[4:1],,7-3[8:1],,,,
{8}1,2,3-8[8:1],,1-6[8:1],,,,
{8}8,7,6-1[8:1],,8-3[8:1],,,,
{8}2,3,4-8[8:1],,1-5[8:1],,,,
{8}7,6,5-1[8:1],,8-4[8:1],,,,
{8}1,8,7h[4:1],,6-1[8:1],6,,,
{8}8,1,2h[4:1],,3-8[8:1],3,,,
{8}4,5,6h[4:1],,7-4[8:1],7,,,
{8}5,4,3h[4:1],,2-5[8:1],2,,,
{8}8,7,6h[4:1],,5-1[8:1],5,,,
{8}1,2,3h[4:1],,4-8[8:1],4,,,
{8}8,7,6h[4:1],,5-1[8:1],5,,,
{16}8h[8:3],,,,,,7,8,7b,,,,,,,,
{16}7h[16:3],,,6h[16:3],,,5h[16:3],,,4h[16:3],,,3,,,,
{16}2h[16:3],,,3h[16:3],,,4h[16:3],,,5h[16:3],,,6,,,,
{16}7h[16:3],,,6h[16:3],,,8h[16:3],,,5-1[8:1],,,,,,,
{16}2h[16:3],,,3h[16:3],,,1h[16:3],,,4-8[8:1],,,,,,,
{16}2h[16:3],,,3h[16:3],,,4h[16:3],,,5h[16:3],,,1,,1,,
{16}1h[16:3],,,8h[16:3],,,7h[16:3],,,6h[16:3],,,8,,8,,
{16}8h[16:3],,,1h[16:3],,,2h[16:3],,,3h[16:3],,,1,,1,,
{4}8-4[8:1],1-6[8:1],8-3[8:1],,
{16}1,,8,,7h[16:3],,,6h[16:3],,,5,,6,,,,
{16}8,,1,,2h[16:3],,,3h[16:3],,,4,,3,,,,
{16}4,,5,,6h[16:3],,,7h[16:3],,,8,,7,,,,
{16}5,,4,,3h[16:3],,,2h[16:3],,,1,,2,,,,
{16}1-6[8:1],,1,,,,,7h[16:3],,,6,,5,,4,,
{16}8-3[8:1],,8,,,,,2h[16:3],,,3,,4,,5,,
{16}7-3[8:1],,7,,,,,1h[16:3],,,8,,1,,2,,
{16}2-6[8:1],,2,,,,,8h[16:3],,,1,,8,,7,,
{16}7,,8,,1,,2,2h[16:3],,,3-8[8:1],,3,,,,
{16}2,,1,,8,,7,7h[16:3],,,6-1[8:1],,6,,,,
{16}3,,4,,5,,6,6h[16:3],,,7-4[8:1],,7,,,,
{16}6,,5,,4,,3,3h[16:3],,,2-5[8:1],,2,,,,
{16}8,,1,,2,,2,3h[16:3],,,4,,5,,6,,
{16}7,,6,,5,,5,4h[16:3],,,3,,2,,1,,
{16}1,,8,,7,,7,6h[16:3],,,5,,4,,3,,
{16}2,,3,,4,,4,5h[16:3],,,6,,7,,8,,
{1}1^6[2:1],
{1}5^2[2:1],
{2}8^3[4:1],4^7[4:1],
{4}1-5[4:1],,6h[4:1],7h[4:1],
{2}1^6[4:1],5^2[4:1],
{4}8-4[4:1],,3h[4:1],2h[4:1],
{4}1,,6h[4:1],8h[4:1],
{8}7h[2:1],,,,5,4,3,2,
{8}1^4[4:1],,,,,5,6,7,
{16}8h[8:3],,,,,,7,8,7^4[4:1],,,,,,,,
{8}1h[8:5],,,,,4,3,2,
{16}1h[8:3],,,,,,2,1,2^5[4:1],,,,,,,,
{8}8h[8:5],,,,,5,6,7,
{16}8h[8:3],,,,,,1,,1b/5b,,,2b/6b,,,3b/7b,,
{16}8/4h[8:3],,,,,,3,4,3,,2,,1^6[4:1],,1,,
{16},,,,,,3,4,3-7[8:1],,,,,,,,
{16}8,,7,,6,,6,5,,5,4,,4,,3b,,
{16}2,,1,,8,,8,1,,1,2,,2,,3b,,
{16}4,,5,,6,,6,5,,5,4,,4,,3b,,
{16}2,,1,,8,,8,7,,7,6,,6,,5b,,
{16}4,,3,,2,,2,1,,1,2,,2,,3b,,
{16}4,,5,,6,,6,7,,7,8,,8,,1b,,
{16}2,,1,,8,,8,7,,7,8,,8,,1b,,
{16}2,,3,,
{469}4,,,,,,,,,,,,,,,,,,,,,,,,,,,,,,,,,,,,,,,,,,,,,,,,,,,,,,,,,,,
{859}4,,,,,,,,,,,,,,,,,,,,,,,,,,,,,,,,,,,,,,,,,,,,,,,,,,,,,
{16}5,,5,6,,6,,7b,,
{1}8-4[4:3],,
E
&inote_5=(154.0){1},
{16}3,,,1,,,7,,7,,,1,,,3,,
{16}3,,,5,,,7,,7-3[8:1],,5-1[8:1],,,,,,
{16}8,,,6,,,4,,4,,,6,,,8,,
{16}8,,,2,,,4,,4-8[8:1],,2-6[8:1],,,,,,
{16}7h[8:3],,,5,,,1,,1h[8:3],,,3,,,7,,
{16}7h[16:3],,,1h[16:3],,,8,,1-5[8:1],,7-3[8:1],,,,,,
{16}2,,,8,,,5/6,,4,,,2,,,7/8,,
{16}1h[2:1],,,,,,3,4,5,,5,,2,1b,,,
{16}1,,6,,3,,7,8,,4,3,,8,,,,
{16}3,,8,,5,,1,2,,6,5,,2,,,,
{16}5,,2,,7,,3,4,,8,7,,4,,,,
{16}8,,3,,6,,2,1,,5,6,,1,,1/8,,
{16}1h[4:1],,3,,5,,7,7,,1,1,,1/8,,,,
{16}8h[4:1],,6,,4,,2,2,,8,8,,8/1,,,,
{16}1-5[8:1],,1,,,,6,6,,3,4,,3/6,,,,
{16}8-4[8:1],,8,,,,3,3,,6,5,,2,1,2,,
{16}7,8,,4,3,,6,5,,1,2,,8/1,,,,
{16}3,4,,6,5,,3,4,,6,5,,1/8,,,,
{16}2,1,,4,5,,8,7,,1,8,,2/7,,,,
{16}7,8,,5,4,,1,2,,8,1,,2/7,,8/1,,
{16}1,3,,3,5,,5,7,,7,1,,1/7,,,,
{16}8,6,,6,4,,4,2,,2,8,,2/8,,,,
{16}1,3,,1,7,,7,5,,5,3,,8,1,2,,
{16}7h[4:3],,,,,,2,1,8h[4:1],,,,,,,,
{1}4h[4:15]/1-6[2:1],
{1}6-3[2:1],
{1}3-8[2:1],
{1}8-5[2:1],
{4}5h[4:15]/7-4[2:1],7,,,
{4}4-1[2:1],4,,,
{4}1-6[2:1],1,,,
{4}6^1[2:1],6,,,
{4}1-5[8:1],8-4[8:1],7-3[8:1],,
{4}6-2[8:1],5-1[8:1],4-8[8:1],,
{4}3-7[8:1],2-6[8:1],1-5[8:1],,
{4}1^6[4:1],6^3[4:1],3^8[8:1],,
{4}1-5[8:1],7-3[8:1],5-1[8:1],,
{4}8-4[8:1],2-6[8:1],4-8[8:1],,
{4}8^3[4:1],3^6[4:1],6-1[8:1],,
{4}7b/8b,6b/5b,4b/3b,2b/1b,
{2}1-4[8:1]/5-8[8:1],4^1[8:1]/8^5[8:1],
{2}1-6[8:1]/5-2[8:1],2^5[8:1]/6^1[8:1],
{2}1-6[8:1]/5-2[8:1],2-7[8:1]/6-3[8:1],
{4}4/3,7/8,5-2[8:1]/6-1[8:1],,
{4}7-2[4:1],2-6[4:1],6-3[4:1],3-8[4:1],
{4}8-5[4:1],5-1[4:1],1-4[4:1],4^7[4:1],
{4}7^2[4:1],2^5[4:1],5^8[4:1],8-5[4:1],
{4}5-2[4:1],2-7[4:1],7^4[4:1],,
{4}1h[1:1],3,3,7,
{4}7h[1:1],5,5,2,
{4}2h[2:1],3,3h[2:1],4,
{4}4h[4:3],3^8[4:1],,,
{4}8h[2:1],6,2h[2:1],4,
{4}8h[2:1],7,1h[4:1],3h[4:1],
{2}5h[2:1],1h[2:1],
{4}3h[4:3],1^6[4:1],,,
{8}5/1,,,,,1-5[8:1],7-3[8:1],1,
{2}7,2/6,
{8}3/7,,,,,8-4[8:1],2-6[8:1],8,
{16}2,,,,,,1,8,7,,,,,,,,
{8}8/4,,,,,7/3,2/6,1/5,
{16}8/4,,,,,,5/1,6/2,7/3,,,7/8,,,5/4,,
{16}2b/1b,,,,,,8/1,7/2,6/3,,5/4,,6/3,,7/2,,
{4}8/1,1-5[8:1],1b/4-8[8:1],4b,
{16}3,4,3,4,2,,7,8,7,8,6,,1/5,,7/3,,
{16}6,5,6,5,7,,2,1,2,1,3,,8/4,,6/2,,
{16}1,8,2,7,8,,5,4,6,3,4,,1/2,,8/3,,
{16}5,6,4,7,4,5,3,6,3,4,2,5,1b,,,,
{16}3,4,2,4,3,,7,8,6^3[8:1],8,7,,,,,,
{16}6,5,7,5,6,,2,1,3^6[8:1],1,2,,,,,,
{16}2,8,1,7,2,,5,3,6,4,6,,6/3,7/2,8/1,,
{16}1b,,3,,5,,7,,1b,2,3,4,5-2[2:1],6,7,8,
{2}1b,,
E
&inote_6=(154.0){1},
{16}3,,,4,,,5,,,6h[16:3],,,5,,5,,
{16}6,,,5,,,4,,,3h[16:3],,,4,,4,,
{16}3,,,4,,,5,,,6h[16:3],,,5,,5,,
{16}6,,,5,,,4,,,3h[16:3],,,4,,4,,
{16}2h[1:0],,,4h[1:0],,,5h[1:0],,,7h[16:3],,,5,,5,,
{16}7h[1:0],,,5h[1:0],,,4h[1:0],,,2h[16:3],,,4,,4,,
{16}3h[1:0],,,5h[1:0],,,7h[1:0],,,1h[16:3],,,8,,8,,
{16}4/7^4[8:1],,,,2-6[8:1],,2,,8,,8,,1/7,1/7,,,
{16}6b,5,7,5,6,,1,8,,3,4,2,6,5,7h[8:1],,
{16}6h[16:3],,,5h[16:3],,,4h[16:3],,,3,,,3/4,,2/5,,
{16}1/6h[16:3],,,5,6,,4/7,,8/3h[16:3],,,4,3,,2/5,,
{16}6h[4:1]/1-5[8:1],,,,,,,,7,8,7,8,6,5,6,5,
{16}7h[4:1],,,,8,,1,2,3^6[8:1],,,6,,,7,,
{16}7-5[8:1]/8-4[8:1],,,,7/8,,,,1/2,,2,1,3,8,4,7,
{16}5b/6b,,,,4/5,,3,4,2,,8,1,,6,5,,
{16}2/7,,,,4,,4,,3/5,3/5,,4/6,4/6,,3/7,,
{16}2b,4,3,4,2,,8,1,,6,5,7,3,4,2h[8:1],,
{16}3h[16:3],,,4h[16:3],,,5h[16:3],,,6,,,5/6,,4/7,,
{16}8/3h[16:3],,,4,3,,2/5,,1/6h[16:3],,,5,6,,4/7,,
{16}3h[4:1]/8-4[8:1],,,,,,,,2,1,2,1,3,4,3,4,
{16}2h[4:1],,,,1,,8,7,6^3[8:1],,,3,,,2,,
{16}1-5[8:1]/2-4[8:1],,,,1/2,,,,7/8,,7,8,6,1,5,2,
{16}3b/4b,,,,4/5,,6,5,7,,1,8,,3,4,,
{16}2/6h[4:3],,,,5,,8,1,2h[4:1],,,,,,,,
{16}3b/5b,,,,,,6,5,6,,,4/5,,,3/4,,
{16}2,,,,,,4,3,6,5,4,3,6,5,4,3,
{16}7,,,,,,5,5,5,,,,,,4,4,
{16}4,,,,,,,,3,5,4,6,4,5,3,4,
{16}2,,,,,,3,4,3,,,4/5,,,5/6,,
{16}7,,,,,,5,6,3,4,5,6,3,4,5,6,
{16}2,,,,,,,,5,,,4/6,,,3/7,,
{16}2h[4:1]/8h[4:1],,,,,,1,1,1,,8-4[8:1],,2-6[8:1],,8,,
{8}2b,,5,,7/8,1-5[8:1],7-3[8:1],1,
{16}7,,,,4,,1,8,7,,,,2/6,,,,
{8}8/3h[4:1],,4,,1/2,8-4[8:1],2-6[8:1],8,
{16}2,,,,5,,8,1,2-6[8:1]/4-8[8:1],,,,,,,,
{8}5/7h[4:1],,8,,5/6,4-8[8:1],6-2[8:1],4,
{16}6,,,,1,,7,5,6,,4/5,,3/4,,2,,
{16}1h[4:1]/5h[8:5],,,,,,8,8,8,,1,,2/4,,3,,
{16}4/6,4/6,,8,1,8,,3/5,3/5,,1,8,2b/7b,,,,
{16}3b,,2/4,,6,5,,4/7,,8,1,,2/8,,3,,
{16}6,,5/7,,3,4,,2/5,,1,8,,1/7,,3,4,
{16}3,,2/6,,3/7,,6,5,,2,4,,3/7,,8,1,
{16}7,,2/6,,3/7,,6,5,,3,4,,2/7,,,,
{16}6,,7/8,,1/8,,2,2,,6,5,,4/7,,3,4,
{16}2,,1/2,,1/8,,7,7,,3,4,,2/5,,6,5,
{16}7,,1,,2/8,,6,5,,3,4,,2/4,,1/5,,
{16}1h[2:1]/5h[4:1],,,,,,4,4,4,,2,,3/7,,4/6,,
{1}5b>5[4:11],
{2}5,4,
{2}3,2,
{2}1,8,
{4}7V53[2:1],5-3[4:1],3-7[4:1],7,
{4}3V57[2:1],5-7[4:1],7-3[4:1],3,
{4}5V37[2:1],3,7V51[2:1],5,
{1}1V75[2:1]*V35[2:1],
{8}2b/8b,,,,,6,5^2[4:1],1,
{16}2^7[4:1],,,,,,3,4,5,,,,,,,,
{8}1/7,,,,,3,4^7[4:1],8,
{16}7^2[4:1],,,,,,6,5,4,,,,,,,,
{8}4/5,,,,,4,5,3/6,
{16}2h[4:1]/7h[4:1],,,,,,1/8,2/7,3b/6b,,,7b/8b,,,4b/5b,,
{16}1b/2b,,,,3/6,,8,1,8,,5/7,,6/4>5[8:3],,3/5,,
{4}2b/4b,,4b-8[8:1],3b/4b,
{16}2b-5[16:1],1,3,8,2,,7-4[16:1],8,6,1,7,,3,,1/2,,
{16}7-4[16:1],8,6,1,7,,2-5[16:1],1,3,8,2,,6,,7/8,,
{16}3-8[16:1],4,2,5,3,,6-1[16:1],5,7,4,6,,3,8,3,8,
{16}2,4,1,8,5,7,4,5,2,4,1,8,3b/7b,,,,
{16}2-6[16:1],1,3,8,2,,7-3[16:1],8,6,1,7,,2,1,3,8,
{16}3-7[16:1],4,2,5,3,,6-2[16:1],5,7,4,6,,3,4,2,5,
{16}1,7,3,8,2,5,4,6,2,8,1,5,4,8,2,6,
{16}1,5,2,6,3,7,4,8,1/5,,3/7,,
{641}1qq5[1:4]/5qq1[1:4],,,,,,,,,,,,,,,,,,,,
{639}2/6,,,,,,,,,,,,,,,,,,,,3/7,,,,,,,,,,,,,,,,,,,,
{641}4/8,,,,,,,,,,,,,,,,,,,,
{8}1/5,
{1}1b/5b,,,,,
E
