&title=Ignite Infinity
&artist=「PHANTASY STAR PORTABLE2 ∞」
&wholebpm=160
&demo_seek=62.4
&demo_len=13.8
&lv_1=2
&lv_2=4
&lv_3=7
&lv_4=11+
&lv_5=12+
&des_4=譜面-100号
&des_5=ニャイン
&inote_1=(160.0){1},,,,,,,,,,,
{1}6,
{1}6,
{1}7,
{1}7,
{1}8,
{1}8,
{1}1,
{1}1b,
{1}8,
{1}8,
{1}1,
{1}1,
{1}8/1,,
{1}7/2,,
{1}6/3,
{1}3/6,
{1}5/4,,
{1}3,
{1}2,
{1}1,
{1}8,
{1}1,
{1}8,
{1}7,
{1}6,
{2}7,7,
{1}7b,
{4},,,8-4[2:1],{1},
{1}3,
{1}2,
{1}1,
{1}8,
{1}7,
{1}6,
{1}5,
{1}4h[2:1],
{1}3b,
{1}2,
{1}1,
{1}8,
{1}1,
{1}8,
{1}7,
{1}6,
{1}7,,
{1}8,,
{1}1,,
{1}8,,
{1}1/8,
E
&inote_2=(160.0){1},,,
{1}1h[1:1],,
{1}2h[1:1],,
{1}3h[1:1],,
{1}4h[1:1],,
{1}5,
{1}5,
{1}6,
{1}6,
{1}7,
{1}7,
{1}8,
{1}8b,
{1}1-4[4:3],,
{1}8-5[4:3],,
{1}1,,
{1}8,,
{1}1,
{1}1,
{1}8h[1:1],,
{2}1,2,
{1}3,
{2}8,7,
{1}6,
{1}1-4[4:3],,
{2}8,7,
{2}6,5,
{2}4,3,
{2}2,1,
{1}8b/1b,,
{2}2,2,
{4}2,2,2,,
{2}1,1,
{4}1,1,1,,
{2}8,8,
{4}8,8,8,,
{2}7,7,
{4}7,7,7b,,
{4}6,6,6,,
{4}6,6,6,,
{4}5,5,5,,
{4}5,5,5,,
{2}4,5,
{2}3,6,
{2}2,7,
{1}8b/1b,
{1}1-4[4:3],,
{1}8-5[4:3],,
{8}2/1,,,1/2,,,
{4}2/1,{1},
{8}8/7,,,7/8,,,
{4}7/8,{1},
{1}7/2,
E
&inote_3=(160.0){1},,,
{1}2h[1:1],
{1}1,
{1}1h[1:1],
{1}8,
{1}8h[1:1],
{1}7,
{1}7h[1:1],
{1}6,
{2}7h[2:3],8,
{2}8,8,
{2}8h[2:3],1,
{2}1,1,
{2}1h[2:3],2,
{2}2,2,
{2}2h[2:1],3,
{1}3b,
{8}8,,,6,,,4,,
{4},2,2,3/2,
{8}1,,,3,,,5,,
{4},7,7,7/6,
{2}5h[2:1],7,
{2}8h[2:1],6,
{2}4h[2:1],2,
{4}3,3,3,,
{2}6h[2:1],8,
{2}7h[2:1],5,
{2}2h[2:1],4,
{4}1,1,1,,
{2}1h[2:1],8h[2:1],
{2}7h[2:1],6,
{2}8h[2:1],1h[2:1],
{2}2h[2:1],3,
{2}3h[2:1],4h[2:1],
{2}5h[2:1],6,
{1}1-6[4:1],
{1}8-3[4:1],
{1}2-5[4:1],
{1}7-4[4:1],
{1}2h[1:1],
{1}7b,
{8}1h[8:3],,,,,1,,8h[4:1],
{8},7h[4:1],,6h[8:3],,,,,
{8}4,,3,3h[8:3],,,,,
{8}6,,7,7h[8:3],,,,,
{8}8h[8:3],,,,,8,,1h[4:1],
{8},2h[4:1],,3,,1,1,1,
{8},8,8,8,,,,,
{1}1^4[2:1]/8^5[2:1],
{4}1,1/2,1,1/2,
{4}8,7/8,8,7/8,
{4}6,6/5,6,6/5,
{4}3,3/4,3,4/3,
{4}2,2/1,2,1/2,
{4}8,7/8,8,8/7,
{2}1-5[4:1],8-4[4:1],
{1}1b,
{8}7h[4:1],,,8h[4:1],,,1h[4:1],,
{4},2,2,2/1,
{8}3h[4:1],,,4h[4:1],,,5h[4:1],,
{4},6,6,6/5,
{8}8h[4:1],,,7h[4:1],,,6h[4:1],,
{4},5,5,4/5,
{8}4h[4:1],,,3h[4:1],,,2h[4:1],,
{4},1,1,1/8,
{1}2b/7b,
E
&inote_4=(160.0){1},,
{4},,,1-4[4:3]/8-5[4:3],
{1}8/1,
{4},,,1-6[4:3]/2-5[4:3],
{1}1/2,
{4},,,7-4[4:3]/8-3[4:3],
{1}8/7,
{4},,,4-1[4:3]/5-8[4:3],
{1}4/5,
{4},,,1^4[4:3]/8^5[4:3],
{1}1/8,
{4},,,1-4[4:3]/2-7[4:3],
{1}2/1,
{4},,,5-8[4:3]/6-3[4:3],
{1}6/5,
{4},,,1^4[2:1]/8^5[2:1],
{4}1/8,,,1-5[8:1]/8-4[8:1],{1},
{8}6h[4:1]/1h[4:1],,,3h[4:1]/7h[4:1],,,2h[4:1]/5h[4:1],,
{8},4,3,4,5,6,5,,
{8}4h[4:1]/7h[4:1],,,6h[4:1]/2h[4:1],,,3h[1997:499]/8h[4:1],,
{8},1,2,1,8,7,8,,
{4}1h[4:7]/5h[4:1],,5,5,
{4}5,5,5,5,
{4}3h[4:1]/7h[4:7],,3,3,
{4}3,3,3,3,
{4}8h[4:1]/4h[4:3],,8,8,
{4}1h[4:1]/5h[4:3],,1,1,
{4}6/2h[4:1],6,4/8h[4:1],4^1[4:1],
{1}8^5[4:1],
{2}5/6-1[8:1],4/3-8[8:1],
{4}6,2h[4:1],3,7h[4:1],
{2}6^3[8:1],3^6[8:1],
{4}8,3h[4:1],6h[4:1],1-4[8:1],
{4}1,7-3[8:1],7,8-5[8:1],
{4}8,2-6[8:1],2,,
{8}8h[4:1]/4h[4:1],,,4-7[8:1]/8-3[8:1],,,,,
{8}6h[4:1]/2h[4:1],,,2-5[8:1]/6-1[8:1],,,,,
{8}3/7-4[8:1],,,3-8[8:1],,,,1/5,
{8},3/7,,1^6[8:3]/5^2[8:3],,,,,
{4},,,1^4[8:1]/8^5[8:1],
{1}1-5[2:1]/8-4[2:1],
{8}1-6[8:1],,8,7-4[8:1],,,,1h[4:1],
{8},2h[4:1],,3^6[8:1],,,,,
{8}8-3[8:1],,,4-7[8:1],,,,6-3[8:3]/8-3[8:3],{1},
{8}8-3[8:1],,1,2-5[8:1],,,,8h[4:1],
{8},7h[4:1],,6,,1-6[8:1]/2-5[8:1],,,
{8},7-4[8:1]/8-3[8:1],,,,,1^4[8:1]/8^5[8:1],,
{1}1-5[2:1]/8-4[2:1],
{8}7-3[8:1],,,2-6[8:1],,,,1/8,
{8},3-7[4:1]/6-2[4:1],,,,,,,
{8}4/8,,6/2,3-8[8:1]/7-4[8:1],,,,1^4[8:3]/5^8[8:3],{1},
{8}5,5,5,3h[4:1],,4,,7h[4:1],
{8},6,,1h[8:9],,2-7[8:5],
{4}2,{1},
{8}1^4[8:1],8^5[8:1],1-5[4:1],8-4[4:1],,,,,
{8}1h[4:1]/6h[4:1],,,8h[4:1]/4h[4:1],,,5h[4:1]/2h[8:7],,
{8},5,,5,,5,1/4,,
{8}3h[4:1]/8h[4:1],,,5h[4:1]/1h[4:1],,,7h[8:7]/4h[4:1],,
{8},3,,3,,3,5/8,,
{8}1-5[8:1],,,4-7[8:1],,,8-3[8:1],,
{8},4,,4,,4/1,2/7,,
{8}8-4[8:1],,,5-2[8:1],,,1-6[8:1],,
{8},5,,5,,5/8,2/7,,
{1}5b/4b,
E
&inote_5=(160.0){1},,,
{1}4-8[2:1],,
{1}8h[1:2],,
{1}7-3[2:1],,
{1}4h[1:2],,
{4}1,1,8,8,
{4}7,7,6,6,
{4}5,5,4,4,
{4}3,3,2,2^5[2:1],
{4}6,7,8,1,
{4}2,3,4,5^2[2:1],
{4}1,8,7,6,
{1}1b,
{8}2h[4:1],,3,5h[4:1],,6,8h[4:1],,
{8},7/8,,5/6,,1/8,1/2,,
{8}8h[4:1],,7,5h[4:1],,4,2h[4:1],,
{8},2/3,,5/4,,1/2,1/8,,
{8}7-3[8:1],,2,2,4h[4:1],,1,1,
{8}8h[4:1],,1,3,5,7h[8:3],,,
{8}6-2[8:1],,3,3,1h[4:1],,4,4,
{8}5h[4:1],,4,2,8,6-2[8:1],,,
{8}3h[4:1],,4,4,2h[4:1],,1,1/8h[4:1],
{8},7,,5/1h[4:1],,3,5,7,
{8}1-5[8:1],,,3-7[8:1],3,,,7h[8:7],
{8},5,3h[2:1],,,,,,
{8}2^5[8:1],,2,1h[4:1],,8,,6,
{8}4^7[8:1],,4,3h[2:1],,7,,1,
{8}1h[8:3],,,8,7,6,5,4,
{8},3/2,,8/1,,,2,4,
{8}6^3[8:1],,6,2h[4:1],,1,,7,
{8}8^3[8:1],,8,8h[4:1],,6h[4:1],,4,
{8}3h[4:1],,4,6b/5,,7/8b,,7,
{8}6h[4:1],,5,4/3b,,2/1b,,3,
{8}4^1[8:1],,4,6^3[8:1],,,,4h[4:1],
{8},5,6,7h[8:5],,,,,
{4}8b,,,1^4[4:1]/8^5[4:1],
{1}1-5[2:1]/8-4[2:1],
{8}5/1h[4:1],,6,3/7h[4:1],,4-7[4:1],,7-2[4:1],
{8},2-5[4:1],,,,,,,
{8}4/8-4[8:1],,8,1h[4:1],,8,7,6,
{8}1/5-1[8:1],,5,2h[4:1],,1,7,5,
{8}3/7h[4:1],,3,5/1h[4:1],,2h[4:1],,1h[4:1],
{8},7h[4:1],,6,,7/5,7/1,1/3,
{8},2/6,1/5,8/4,,,1^4[4:1]/8^5[4:1],,
{1}1-5[2:1]/8-4[2:1],
{8}4/8h[4:1],,3,6/2h[4:1],,4-1[4:1],,1-6[4:1],
{8},6-2[4:1],,,,,,,
{8}5/1-5[8:1],,1,8h[4:1],,1,2,3,
{8}8/4-8[8:1],,4,7h[4:1],,8,2,4,
{8}6/8-4[8:1],,2,2-6[8:1],,6,7,8/6-1[8:1],
{8},8,6,4/1-5[8:1],,1,3,5h[8:7],{1},
{1}4-1[2:1]/5-8[2:1],
{8}4/5h[4:1],,8,2/7h[4:1],,3,4/8-4[8:1],,
{8},5,,5/4,,6/3,1/8,,
{8}2/7h[4:1],,6,5/8h[4:1],,6,7,8,
{8}1h[4:1],,2,4h[4:1],,5,6^3[8:1],,
{8}2h[8:3],,,8h[8:3],,,6h[8:3],,
{8},5,,7/6,,8/1,1/8,,
{8}7h[8:3],,,5h[8:3],,,3h[8:3],,
{8},2,,1/2,,8/1,1-4[8:1]/8-5[8:1],,,,
E
