&title=Her Dream Is To Be A Fantastic Sorceress
&artist=アミティ(CV 菊池志穂)「ぷよぷよ」
&wholebpm=170
&demo_seek=35.1
&demo_len=11.3
&lv_1=1
&lv_2=2
&lv_3=6
&lv_4=10+
&lv_5=12
&des_4=はっぴー
&des_5=mai-Star
&inote_1=(170.0){1},,,,,
{1}1,,
{1}8,,
{1}7,
{1}7,
{1}8,
{1}8,
{1}1,
{1}1,
{1}2,
{1}2,
{1}2-7[4:3],,
{1}7h[2:1],
{1}8h[2:1],
{1}8,
{1}8,
{1}1,
{1}1,
{1}8,
{1}7,
{1}6,
{1}5,
{1}4,
{1}3,
{1}2,
{1}1,
{1}8,
{1}8,
{1}7,
{1}7,
{1}7-2[4:3],,
{1}2,
{1}1,
{1}1,
{1}2,
{1}3,
{1}4b,
{1}5,
{1}6,
{1}7,
{1}8,
{1}8-5[4:3],,
{1}4,,
{1}3,,
{1}2,,
{1}1,,
{1}8,
{1}8/1,
E
&inote_2=(170.0){1},,,,,
{1}1h[1:1],,
{1}8h[1:1],,
{1}2,
{1}2,
{1}1,
{2}1,1,
{1}8,
{1}8,
{1}7,
{2}7,7,
{1}6h[1:1],,
{1}6h[1:1],,
{2}5,5,
{1}5h[2:1],
{2}4,4,
{1}4h[2:1],
{2}3,3,
{2}4,4,
{1}5h[2:1],
{1}5h[2:1],
{2}6,6,
{2}5,5,
{1}4h[2:1],
{1}4h[2:1],
{1}5h[2:1],
{1}6h[2:1],
{1}7h[2:1],
{1}8h[2:1],
{1}1-4[4:3],,
{1}8-5[4:3],,
{2}1,1,
{1}1,
{2}2,2,
{1}2,
{2}8,8,
{1}8,
{2}7,7,
{1}7,
{1}8h[1:2],,,,
{1}7,
{1}8,
{1}1,
{1}2,
{1}1h[1:1],,
{2}8,1,
{1}1b/8b,
E
&inote_3=(170.0){1},,,,
{1}1b/8b,
{4}1h[8:3],,,8,
{1}8h[2:1],
{4}7h[8:3],,,6,
{1}6h[2:1],
{4}6,6,5,5,
{4}4,4,3,,
{4}2,2,1,1,
{4}8,8,7,,
{1}1h[1:1],
{1}3h[1:1],
{1}5h[1:1],
{1}7h[2:1],
{1}1-4[2:1],,
{1}8-5[2:1],
{1}1-4[2:1],
{4}5,6,7,8,
{4}1,2,3,4,
{1}7h[8:3],
{1}2h[8:3],
{4}2,1,8,7,
{4}6,5,4,3,
{4}2h[8:3]/7h[8:3],,,1h[8:3]/8h[8:3],
{4},,1b,1b,
{2},2h[8:3],
{4},3,4,5,
{4}6,7,8,1-5[2:1],{1},
{4}7,7,8,8,
{4}1,1,2,2,
{4}8,8,1,1,
{4}7,7,2,2,
{1}8-4[2:1],,
{1}1-5[2:1],
{1000}7-3[2:1],,,,,,,,,,,,,,,,,,,,,,,,,,,,,,,,,,,,,,,,,,,,,,,,,,,,,,,,,,,,,,,,,,,,,,,,,,,,,,,,,,,,,,,,,,,,,,,,,,,,,,,,,,,,,,,,,,,,,,,,,,,,,,,,,,,,,,,,,,,,,,,,,,,,,,,,,,,,,,,,,,,,,,,,,,,,,,,,,,,,,,,,,,,,,,,,,,,,,,,,,,,,,,,,,,,,,,,,,,,,,,,,,,,,,,,,,,,,,,,,,,,,,,,,,,,,,,,,,,,,,,,,,,,,,,,,,,,,,,,,,,,,,,,,,,,,,,,,,,,,,,,,,,,,,,,,,,,,,,,,,,,,,,,,,,,,,,,,,,,,,,,,,,,,,,,,,,,,,,,,,,,,,,,,,,,,,,,,,,,,,,,,,,,,,,,,,,,,,,,,,,,,,,,,,,,,,,,,,,,,,,,,,,,,,,,,,,,,,,,,,,,,,,,,,,,,,,,,,,,,,,,,,,,,,,,,,,,,,,,,,,,,,,,,,,,,,,,,,,,,,,,,,,,,,,,,,,,,,,,,,,,,,,,,,,,,,,,,,,,,,,,,,,,,,,,,,,,,,,,,,,,,,,,,,,,,,,,,,,,,,,,,,,,,,,,,,,,,,,,,,,,,,,,,,,,,,,,,,,,,,,,,,,,,,,,,,,,,,,,,,,,,,,,,,,,,,,,,,,,,,,,,,,,,,,,,,,,,,,,,,,,,,,,,,,,,,,,,,,,,,,,,,,,,,,,,,,,,,,,,,,,,,,,,,,,,,,,,,,,,,,,,,,,,,,,,,,,,,,,,,,,,,,,,,,,,,,,,,,,,,,,,,,,,,,,,,,,,,,,,,,,,,,,,,,,,,,,,,,,,,,,,,,,,,,,,,,,,,,,,,,,,,,,,,,,,,,,,,,,,,,,,,,,,,,,,,,,,,,,,,,,,,,,,,,,,,,,,,,,,,,,,,,,,,,,,,,,,,,,,,,,,,,,,,,,,,,,,,,,,,,,,,,,,,,,,,,,,,,,,,,,,,,,,,,,,,,,,,,,,,,,,,,,,,,,,,,,,,,,2h[1945:488],
{8},,,,3,3,,7h[8:3],
{8},,,,6,6,,1h[8:3],
{4},2,3,4,
{4}5,6,7,1b/8b,
{8}7,,6,,5,5,,4h[2:1],
{8},,,3,,,2,,
{8}2h[8:3],,,1,,,1h[2:1],,
{4},,2,3,
{1}4b/5b,,
{1}1h[8:3],
{1}3h[8:3],
{1}5h[8:3],
{1}7h[8:3],
{1}1-5[2:1],
{1}8-4[2:1],
{4}2,1,8,7,
{4}6,5,4,3,
{1}2h[125:94],
{1}1b/8b,
E
&inote_4=(170.0){1},
{8}6h[4:1],,,6,,,,,
{8}5h[4:1],,,5,,,,,
{8}4h[4:1],,,4,,,,,
{8}3h[4:1],,,3,,,,,
{8}7h[4:1],,
{556}6,,,,,,,,,,,,,,,,,,,,,,,,,,,,,,,,,,,,,,,,,,,,,,,,,,,,,,,,,,,,,,,,,,,,,5h[1527:574],,,,,,,,,,,,,,,,,,,,,,,,,,,,,,,,,,,,,,,,,,,,,,,,,,,,,,,,,,,,,,,,,,,,,,,,,,,,,,,,,,,,,,,,,,,,,,,,,,,,,,,,,,,,,,,,,,,,,,,,,,,,,,,,,,,,,,,,,,,,,,,,,,,,,,,,,,,,,,,,,,,,,,,,,,,,,,,,,,,,,,,,,,,,,,,,,,,,,,,,,,,,,,,,,6,,,,,,,,,,,,,,,,,,,,,,,,,,,,,,,,,,,,,,,,,,,,,,,,,,,,,,,,,,,,,,,,,,,,,,,,,,,,,,,,,,,,,,,,,,,,,,,,,,,,,,,,,,,,,,,,,,,,,,,,,,,,,,,,,,,,,,,,,,,
{8}2h[4:1],,3,4h[1527:574],,,3,,
{8}7h[4:1],,
{556}6,,,,,,,,,,,,,,,,,,,,,,,,,,,,,,,,,,,,,,,,,,,,,,,,,,,,,,,,,,,,,,,,,,,,,5h[1527:574],,,,,,,,,,,,,,,,,,,,,,,,,,,,,,,,,,,,,,,,,,,,,,,,,,,,,,,,,,,,,,,,,,,,,,,,,,,,,,,,,,,,,,,,,,,,,,,,,,,,,,,,,,,,,,,,,,,,,,,,,,,,,,,,,,,,,,,,,,,,,,,,,,,,,,,,,,,,,,,,,,,,,,,,,,,,,,,,,,,,,,,,,,,,,,,,,,,,,,,,,,,,,,,,,6,,,,,,,,,,,,,,,,,,,,,,,,,,,,,,,,,,,,,,,,,,,,,,,,,,,,,,,,,,,,,,,,,,,,,,,,,,,,,,,,,,,,,,,,,,,,,,,,,,,,,,,,,,,,,,,,,,,,,,,,,,,,,,,,,,,,,,,,,,,
{8}3,3,,4,,4,3b/4b,,
{8}1h[8:3],,,2h[8:3],,,3,,
{8}6h[8:3],,,5h[8:3],,,4,,
{8}3h[8:3],,,4h[8:3],,,5,,
{8}8h[8:3],,,7h[8:3],,,6,,
{8}8h[8:3],,,1h[8:3],,,2,,
{8}7h[8:3],,,6h[8:3],,,5,,
{8}2h[8:3],,,3h[8:3],,,4,,
{4}1h[4:1],8h[4:1],7h[4:1],6,
{8}6h[8:3],,,5h[4:1],,6,5/6,,
{8}3h[8:3],,,4h[4:1],,3,3/4,,
{8}6h[8:3],,,4h[4:1],,6,4/6,,
{8}3h[8:3],,,5h[4:1],,3,3/5,,
{8}8h[8:3],,,7h[4:1],,6,5/7,,
{8}1h[8:3],,,2h[4:1],,3,4/2,,
{8}7h[8:3],,,6h[4:1],,5,
{4}4/6>1[2:1],{1},
{8}8h[4:1],,7h[4:1],,6,6h[4:1],,5,
{8},4,4h[4:1],,3h[4:1],,2,,
{8}1h[4:1],,2h[4:1],,3,3h[4:1],,4,
{8},5,5h[4:1],,6h[4:1],,7,,
{8}8h[4:1],,7h[4:1],,6,6-1[8:1],,,
{8},1,1h[4:1],,2h[4:1],,3,,
{8}1h[4:1],,2h[4:1],,3,3-8[8:1],,,
{8},8,8h[4:1],,7h[4:1],,6,,
{8}8h[4:1],,7,7-3[8:1],,,,2h[4:1],
{8},3h[4:1],,4,4-8[8:1],,,,
{8}1h[4:1],,2,2-6[8:1],,,,7h[4:1],
{8},6h[4:1],,5,5-1[8:1],,,,
{8}8h[4:1],,7,7-3[8:1],,,,2h[4:1],
{8},3h[4:1],,4,4-8[8:1],,,,
{8}1h[4:1],,2,2-6[8:1],,,,7h[4:1],
{8},6h[4:1],,5,5-1[8:1],,,,
{8}8-4[8:1],,1,1,,,6/5,,
{8}1-5[8:1],,8,8,,,4/3,,
{8}8-4[8:1],,
{556}2,,,,,,,,,,,,,,,,,,,,,,,,,,,,,,,,,,,,,,,,,,,,,,,,,,,,,,,,,,,,,,,,,,,,,2,,,,,,,,,,,,,,,,,,,,,,,,,,,,,,,,,,,,,,,,,,,,,,,,,,,,,,,,,,,,,,,,,,,,,,,,,,,,,,,,,,,,,,,,,,,,,,,,,,,,,,,,,,,,,,,,,,,,,,,,,,,,,,,,,,,,,,,,,,,,,,,,,,,,,,,,,,,,,,,,,,,,,,,,,,,,,,,,,,,,,,,,,,,,,,,,,,,,,,,,,,,,,,,,,7/5,,,,,,,,,,,,,,,,,,,,,,,,,,,,,,,,,,,,,,,,,,,,,,,,,,,,,,,,,,,,,,,,,,,,,,,,,,,,,,,,,,,,,,,,,,,,,,,,,,,,,,,,,,,,,,,,,,,,,,,,,,,,,,,,,,,,,,,,,,,
{8}1-5[8:1],,7,7,,,2/4,,
{8}8-4[8:1],,1,1,,6,5/6,,
{8}1-5[8:1],,8,8,,3,4/3,,
{8}8-4[8:1],,
{556}2,,,,,,,,,,,,,,,,,,,,,,,,,,,,,,,,,,,,,,,,,,,,,,,,,,,,,,,,,,,,,,,,,,,,,
{833}2,,,,,,,,,,,,,,,,,,,,,,,,,,,,,,,,,,,,,,,,,,,,,,,,,,,,,,,,,,,,,,,,,,,,,,,,,,,,,,,,,,,,,,,,,,,,,,,,,,,,,,,,,,,,,,,,,,,,,,,,,,,,,,,,,,,,,,,,,,,,,,,,,,,,,,,,,,,,,,,,,,,,,,,,,,,,,,,,,,,,,,,,,,,,,,,,,,,,,,,,,,,,,,,,,
{8}6,5/7,,
{8}1-5[8:1],,7,7,,3,2/4,,
{8}2-6[8:1],,,8-4[8:1],,,6,,
{8}7-3[8:1],,,1-5[8:1],,,3,,
{8}8-4[8:1],,,2-6[8:1],,,4,,
{8}1-5[8:1],,,7-3[8:1],,,5,,
{8}2-6[8:1],,,8-5[8:1],,,6,,
{8}7-3[8:1],,,1-4[8:1],,,3,,
{8}2-6[8:1],,,1-5[8:1],,,6,,
{8}7-3[8:1],,,8-4[8:1],,,3,,
{8}1^4[8:1],,,6^1[8:1],,,5,,
{8}8^5[8:1],,,3^8[8:1],,,4,,
{8},4/3h[4:1],,4h[4:1],,3,,,
{1}2b/7b,
E
&inote_5=(170.0){1},
{8}1h[4:1],,,1h[8:3],,,,,
{8}5h[4:1],,,5h[8:3],,,,,
{8}4h[4:1],,,4h[8:3],,,,,
{8}8h[4:1],,,8h[8:3],,,,,
{4}1h[4:1],2h[4:1],3h[4:1],4h[4:1],
{4}5h[4:1],6h[4:1],7h[4:1],8h[4:1],
{4}1h[4:1],3h[4:1],5h[4:1],7h[4:1],
{4}2h[4:1],8h[4:1],1h[4:1],8b,
{8}7h[8:5],,,1^6[8:1],,,,,
{8}3h[8:5],,,2^5[8:1],,,,,
{8}1h[8:5],,,3^8[8:1],,,,,
{8}1,5h[8:3],,,4h[4:1],,8,,
{8}2h[8:5],,,8^3[8:1],,,,,
{8}6h[8:5],,,7^4[8:1],,,,,
{8}8h[8:5],,,6^1[8:1],,,,,
{8}8h[8:1],7h[8:1],6h[8:1],5h[8:1],4h[8:1],3h[8:1],2h[8:1],1h[8:1],
{8}8h[8:3],,,6h[8:3],,,
{4}4-1[2:1],{1},
{8}1h[8:3],,,3h[8:3],,,5,,
{8}3h[8:3],,,1h[8:3],,,7,,
{8}8h[8:3],,,4h[8:3],,,5,,
{8}1h[8:3],,,8h[4:1],,7,6,5,
{8}4h[8:3],,,2h[8:3],,,1,,
{8}8b,8,7b,7,6b,6,5b,5,
{8}4h[4:1],,8h[4:1],,1,5,,2h[4:1],
{8},1h[8:1],8h[4:1],,7h[4:1],,3h[4:1],,
{8}4h[2:1],5-1[8:1],,,,,1h[8:3]/8-4[8:1],,
{8},,,3h[4:1],4,5h[4:1],6,4b,
{8},,,,8,7h[4:1],,5h[4:1],
{8},4,2h[4:1],,4h[4:1],,2,,
{8}7,5,7,5h[2:1],,3,2,1h[8:5],{1},
{8}7,8,1,2h[4:1],,4h[4:1],,5h[8:3],
{4},8h[4:1],7h[4:1],6h[4:1],
{8}5h[4:1],,3,4,,6,5,4h[8:3],
{8},,6h[8:1],7h[8:1],8h[8:1],1h[8:1],2h[8:1],,
{8}3h[4:1],,6,8h[8:5],,,,,
{8}1h[8:3],,,8h[4:1],,6,7,8,
{8}1h[4:1],,2,3h[8:3],,,5h[8:3],,
{8},7h[8:3],,,2h[4:1],,8b,,
{4}6-1[8:1],2-5[8:1],,,
{4}1^6[8:1],5^2[8:1],,,
{4}6-3[8:1],2-7[8:1],,,
{4}7/3,3^6[8:1]/7^2[8:1],,,
{4}1-5[8:1],8-4[8:1],3^8[8:1],,
{4}5-1[8:1],4-8[8:1],7^4[8:1],,
{4}4,8^5[8:1],8^3[8:1],,
{4}8,4<1[8:1],4>7[8:1],8^3[4:3],{1},
{8}2h[8:3],,,5h[4:1],,6h[8:3],,,
{8}7h[8:3],,,4h[4:1],,3h[8:3],,,
{8}1h[8:3],,,7h[4:1],,6h[8:3],,,
{8}4h[8:3],,,3h[4:1],,1h[8:3],,,
{8}3h[8:3],,,7h[4:1],,1h[8:3],,,
{8}3h[8:3],,,7h[4:1],,5h[8:3],,,
{8}2h[8:3],,,8h[4:1],,6,,,
{8}2,1,,7,6,5,,,
{8}7,8,,1,2,3,8,7,
{8},2/3,,5/4,,6/7,,,
{1}8h[1:2]/1h[1:2],,,
E
