&title=Get Happy
&artist=Jimmy Weckl
&wholebpm=150
&demo_seek=41.5
&demo_len=26.5
&lv_1=3
&lv_2=4
&lv_3=7+
&lv_4=12+
&lv_5=13+
&des_4=譜面-100号
&des_5=合作だよ
&inote_1=(150.0){1},,
{1}1,
{1}2,
{1}3,
{1}4,
{1}5,
{1}6,
{1}7,
{2}8,8b,
{1}8,
{1}7,
{1}6,
{1}5,
{8}4,,,4,,,,,
{2},3,
{4}3,3,,,
{2},2,
{1}2b,
{1}1,
{1}8,
{1}7,
{8}6,,,6,,,,,
{2},5,
{4}5,5,,,{1},
{2}5,5,
{2}4,4,
{4}3,3,,,
{4}2,2,,,
{2}1,1,
{2}2,2,
{4}1,1,,,
{4}8,8,,,
{2}8,8,
{2}7,7,
{4}8,8,,,
{4}7,7,,,
{2}6,6,
{2}5,5,
{4}6,6,,,
{4}7,7,,,
{1}8-5[4:3],,
{1}1-4[4:3],,
{1}2-7[4:3],,
{1}6-3[4:3],,
{1}4,
{1}3,
{1}2,
{1}1,
{1}8,
{1}7,
{1}8,
{1}7,
{4}8,8,,,
{2}7,7,
{1}6,
{1}5,
{4}4,4,,,
{2}3,3,
{1}2,
{1}1,
{4}1,1b,,,
{2}2,2,
{1}3,
{1}4,
{4}5,5b,,,
{2}6,6,
{1}7,
{1}8,,
{4},8/1,
E
&inote_2=(150.0){1},,
{2}7,7,
{2}8,8,
{2}1,1,
{2}2,2,
{2}2,2,
{2}1,1,
{2}8,8,
{2}7,7b,
{1}6h[2:1],
{1}5h[2:1],
{1}4h[2:1],
{1}3h[2:1],
{1}3h[2:1],
{1}4h[2:1],
{1}5h[2:1],
{1}6h[2:1],
{2}6,6,
{1}6/5,
{2}3,3,
{1}3/4,
{2}6,5,
{1}6/5,
{2}3,4,
{1}3/4,
{4}2,2,,,
{4}1,1,,,
{4}8,8,,,
{1}7h[2:1],
{4}7,7,,,
{4}8,8,,,
{4}1,1,,,
{1}2h[2:1],
{2}3,3/4,
{2}4,4/5,
{1}6-2[2:1],
{2},1b/8b,
{2}6,5/6,
{2}5,4/5,
{1}3-7[2:1],
{2},8b/1b,
{2}2h[4:1],2,
{2}1h[4:1],1,
{2}8h[4:1],8,
{2}7h[4:1],7,
{2}7h[4:1],8/7,
{2}1h[4:1],8/1,
{2}2h[4:1],2/1,
{2}8h[4:1],1/8,
{4},2,,2,
{4},3,,3,
{4},4,,4,
{4},5,,5,
{4},6,,5/6,
{4},5,,5/4,
{4},4,,3-7[2:1],{1},
{4}8,8h[4:1],,,
{4}1,1h[4:1],,,
{4}2,2h[4:1],,,
{2}3,3,
{4}4,4h[4:1],,,
{4}5,5h[4:1],,,
{4}6,6h[4:1],,,
{4}7,7,7,,
{4}7/8,8/7,,,
{4}1/2,2/1,,,
{4}1/8,8/1,,,
{1}1h[2:1]/8h[2:1],
{4}7/8,8h[4:1]/7h[4:1],,,
{4}1/2,2h[4:1]/1h[4:1],,,
{4}1/8,8h[4:1]/1h[4:1],,,
{1}2h[2:1]/7h[2:1],
{2}1,8,
{4}8/1,8b/1b,
E
&inote_3=(150.0){1},,
{4}1,2,3,4-1[2:1],{1},
{4}8,7,6,5-8[2:1],{1},
{4}7,8,1,2-7[2:1],{1},
{4}6,5,4,3-6[16:9],{1},
{2}7,8,
{2}1,2,
{2}2,1,
{2}8,7,
{1}1-6[2:1],
{1}8-3[16:9],
{1}2-5[16:9],
{1}7-4[16:9],
{2}1,2,
{2}8,7,
{2}3,4,
{2}6,5,
{1}2-7[2:1],
{1}6-3[2:1],
{1}1-4[2:1],
{1}5-8[2:1],
{4}1,2,3,4,
{4}6,5,4,3,
{4}1,1,8,8,
{4}1,3,5,7,
{4}8,7,6,5,
{4}3,4,5,6,
{4}8,8,1,1,
{4}8,6,4,2,
{4}1,3,5,8/7,
{4}6,4,2,8/1,
{4}3,3,5,5,
{4}7,7,1,1,
{4}8,8/7,1,1/2,
{4}5,5/6,4,3/4,
{4}5,6,7,8,
{4}7,5,3,1b,
{4},2/1,,2/1,
{4},7/8,,7/8,
{4},2/1,,7/8,
{4},1/2,,8/7,
{4},2/1,,4b/5b,
{4},8/7,,5b/4b,
{4},2/1,,3/4,
{4},5/6,,7b/8b,
{2}1,3,
{2}5,7,
{2}8,6,
{2}4,2,
{1}1-5[2:1],
{1}8-4[2:1],
{1}2^5[2:1],
{1}7^4[2:1],
{4}2,1/2,3,3/4,
{4}5,5/6,4,4/3,
{4}5,6/5,7,8/7,
{4}6,4,2,1/8,
{4}2,3/2,1,1/8,
{4}2,3/2,4,4/5,
{4}3,3/2,4,5/4,
{4}6,7/6,1,2b/1b,
{4}8,8/7,6,6/5,
{4}7,7/8,1,2/1,
{4}3,1b/8b,6,1b/8b,
{4}2,4,6,8/7,
{4}6,5/4,3,2/1,
{4}3,4/5,6,8/7,
{4}4/5,1/2,4/5,8/7,
{4}3/4,6/5,4/3,2/1,
{1}8h[1:1]/7h[1:1],
{4},7b/2b,
E
&inote_4=(150.0){1},
{16},,,,,,,,,,3,3,7,,,,
{16}2,,,2,3,,,3,4,,5,,3,3,,,
{16}6,,,,3,,,8,1,,3,,1,1,,,
{16}7,,,7,6,,,6,5,,4,,6,6,,,
{8}1,2,4,5,7,8,2,1,
{16}7,,,7,6,,,6,5,,4,,6,6,,,
{16}3,,,,6,,,1,8,,6,,8,8,,,
{16}2,,,2,3,,,3,4,,5,,3,3,,,
{8}8,7,5,4,2,1,7,8,
{16}1,,,1,2,,2,,1,,,1,2,,2,,
{16}5,,,5,6,,6,,5,,3,,2,,1,,
{16}8,,,8,7,,7,,8,,,8,7,,7,,
{16}4,,,4,3,,3,,4,,1,,8,,7,,
{4}4/6h[4:1],5,5/3h[4:1],4,
{4}4/6h[4:1],5,5/3h[4:1],4,
{4}6/5h[4:1],4,3/4h[4:1],5,
{4}6/5h[4:1],4,3/4h[4:1],5,
{8}8,,,2,6,7/5,,2-5[8:3]/4-7[8:3],{1},
{8}4,,,6,2,3/1,,6-1[8:3]/8-3[8:3],
{8},,,,,,5,4h[8:3],
{499}3,,,,,,,,,,,,,,,,,,,,,,,,,,,,,,,,,,,,,,,,,,,,,,,,,,,,,,,,,,,,,,,,,,,,,,,,,,,,,,,,,,,,,,,,,,,,,,,,,,,,,,,,,,,,,,,,,,,,,,,,,,,,,
{501}6h[2000:499],,,,,,,,,,,,,,,,,,,,,,,,,,,,,,,,,,,,,,,,,,,,,,,,,,,,,,,,,,,,,,,,,,,,,,,,,,,,,,,,,,,,,,,,,,,,,,,,,,,,,,,,,,,,,,,,,,,,,,,,,,,,,
{4}3h[4:1],4h[2:1],
{4}6,3h[4:1],6h[4:1],5h[2:1],
{4}3,6h[4:1],3h[4:1],4h[2:1],
{4}6,3h[4:1],6h[4:1],5,
{16}2,,2,3,,3,4-8[8:1],,,,,,,,,,
{16}7,7,,6,,5,5-1[8:1],,,,,,,,,,
{16}2,1,,8,1,,2,1,,8,1,,2,,7,,
{16}8,,,6,,6,,2,,2,,5,4/5,,,,
{16}7,,7,6,,6,5-1[8:1],,,,,,,,,,
{16}2,2,,3,,4,4-8[8:1],,,,,,,,,,
{16}7,8,,1,8,,7,8,,1,8,,7,,2,,
{16}1,,,3,,3,,7,,7,,4,4/5,,,,
{16}3,,3,2,,2,1-5[8:1],,,,,,,,,,
{16}6,6,,7,,8,8-4[8:1],,,,,,,,,,
{16}3,4,,5,4,,3,4,,5,4,,3,,6,,
{16}5,,,7,,7,,3,,3,,8,1/8,,,,
{16}6,,6,7,,7,8-4[8:1],,,,,,,,,,
{16}3,3,,2,,1,1-5[8:1],,,,,,,,,,
{16}6,5,,4,5,,6,5,,4,5,,6,,3,,
{16}4,,,2,,2,,6,,6,,1,1/8,,,,
{16}8,8,,,5,,6,,2,,1,,4,4,,,
{16}8,8,,,7,,3,,4h[4:1],,,,,,,,
{16}1,1,,,4,,3,,7,,8,,5,5,,,
{16}1,1,,,2,,6,,5h[4:1],,,,4b,,,,
{16}8,8,,,5,,1,,7,,3,,4,4,,,
{16}8,8,,,6,,2,,4h[4:1],,,,,,,,
{16}1,1,,,4,,8,,2,,6,,5,5,,,
{16}1,1,,,3,,7,,5h[4:1],,,,4,,,,
{16}2,,,6,5,,6,,2,,,6,5,,6,,
{16}7,,,3,4,,3,,7,,4,,2,,5,,
{16}1,,,5,6,,5,,1,,,5,6,,5,,
{16}8,,,4,3,,4,,8,,4,,1,,5,,
{4}6/4h[4:1],3,3/5h[4:1],6,
{4}6/4h[4:1],3,3/5h[4:1],4h[1666:417],
{4}3,6/5h[4:1],3,3/4h[4:1],
{4}6,6/5h[4:1],3,3/4h[4:1],
{16}8,,8,7,,7,1-6[8:1],,,,,,,,,,
{16}4,3,,3,,5,5-2[8:1],,,,,,,,,,
{16}7,5,,3,5,,7,5,,3,5,,7,,3,,
{16}1,,1,3,,3,,5,,5,,7,6/7,,,,
{16}1,,1,2,,2,8-3[8:1],,,,,,,,,,
{16}5,6,,6,,4,4-7[8:1],,,,,,,,,,
{16}2,4,,6,4,,2,4,,6,4,,2,,6,,
{16}8,,8,6,,6,,4,,4,,2,2/3,,,,
{16}1/2,,1/8,8/1,,7/8,7^4[8:1]/8^3[8:1],,,,,,,,,,
{16}7/8,8/7,,8/1,,1/2,1^6[8:1]/2^5[8:1],,,,,,,,,,
{16}2,4,,7,5,,2,4,,7,5,,2,,7,,
{16}1,,1,8,,7,,6,,8,1,2,3,,,,
{16}8/7,,8/1,8/1,,2/1,1^6[8:1]/2^5[8:1],,,,,,,,,,
{16}1/2,1/2,,8/1,,7/8,7^4[8:1]/8^3[8:1],,,,,,,,,,
{16}7,4,,2,5,,7,4,,2,5,,7,,2,,
{16}8,,8,1,,2,,3,,1,8,7,7,8,1,2,
{16},,,,,,,,
{12}1,
{995}7,,,,,,,,,,,,,,,,,,,,,,,,,,,,,,,,,,,,,,,,,,,,,,,,,,,,,,,,,,,,,,,,,,,,,,,,,,,,,,,,,,,
{12}5,8,
{995}2,,,,,,,,,,,,,,,,,,,,,,,,,,,,,,,,,,,,,,,,,,,,,,,,,,,,,,,,,,,,,,,,,,,,,,,,,,,,,,,,,,,
{12}4,
{4}5-2[16:1],
{16}7b,,
E
&inote_5=(150.0){1},
{4}1h[4:3],,,8b,
{8}2,2,3,,5,5,6,,
{8}8,8,1,,1-4[8:1],4^7[8:1],7,,
{8}8,8,1,,7,7,6,,
{16}2,2,4,4,,5,,6,,7,,8,,8,1/8,,
{8}2,2,3,5,7,7,8,1,
{8}3,3,4,6,1-4[8:1],4^7[8:1],7,8,
{8}1,1,8,6,4,4,3,1,
{16}7,7,5,5,,4,,3,,2,,1,,1,8/1,,
{16}2h[16:3],,,3,2,,8,,7h[16:3],,,6,7,,1,,
{16}2h[16:3],,,1,2,,3,,5-1[8:1],,5,,3-7[8:1],,3,,
{16}2h[16:3],,,3,2,,4,,1h[16:3],,,2,1,,3,,
{16}8h[16:3],,,1,8,,2,,6h[16:3],,,7,5-1[8:1],,5,,
{8},,8,7-3[8:1],,,2,2-5[8:1],
{8},,1,5/1-6[8:1],,,8,8^3[8:1],
{8},,
{905}8-5[8:1],,,,,,,,,,,,,,,,,,,,,,,,,,,,,,,,,,,,,,,,,,,,,,,,,,,,,,,,,,,,,,,,,,,,,,,,,,,,,,,,,,,,,,,,,,,,,,,,,,,,,,,,,,,,,,,,,,,,,,,,,,,,,,,,,,,,,,,,,,,,,,,,,,,,,,,,,,,,,,,,,,,,,,,,,,,,,,,,,,,,,,,,,,,,,,,,,,,,,,,,,,,,,,,,,,,,,,,,,,,,,,,,,,,,,,,,,,,,,,,,,,,,,,,,,,,,,,,,,,,,,,,,,,,,,,,,,,,,,,,,,,,,,,,,,,,,,,,,,,,,,,,,,,,,,,,,,,,,,,,,,,,,,,,,,,,,,,,,,,,,,,
{862}8h[862:213],,,,,,,,,,,,,,,,,,,,,,,,,,,,,,,,,,,,,,,,,,,,,,,,,,,,,,,,,,,,,,,,,,,,,,,,,,,,,,,,,,,,,,,,,,,,,,,,,,,,,,,,,,,,,,,,,,,,,,,,,,,,,,,,,,,,,,,,,,,,,,,,,,,,,,,,,,,,,,,,,,,,,,,,,,,,,,,,,,,,,,,,,,,,,,,,,,,,,,,,,,,,,,,,,,,,,
{8}7h[4:1],
{8},5,4,3h[8:3],,,1b,,
{16}7h[16:3],,,6,7,,1,,2h[16:3],,,3,2,,8,,
{16}7h[16:3],,,8,7,,6,,4,3,,3,4,5,4,,
{16}7h[16:3],,,6,7,,5,,8h[16:3],,,7,8,,6,,
{16}1h[16:3],,,8,1,,7,,3,,1b/2b,,4-8[8:1],,4,,
{8},,1,2-6[8:1],,,7,7-4[8:1],
{8},,8,4/8-3[8:1],,,1,1^6[8:1],
{8},,
{830}1-4[8:1],,,,,,,,,,,,,,,,,,,,,,,,,,,,,,,,,,,,,,,,,,,,,,,,,,,,,,,,,,,,,,,,,,,,,,,,,,,,,,,,,,,,,,,,,,,,,,,,,,,,,,,,,,,,,,,,,,,,,,,,,,,,,,,,,,,,,,,,,,,,,,,,,,,,,,,,,,,,,,,,,,,,,,,,,,,,,,,,,,,,,,,,,,,,,,,,,,,,,,,,,,,,,,,,,,,,,,,,,,,,,,,,,,,,,,,,,,,,,,,,,,,,,,,,,,,,,,,,,,,,,,,,,,,,,,,,,,,,,,,,,,,,,,,,,,,,,,,,,,,,,,,,,,,,,,,
{835}1h[1666:417],,,,,,,,,,,,,,,,,,,,,,,,,,,,,,,,,,,,,,,,,,,,,,,,,,,,,,,,,,,,,,,,,,,,,,,,,,,,,,,,,,,,,,,,,,,,,,,,,,,,,,,,,,,,,,,,,,,,,,,,,,,,,,,,,,,,,,,,,,,,,,,,,,,,,,,,,,,,,,,,,,,,,,,,,,,,,,,,,,,,,,,,,,,,,,,,,,,,,,,,,,,,,,,,,
{8}2h[4:1],
{16},,4,,5,,5,,3,4,,4,,6,5,,
{16}7,,6,5,,5,3h[4:1],,,,2,,2/1-6[400:51],,,,
{16}3,3,,5,,7,8h[4:1],,,,1,,2/3-8[8:1],,,,
{16}7,7,,6,,4,4,3,,4,,6,6,8,8,,
{16}1h[16:3],,,2,,1,,6/8,,1,2,3,4b,,,,
{16}5,,4,3,,3,1h[4:1],,,,8,,8/7-4[8:1],,,,
{16}1,1,,3,,5,5h[4:1],,,,6,,6/8-3[8:1],,,,
{16}7,7,,6,,4,4,3,,4,,6,6,8,8,,
{16}1h[16:3],,,2,,1,,6/8,,1,2,3,4b,,,,
{16}7,,5,6,5,6,3h[4:1],,,,8,,5/8-3[8:1],,,,
{16}7,7,,8,,4,4h[4:1],,,,5,,6-1[8:1],,,,
{16}2,2,,3,,5,5,6,,5,,3,3,1,1,,
{16}8h[16:3],,,7,,8,,1/3,,8,7,6,5b,,,,
{16}4,,6,5,6,5,8h[4:1],,,,1,,1/2-5[8:1],,,,
{16}8,8,,6,,4,4h[4:1],,,,3,,3/1-6[8:1],,,,
{932}2,,,,,,,,,,,,,,,,,,,,,,,,,,,,,,,,,,,,,,,,,,,,,,,,,,,,,,,,,,,
{781}2,,,,,,,,,,,,,,,,,,,,,,,,,,,,,,,,,,,,,,,,,,,,,,,,,,,,,,,,,,,,,,,,,,,,,,,,,,,,,,,,,,,,,,,,,,,,,,,,,
{16}3,,5,5,6,,5,,3,3,1,1,,
{16}8h[16:3],,,7,,8,,3/1,,8,7,6,5,4,3,2b,
{16}1,,,,5/6,,7,,8,,1,,6,5,,,
{16}2,3,2,,8/4,,1,,7,7,8b,,6b/2b,,,,
{16}3,4,3,,6/2,,7,,8,,1,,7,8,,,
{16}3,2,3,,6/2,,1,,2,2,1b,,3b/7b,,,,
{16}5,6,5,,8/7,,1,,8,,7,,1,2,,,
{16}7,6,7,,1/2,,3,,1,2b/8b,,,1b/7b,,,,
{16}7,8,7,,1/5,,8,,7,,6,,3,4,,,
{16}7,6,7,,2/6,,3,,2,2,1b,,3b/7b,,,,
{16}7h[16:3],,,6,7,,1,,2h[16:3],,,3,2,,8,,
{16}7h[16:3],,,8,7,,6,,5,4,,4,3,4,3,,
{16}7h[16:3],,,6,7,,5,,8h[16:3],,,7,8,,6,,
{16}1h[16:3],,,8,1,,7,,3,,7b/5b,,,,1,,
{8}1-6[4:1],,6-2[4:1],6,,2-5[8:1],5-8[8:1],8-4[8:1],
{8},1b,,8-3[8:1],3-7[8:1],7-4[4:1],,4^1[4:1],
{8},1^6[4:1],,6^3[4:1],,8,1,2,
{16},,8,,7,,6,,3,4,,4,,8,7b,,
{16}2,1,2,8,1,8,1h[4:1],,,,8,,7/8-3[8:1],,,,
{16}6,6,,4,,2,2h[4:1],,,,1,,2/1-6[8:1],,,,
{16}2,2,,4,,6,5,6,,4,,2,2,8,8,,
{16}1h[16:3],,,2,,4/1,,6,,7,8,1,2b,,,,
{16}7,8,7,1,8,1,8h[4:1],,,,1,,2/1-5[8:1],,,,
{16}2,2,,4,,6,7h[4:1],,,,8,,7/8-3[8:1],,,,
{16}7,7,,5,,3,4,3,,5,,7,7,1,1,,
{16}8h[16:3],,,7,,8/5,,2,,1,7,5,3-7[8:1],,,,
{4}1-5[8:1],1b/7-4[8:1],8-3[8:1],8b/1-6[8:1],
{4}7-4[8:1],7b/5-2[8:1],3-8[8:1],3b/1^4[8:1],
{16}8,7,6,5,,,6,7,8,1,,,6,5,4,3,
{16}2h[16:3],,,1,,4/2,,5,,6,4,2,8-5[8:1],,,,
{4}8b/1-5[8:1],1b/7-3[8:1],7b/8-4[8:1],8b/5-8[8:1],
{4}5b/4-8[8:1],4b/6-2[8:1],6b/1-4[8:1],1b/8^5[8:1],
{16}1/8b,2,3,4,,,3,2,1,8,,,3,4,5,6,
{16}7h[16:3],,,8,,5/7,,4,,3,5,7,1b,,,,
{16}8^3[8:1],,,,,,,,
{983}4,,,,,,,,,,,,,,,,,,,,,,,,,,,,,,,,,,,,,,,,,
{625}5,,,,,,,,,,,,,,,,,,,,,,,,,,
{983}4,,,,,,,,,,,,,,,,,,,,,,,,,,,,,,,,,,,,,,,,,5,,,,,,,,,,,,,,,,,,,,,,,,,,,,,,,,,,,,,,,,,
{625}4,,,,,,,,,,,,,,,,,,,,,,,,,,
{983}5,,,,,,,,,,,,,,,,,,,,,,,,,,,,,,,,,,,,,,,,,3,,,,,,,,,,,,,,,,,,,,,,,,,,,,,,,,,,,,,,,,,
{625}4,,,,,,,,,,,,,,,,,,,,,,,,,,
{983}3,,,,,,,,,,,,,,,,,,,,,,,,,,,,,,,,,,,,,,,,,4,,,,,,,,,,,,,,,,,,,,,,,,,,,,,,,,,,,,,,,,,
{625}3,,,,,,,,,,,,,,,,,,,,,,,,,,
{983}4,,,,,,,,,,,,,,,,,,,,,,,,,,,,,,,,,,,,,,,,,
{4}3,1b/6b,
E
