&title=Death Scythe
&artist=SHIKI
&wholebpm=182
&demo_seek=35
&demo_len=11.2
&lv_1=2
&lv_2=5
&lv_3=8+
&lv_4=12
&lv_5=13+
&lv_6=14
&des_4=某S氏
&des_5=はっぴー
&des_6=隅田川星人
&inote_1=(182.0){1},,,,,,,,,,
{1}2,,
{1}3,,
{1}4,,
{1}5,,
{1}6,
{1}6,
{1}7,
{1}7,
{1}8,
{1}8,
{1}1,
{1}1b,,
{2}2,2,
{1}2,
{1}3,
{1}4,
{2}3,3,
{1}3,
{1}2,
{1}1,
{1}8-5[2:1],,
{1}1h[1:1],,
{2}8,8,
{1}8,
{2}7,7,
{1}7,
{2}8,8,
{1}8,
{2}1,1,
{2}2,2,
{2}1,1,
{1}1,
{2}8,8,
{2}7,7,
{2}8,8,
{1}8,
{2}1,1,
{2}2,2,
{2}1,1,
{1}1,
{2}8,8,
{1}7h[1:1],,
{1}8-4[2:1],,,,
{1}2-6[2:1],,,,
{1}8b,
{2}1,1,
{1}2,
{2}1,1,
{2}8,8,
{2}7,7,
{1}6,
{2}7,7,
{2}8,8,
{2}1,1,
{2}2,2,
{2}3,3,
{2}4,4,
{2}5,5,
{2}6,6,
{2}7,7,
{2}8,8,
{1}1-4[2:1],,
{1}5-8[2:1],,
{4},
{2}1h[2:3],{1},,
E
&inote_2=(182.0){1},
{2}1,1,
{1}1h[2:1],
{2}8,8,
{1}8h[2:1],
{2}1,1,
{1}1h[2:1],
{2}8,8,
{1}8h[2:1],
{4}8/1,,1/8,8/1,
{2}2,2,
{4}3,,3,3,
{2}4,4,
{4}5,,5,5,
{2}6,6,
{4}7,,7,7,
{2}8,8,
{1}1h[4:3],
{2}8,8,
{1}8-3[4:1],
{2}3,3,
{1}3-6[4:1],
{2}6,6,
{1}6-1[4:1],
{2}2/1,2/1,
{1}1h[4:7]/2h[4:7],,
{2}2,2,
{2}1,1,
{1}8-4[4:1],
{1}1-5[4:1],
{2}7,7,
{2}8,8,
{1}1-5[4:1],
{1}8-4[4:1],
{2}2,2,
{1}2b,
{2}7,7,
{1}7b,
{2}3,2,
{1}1b/2b,
{2}6,7,
{1}8b/7b,
{2}7,7,
{1}6h[2:1],
{2}5,5,
{2}3/4,4/3,
{2}2,2,
{1}3h[2:1],
{2}4,4,
{2}6/5,5/6,
{4}6,6,6,,
{1}7h[2:1],
{4}8,8,8,,
{2}1/2,1/2,
{4}2,2,2,,
{1}1h[2:1],
{4}8,8,8,,
{1}7h[4:7],
{1}8h[4:3],
{1}6,
{1}5,
{1}4,
{1}3,
{1}4h[2:1],
{1}6h[2:1],
{1}2h[2:1],
{1}8h[2:1],
{4}1,1,1,1,
{4}1,1,8,,
{4}1,1,7,,
{1}1h[2:1],
{1}8h[2:1],
{4}8,8,1,,
{4}8,8,2,,
{1}8h[2:1],
{1}1h[2:1],
{4}1,1,8/1,,
{4}1,1,1/7,,
{1}8-4[4:1],
{1}1-5[4:1],
{4}8,8,1/8,,
{4}8,8,8/2,,
{1}1-5[4:1],
{1}8-4[4:1],
{2}2,2,
{1}2b,
{2}7,7,
{1}7b,
{4},1/8,
E
&inote_3=(182.0){1},
{2}1,1h[8:3],{1},
{2}8,8h[8:3],{1},
{8}1/2,,,,2,,,1b,{1},
{8}7/8,,,,7,,,8b,{1},
{1}1-4[4:1]/8-5[4:1],
{2}3,8,
{4}2,,1,1,
{2}1,7,
{4}8,,6,6,
{2}6,8,
{4}1,,3,3,
{2}4/3,5/6,
{1}1-4[4:1]/8-5[4:1],
{4}1,2,,,
{4}7,6,,,
{4}3,4,,,
{4}5,5,4,4,
{4}6,5,,,
{4}2,1,,,
{4}7,8,,,
{1}1h[4:7]/8h[4:7],,
{4}1,1,2,2,
{4}3,3,4,4,
{4}5,5,6,6,
{4}7,7,8,8b,
{1}1-5[4:1],
{1}8-4[4:1],
{1}3-8[4:1],
{1}6-1[4:1],
{893}2,,,,,,,,,,,,,,,,,,,,,,,,,,,,,,,,,,,,,,,,,,,,,,,,,,,,,,,,,,,,,,,,,,,,,,,,,,,,,,,,,,,,,,,,,,,,,,,,,,,,,,,,,,,,,,,
{535}2,,,,,,,,,,,,,,,,,,,,,,,,,,,,,,,,,,,,,,,,,,,,,,,,,,,,,,,,,,,,,,,,,,,,,,,,,,,,,,,,,,,,,,,,,,,,,,,,,,,,,,,,,,,,,,,,,,,,,,,,,,,,,,,,,,,,,,,,,,,,,,,,,,,,,,,,,,,,,,,,,,,,,,,,,,,,,,,,,,,,,,,,,,,,,,,,,,,,,,,,,
{8}7,7,,,
{8}1b,1b,,,,,,,
{8}6,6,,,3,3,,,
{8}8b,8b,,,,,,,
{1}2h[2:1],
{1}4h[2:1],
{1}6h[2:1],
{1}8h[2:1],
{4}2,1,8,7,
{4}6,5,4,3,
{4}3,4,5,6,
{8}7h[8:3],,,6,,,,,
{4}8,1,2,3,
{4}4,5,6,7,
{4}7,6,5,4,
{8}3h[8:3],,,4,,,,,
{4}1,5/6,,4/3,
{4},8/7,,1/2,
{4},5/1,,6/2,
{4},7/3,7/3,4b/8b,
{4}7,5/6,,3/4,
{4},7/8,,1/2,
{4},5/4,,6h[1:1],{1},
{1}5-1[4:1],
{4}3h[4:3],,,5,
{4}5h[4:3],,,1,
{4}1h[4:3],,,7,
{4}7h[4:3],,,2,
{4}2h[4:3],,,8,
{4}8h[4:3],,,4,
{4}4h[4:3],,,5,
{1}5h[4:3],
{4}1,1,8,8b,
{4}1,5,3,7,
{4}2,6,4,8,
{4}1,3,7,5,
{4}1/2,7/8,2/1,7/8,
{4}8,4,7,3,
{4}6,2,5,1,
{2}8h[2:1],4,
{4}6,7,8,8b/1b,
{8}2,2,2,,1,1,1,,
{8}8,8,8,,7,7,7,,
{8}4,4,4,,3,3,3,,
{4}2/1,3/4,6/5,8/7,
{8}7,7,7,,8,8,8,,
{8}1,1,1,,2,2,2,,
{8}5,5,5,,6,6,6,,
{4}8/7,6/5,4/3,2/1,
{893}2,,,,,,,,,,,,,,,,,,,,,,,,,,,,,,,,,,,,,,,,,,,,,,,,,,,,,,,,,,,,,,,,,,,,,,,,,,,,,,,,,,,,,,,,,,,,,,,,,,,,,,,,,,,,,,,
{535}2,,,,,,,,,,,,,,,,,,,,,,,,,,,,,,,,,,,,,,,,,,,,,,,,,,,,,,,,,,,,,,,,,,,,,,,,,,,,,,,,,,,,,,,,,,,,,,,,,,,,,,,,,,,,,,,,,,,,,,,,,,,,,,,,,,,,,,,,,,,,,,,,,,,,,,,,,,,,,,,,,,,,,,,,,,,,,,,,,,,,,,,,,,,,,,,,,,,,,,,,,
{8}7,7,,,
{8}1b/2b,8b/7b,,,,,,,
{8}6,6,,,3,3,,,
{8}8b/7b,1b/2b,,,,,,,
{4},1h[4:13]/8h[4:13],{1},,,,
E
&inote_4=(182.0){1},
{8}4/3,3/4,,,7/6,6/7,,2/1^6[8:3],{1},
{8}7/1,7/1,,,5/3,3/5,,7h[2:1],
{8},,,6h[8:3],,,,,
{8}6/5,5/6,,,3/2,3/2,,7^4[8:3]/8^3[8:3],{1},
{8}8/2,8/2,,,6/4,4/6,,2-6[8:5],
{8},,,,,,8,8^3[8:5],{1},
{8}2,,4,3,,5,4,,
{8}6,5,,7,1,,8/1,,
{8}7,,5,6,,4,5,,
{8}3,4,,2,8,,8/1,,
{8}7,,2,6,,3,1,,
{8}4,6,,5,2,,2/7,,
{8}2,1,8,7,6,5,3/7,,
{8}7,8,1,2,3,4,2b/6b,,
{8}8,7,6,,3,4,3,,
{8}2,3,4,,6,5,6,7,
{8}5,4,3,,8,1,8,,
{8}7,3,5,,1,2,1,8,
{8}7,2,1,,6,3,5,,
{8}2,6,5,,7,2,8,1,
{8}7,8,7/1,,2,1,8/2,,
{1}4-8[2:1],
{1}7h[4:3],
{8}3,5,3,5,7,5,7,1,
{8}7,1,3,1,3,5,7/2,,
{8}2,2,5,4,8,8,4,5,
{8}1,1,2,2,3,4,5,,
{8}6,
{415}4,,,,,,,,,,,,,,,,,,,,,,,,,,,,,,,,,,,,,,,,,,,,,,,,,,,,
{417}6,,,,,,,,,,,,,,,,,,,,,,,,,,,,,,,,,,,,,,,,,,,,,,,,,,,,
{8}4,2,4,2,8,
{8}2,8,6,8,6,4,7/2,,
{8}7,7,4,5,1,1,5,4,
{8}8,8,7,7,6,5,4,,
{8}2,1,,,6,5,,,
{8}2b/1b,8/3,,5,,6,7/4,,
{8}7,8,,,3,4,,,
{8}8b/7b,1/6,,4,,3,2/5,,
{8}2/1,1/2,3,,6/5,6/5,7,,
{8}1/7,1/7,,2,,3,4/6,,
{8}7/8,8/7,6,,4/3,4/3,2,,
{8}8/2,8/2,,7,,6,5b/3b,,
{8}1,2,3,,5,2,4,3-7[4:1],
{8},,,,,6,6,,
{8}8,7,6,,4,7,5,1-5[4:1],
{8},,,8-4[4:1],,,,,
{8}7,6,5,,2,6,4,5-1[4:1],
{8},,,,,7,7,,
{8}8,1,2,,6,1,5,2h[2:1],
{8},,4,4h[8:3],,,5,,
{8}2/6,1,8,,3/7,6,5,5^2[4:1],
{8},,,,,6,6,4,
{8}3/7,2,8,,6/2,3,7,1h[2:1],
{8},,6,6h[8:3],,,4,,
{8}5/1,2,6,,3/7,8,2,2^5[4:1],
{8},,,,,
{749}5,,,,,,,,,,,,,,,,,,,,,,,,,,,,,,,,,,,,,,,,,,,,,,,,,,,,,,,,,,,,,,,,,,,,,,,,,,,,,,,,,,,,,,,,,,,,,,
{249}5,,,,,,,,,,,,,,,,,,,,,,,,,,,,,,,
{8}4,
{8}6/2,3,5,,3/7,6,4,8h[8:15],
{8},,,,,,,4h[8:7],{1},
{4}1,,,2,
{4}3,,,8,
{4}7,,,6,
{4}4,,,3,
{8}6/5,,,6,,7,,8,
{8}3/1,,,2,,1,,8,
{8}7/2,,,5,,4,,3,
{1}2^7[2:1]/6^3[2:1],
{8}1/2,,7,8/7,,1,7b/2b,,
{8}1,6,5,8,3,4,1,6,
{8}5,7,3,4,3,6,4,5,
{8}3,4,2,5,1,6,8,7,
{8}2,2h[4:1],3,3h[4:1],4,4h[8:1],5b,,
{8}8,3,4,1,6,5,7,3,
{8}4,2,6,5,6,3,5,4,
{8}6,5,7,4,8,3,1,2,
{8}7,7h[4:1],6,6h[4:1],5,5h[8:1],4b,,
{8}1,2,3,7,6,5,2,3,
{16}4,,6,,5,,3,4,3,,5,,7,,8,,
{8}1,5,2,6,3,7,4,8,
{8}5-1[8:1],5,6,6,7^4[8:1],7,8b,,
{8}8,7,6,2,3,4,7,6,
{16}5,,3,,4,,6,5,6,,4,,2,,1,,
{8}8,4,7,3,6,2,5,1,
{8}4-8[8:1],4,3,3,2^5[8:1],2,1b,,
{8}2,3/1,,,6,5/7,,,
{8}3,2/4-8[4:1],,,,,1b,,
{8}7,8/6,,,3,2/4,,,
{8}6,7/5-1[4:1],,,,,8b,,
{1}2-6[4:7]/8-4[4:7],,,
E
&inote_5=(182.0){1},
{8}1/2,8,,,8/7,6^3[4:1],,,
{8},,,,,4,5,6,
{8}8/7,1,,,1/2,3^6[4:1],,,
{8},3,4,5,,2,1,8,
{8}7/6,5,,,3/4,6>2[4:1],,,
{8},,,,,7,8,1,
{8}2/3,4,,,6/5,4^7[4:1],,,{1},
{8}4,4-8[8:1],,,5-1[8:1],,,,
{8}7/8,6,5,4,3,2,1/8,2,
{8}3,4,5,6,8/7^4[8:1],,,,
{8}1/2,3,4,5,6,7,1/8,7,
{8}6,5,4,3,1/2^5[8:1],,,,
{8}8/7,6,5,4/3,2,1,8/7,6,
{8}5,3/4,2,1,7/8-3[8:1],,,,
{8}1/2,3,4,6/5,7,8,1/2,3,
{8}4,5/6,7,8,2/1-6[8:1],,,,
{8}7h[8:3],6,5,4h[8:3],3,2,1h[8:3],2,
{8}3,4h[8:3],5,6,7-3[8:1],,,,
{8}2h[8:3],3,4,5h[8:3],6,7,8h[8:3],7,
{8}6,5h[8:3],4,3,2-6[8:1],,,,
{8}7^4[8:1],8,1,2^7[8:1],3,4,5^2[8:1],6,
{8}7,8^5[8:1],1,2,3^8[8:1],,,,
{8}2^5[8:1],1,8,7^2[8:1],6,5,4^7[4:1],,
{1}7^2[4:1],
{8}2,2-5[8:1],,8-5[8:1],,1-5[8:1],,8,
{16}8b,,2,1,2,,8,,7,,6,,5,,3,4,
{16}3,,2,,1,,8,,7,,6,5,6,,3,,
{16}4,,5,,6,,7,8,7,,4,,3,,2,,
{8}1-4[8:1],1,7-4[8:1],7,1^4[8:1],1,8-4[8:1],8,
{16}1,,7,8,7,,1,,2,,3,,4,,6,5,
{16}6,,7,,8,,1,,2,,3,4,3,,6,,
{16}5,,4,,3,,2,1,2,,5,,6,,7,,
{8}8-5[8:1],8,2-5[8:1],2,8^5[8:1],8,1-5[8:1],1,
{8}8-4[8:1],8,,,1-5[8:1],1,,,
{8}8-4[8:1],4-7[8:1],7-3[4:1],,3^8[4:1],,8b,,
{8}7-4[8:1],7,,,2-5[8:1],2,,,
{8}1-5[8:1],5-2[8:1],2-6[4:1],,6^1[4:1],,1b,,
{8}2^7[8:1],7^4[8:1],,,7^2[8:1],2^5[8:1],,,
{8}6,5,4,3,2^5[8:1],1,8b,,
{8}7^2[8:1],2^5[8:1],,,2^7[8:1],7^4[8:1],,,
{8}3,4,5,6,7^4[8:1],8,1b,2,
{8}3/4,2,1,8,7,6^1[8:1],5,4,
{16},,2,,2,,3,4,3,,1,,8,,7,,
{8}5/6,7,8,1,2,3^8[8:1],4,5,
{16},,7,,7,,6,5,6,,4,,3,,2,,
{8}1/8^3[8:1],7,6,5,4,3^6[8:1],2,1,
{8},1,2,
{16}3,
{821}4,,,,,,,,,,,,,,,,,,,,,,,,,,,,,,,,,,,,,,,,,,,,,,,,,,
{703}3,,,,,,,,,,,,,,,,,,,,,,,,,,,,,,,,,,,,,,,,,,,,,,,,,,,,,,,,,,,,,,,,,,,,,,,,,,,,,,,,,,,,,,,,,
{8}5,6,7,
{8}8/1^6[8:1],2,3,4,5,6^3[8:1],7,8,
{16},,2,,2,,3,4,3,,5,,6,,7,,
{8}8h[2:1],7,6,5,4h[4:1],5,6^3[8:1],7,
{16},,1,,2,,3,4,3,,6,,7,,8,,
{8}1h[2:1],2,3,4,5h[4:1],4,3^6[8:1],2,
{16},,8,,7,,6,5,6,,3,,2,,1,,
{8}8^3[8:1],7,6,5,4,3,2^5[8:1],1,
{16},,6,,5,,3,4,3,,2,,1,,7,8,
{8}7,1,2,3,4,5,6,7^4[8:1],
{8},1^6[8:1],,3^8[8:1],,5^2[8:1],,8-4[8:3],
{8}8,,,,,8,7^4[4:1],3,
{8}4^1[4:1],,,,,1,2^5[4:1],6,
{8}5^8[4:1],,,1h[8:3],,,2,3,
{8}4,,,8h[4:1],,7,6,5,
{1}4^7[2:1],
{8}7<3[2:1],,,,,7,6,5,
{16}4,,,,,,3,4,3^6[4:1],,,,,,,,
{8}7h[8:3],,,8h[4:1],,1,8,7,
{8}6,5-1[8:1],,4-8[8:1],,1-5[8:1],,,
{16}7,8,7,,5,,2,1,2,,4,,8,1,8,,
{16}1b/6b,,7,8,7,,8/3,,2,1,2,,2/5,,3,4,
{16}3,,7/4,,6,5,6,,5/2,,3,4,3,,5,,
{16}6,,7,8,7,,3,4,3,,5,,6,,7,,
{8}8-3[8:1],8,2-5[8:1],2,7-4[8:1],7,1-6[8:1],1,
{16}8b,,2,1,2,,1/6,,7,8,7,,4/7,,6,5,
{16}6,,2/5,,3,4,3,,7/4,,6,5,6,,4,,
{16}3,,2,1,2,,6,5,6,,4,,3,,2,,
{8}1-6[8:1],1,7-4[8:1],7,2-5[8:1],2,8-3[8:1],8,
{16}1b,,7,8,7,,3/8,,2,1,2,,2/5,,3,4,
{16}3,,6,5,7,5,6,,3,4,2,4,3,,6/8,,
{16}7,,3,4,2,5,3,4,3,,6,,7,,8,,
{8}1^6[8:1],1,3^8[8:1],3,5^2[8:1],5,7^4[8:1],7,
{16}3b,,2,1,2,,1/6,,7,8,7,,4/7,,6,5,
{16}6,,3,4,2,4,3,,6,5,7,5,6,,3/1,,
{16}2,,6,5,7,4,6,5,6,,3,,2,,1,,
{8}8^3[8:1],8,6^1[8:1],6,4^7[8:1],4,2^5[8:1],2,
{8}1-6[8:1],1b,,,8^3[8:1],8b,,,
{16}2/1,,3/8,,6,5,7,4,5,2,4,3,4,,,,
{8}8-3[8:1],8b,,,1^6[8:1],1b,,,
{16}8/7,,1/6,,3,4,2,5,4,7,5,6,5,,,,
{4}2^7[4:7]/7-4[4:7],7b/2b,,,{1},,
E
&inote_6=
(182.0){1},
{8}3/4,2/5,,,5/6,7/4>5[2:1],,8h[8:5],
{8},,,,,7,6,5,
{8}3/4,2/5,,,5/6,4-8[8:1]/7-4[8:1],,4/7,
{8},6,7,8,,1/2,3,4,
{8}5/6,4/7,,,3/4,2/5<4[2:1],,1h[8:5],
{8},,,,,2,3,4,
{8}5/6,4/7,,,3/4,5/2>8[2:1],,6h[8:5],
{8},,,,,,,1/2,
{8}1/2,8/3-8[8:1],,7,7-4[8:1],,3b,,
{8}1-6[8:1],8,1,7-4[8:1],8,7,2-5[8:1],1,
{8}2,8-4[8:1],1,8,1-3[8:1]*-5[8:1],,1,,
{8}7-4[8:1],8,7,1-5[8:1],8,1,8-4[8:1],1,
{8}8,2-5[8:1],1,2,7-3[8:1]*-5[8:1],,7,,
{8}1-6[8:1],8,1,7-4[8:1],8,7,2-5[8:1],1,
{8}2,8-4[8:1],1,8,2-4[8:1]*-6[8:1],,2,,
{8}5/8,7,6,1/5,2,3,4/7,6,
{16}1/5,,2,,3,,4/8,,4b/8b,,,,1/2,8,7,6,
{8}4/5h[4:1],3,2,8/1h[4:1],7,6,4/5,3/6,
{8}2^5[8:1],1,8,7p4[16:3],4,,,,
{8}3/5h[4:1],2,1,7/8h[4:1],6,5,3/4,2/5,
{16}1^4[8:1],,5,,6,,7,,8h[16:3],,,6h[16:3],,,4,,
{8}8^3[8:1],7,6,5^8[8:1],4,3,2^5[8:1],1,
{8}8,7^2[8:1],6,5,4^7[8:1],3,2,1,
{16}8,,1/7,,2/6,,3/5,,2/6,,1/7,,8,,2/6,3/5,
{1}4b<4[2:1]*>4[2:1],
{8}3,
{641}7,,,,,,,,,,,,,,,,,,,,
{639}6,,,,,,,,,,,,,,,,,,,,
{16}5h[16:3],,,
{641}1,,,,,,,,,,,,,,,,,,,,
{639}2,,,,,,,,,,,,,,,,,,,,
{16}3h[16:3],,,
{641}8,,,,,,,,,,,,,,,,,,,,
{639}7,,,,,,,,,,,,,,,,,,,,
{16}6h[16:3],,,1,,
{16}3/7b,,2-5[8:1],1,2,,1/2,,7-4[8:1],8,7,,7/8,,1,8,
{16}1,,3,4,3,4,2,,6,5,6,5,7,,4/6,,
{16}3/5,,2,4,3,4,1,4,2h[8:1],,1,2,1,,3/8,,
{8}1,3/5,8,4/6,1,2/4,8,5/7,
{16}3b/6,,7-4[8:1],8,7,,7/8,,2-5[8:1],1,2,,1/2,,8,1,
{16}8,,6,5,6,5,7,,3,4,3,4,2,,3/5,,
{16}4/6,,7,5,6,5,8,5,7h[8:1],,8,7,8,,1/6,,
{8}8,4/6,1,3/5,8,5/7,1,2/4,
{8}1b/5,3/7,,,4/8,2/6,,,
{16}7,6,5,4,1,2,3,4,1,8,7,6,1/5,,,,
{8}4/8b,2/6,,,1/5,3/7,,,
{16}2,3,4,5,8,7,6,5,8,1,2,3,4/7,,,,
{8}3b-1[8:1]/8b-4[8:1],1/4,,,1-5[8:1]/6-8[8:1],5/8,,,
{16}4/8,7,6,5,1/4,2,3,4,5/1-5[8:1],8,7,6,1b/5b,,,,
{8}1b-5[8:1]/6b-8[8:1],5/8,,,3-1[8:1]/8-4[8:1],1/4,,,
{16}1/5,2,3,4,5/8,7,6,5,4/8-4[8:1],1,2,3,4b/8b,,,,
{8}2pp5[4:1],5,6,7,8qq5[4:1],4,3,2,
{8}1,2,3/4,5,4/6,7,5/8,,
{8}7qq4[4:1],4,3,2,1pp4[4:1],5,6,7,
{8}8,7,5/6,4,3/5,2,1/4,,
{8}2pp5[4:1],5,6,7,8qq5[4:1],4,3,2,
{8}1,2,3/4,5,4/6,7,5/8,,
{8}1/2,3,4/5,6,7/8,6,4/5,3,
{16}1/2,,3,,7/8,,6,,2,1,3,8,4,7,5,6,
{8}3V15[4:1],5,6,7,8V62[4:1],2,3,4,
{8}5h[4:1],8,6h[4:1],8,5h[8:1],8,1/6,,
{8}6V84[4:1],4,3,2,1V37[4:1],7,6,5,
{16}4h[4:1],,1,,3h[4:1],,1,,4,3,5,2,6,1,7,8,
{8}7V51[4:1],1,2,3,4V26[4:1],6,7,8,
{8}1h[4:1],4,2h[4:1],4,1h[8:1],4,2/5,,
{8}3/4,3/4,2/5,2/5,1/6,1/6,7/8,7/8,
{16}8,7,1,6,2,5,3,4,2,1,3,8,4,7,5,6,
{1}4b/7bpp4[2:1],
{4}1>6[8:5],,,7,
{8}8V64[2:1],,,4,,,2,,
{8}1V35[2:1],,,5,,,7,,
{1}8z4[2:1],
{4}3^6[2:1],,,7,
{16}8,,,,,,1b,1b,1b,,,,,,,,
{8}2h[8:3],,,7h[4:1],,3,6,4,
{8}5,
{641}2b,,,,,,,,,,,,,,,,,,,,
{639}3,,,,,,,,,,,,,,,,,,,,
{16}4h[16:3],,,
{641}8b,,,,,,,,,,,,,,,,,,,,
{639}7,,,,,,,,,,,,,,,,,,,,
{16}6h[16:3],,,
{641}1b,,,,,,,,,,,,,,,,,,,,
{639}2,,,,,,,,,,,,,,,,,,,,
{16}3h[16:3],,,7h[8:1],,
{16}8,7,8,,1/6,,2,1,2,,3/8,,1,8,1,,
{16}3b/6b,,7-4[8:1],8,6,,1/7,,2-5[8:1],1,3,,2/8,,7,8,
{16}6,,3,4,2,4,1,,6,5,7,5,8,,1/8,,
{16}1/8,,2,1,3,8,4,7,5h[8:1],,6,5,6,,4/7,,
{8}5/2^5[8:1],1,2/7^4[8:1],8,7/2-6[8:1],1,2b/8,,
{16}3b/7b,,2-5[8:1],1,3,,2/8,,7-4[8:1],8,6,,1/7,,2,1,
{16}3,,6,5,7,5,8,,3,4,2,4,1,,1/8,,
{16}1/8,,7,8,6,1,5,2,4h[8:1],,3,4,3,,2/5,,
{8}4/7^4[8:1],8,7/2^5[8:1],1,2/7-3[8:1],8,1/7b,,
{16}2b/6b,,7-4[8:1],8,6,,3/7,,2-5[8:1],1,3,,2/6,,7,8,
{16}6,,3,4,3,2,3,,6,5,6,7,6,,4/5,,
{16}4/5,,6,5,7,4,8,3,1h[8:1],,2,1,2,,3/8,,
{8}7/1-6[8:1],8,3/1-5[8:1],2,1/6,7,4b/8b,,
{16}3b/7b,,2-5[8:1],1,3,,2/6,,7-4[8:1],8,6,,3/7,,2,1,
{16}3,,6,5,6,7,6,,3,4,3,2,3,,4/5,,
{16}4/5,,3,4,2,5,1,6,8h[8:1],,7,8,7,,1/6,,
{8}2/8-3[8:1],1,6/8-4[8:1],7,3/8,2,1b/5b,,
{8}4/8w4[8:1],2/6,,,1/5,3/7,,,
{983}8,,,,,,,,,,,,,,,,,,,,,,,,,,,,,,,,,,,,,,,,,
{625}7,,,,,,,,,,,,,,,,,,,,,,,,,,
{983}6,,,,,,,,,,,,,,,,,,,,,,,,,,,,,,,,,,,,,,,,,2,,,,,,,,,,,,,,,,,,,,,,,,,,,,,,,,,,,,,,,,,
{625}3,,,,,,,,,,,,,,,,,,,,,,,,,,
{983}4,,,,,,,,,,,,,,,,,,,,,,,,,,,,,,,,,,,,,,,,,1,,,,,,,,,,,,,,,,,,,,,,,,,,,,,,,,,,,,,,,,,
{625}2,,,,,,,,,,,,,,,,,,,,,,,,,,
{983}3,,,,,,,,,,,,,,,,,,,,,,,,,,,,,,,,,,,,,,,,,7,,,,,,,,,,,,,,,,,,,,,,,,,,,,,,,,,,,,,,,,,
{625}6,,,,,,,,,,,,,,,,,,,,,,,,,,
{983}5,,,,,,,,,,,,,,,,,,,,,,,,,,,,,,,,,,,,,,,,,
{641}8,,,,,,,,,,,,,,,,,,,,
{639}7,,,,,,,,,,,,,,,,,,,,6,,,,,,,,,,,,,,,,,,,,
{641}5,,,,,,,,,,,,,,,,,,,,4,,,,,,,,,,,,,,,,,,,,
{639}3,,,,,,,,,,,,,,,,,,,,2,,,,,,,,,,,,,,,,,,,,
{641}1,,,,,,,,,,,,,,,,,,,,
{8}4b/8b,,
{8}5/1w5[8:1],3/7,,,4/8,2/6,,,
{983}1,,,,,,,,,,,,,,,,,,,,,,,,,,,,,,,,,,,,,,,,,
{625}2,,,,,,,,,,,,,,,,,,,,,,,,,,
{983}3,,,,,,,,,,,,,,,,,,,,,,,,,,,,,,,,,,,,,,,,,7,,,,,,,,,,,,,,,,,,,,,,,,,,,,,,,,,,,,,,,,,
{625}6,,,,,,,,,,,,,,,,,,,,,,,,,,
{983}5,,,,,,,,,,,,,,,,,,,,,,,,,,,,,,,,,,,,,,,,,8,,,,,,,,,,,,,,,,,,,,,,,,,,,,,,,,,,,,,,,,,
{625}7,,,,,,,,,,,,,,,,,,,,,,,,,,
{983}6,,,,,,,,,,,,,,,,,,,,,,,,,,,,,,,,,,,,,,,,,2,,,,,,,,,,,,,,,,,,,,,,,,,,,,,,,,,,,,,,,,,
{625}3,,,,,,,,,,,,,,,,,,,,,,,,,,
{983}4,,,,,,,,,,,,,,,,,,,,,,,,,,,,,,,,,,,,,,,,,
{641}1,,,,,,,,,,,,,,,,,,,,
{639}2,,,,,,,,,,,,,,,,,,,,3,,,,,,,,,,,,,,,,,,,,
{641}4,,,,,,,,,,,,,,,,,,,,5,,,,,,,,,,,,,,,,,,,,
{639}6,,,,,,,,,,,,,,,,,,,,7,,,,,,,,,,,,,,,,,,,,
{641}8,,,,,,,,,,,,,,,,,,,,
{4}1b/5b,
{4}2^7[8:33]/7-4[8:33],
{8}2b/7b,{1},,,,,
E
