&title=DADDY MULK -Groove remix-
&artist=Performed by SEGA Sound Unit [H.]
&first=0
&des=
&wholebpm=154
&demo_seek=92.6
&demo_len=13.4
&des_4=合作だよ
&des_5=mai-Star
&des_6=ものくロシェ
&lv_1=2
&lv_2=5
&lv_3=7
&lv_4=12
&lv_5=13+
&lv_6=13+
&inote_1=(154.0){1},,,,,,,,,
{1}5,
{1}6,
{1}7h[1:1],,
{1}1,
{1}2,
{1}3h[1:1],,
{1}1,
{1}2,
{1}8,
{1}7,
{1}7/8,
{1}8/7,
{1}1/2,
{1}2/1,
{1}1,
{1}2,
{1}8,
{1}7,
{2}8,8,
{1}1,
{2}2,2,
{1}3h[1:1],,
{4}2,2,,,
{4}3,3,,,
{4}4,4,,,
{4}5,5,,,
{4}4,4,,,
{4}3,3,,,
{1}2h[1:1],,
{1}2,
{1}1h[1:1],,
{1}8,
{2}7,7,
{1}6-3[16:13],,
{2}3,4,
{2}3,2,
{1}2-7[16:13],,
{1}8/1,
{1}1/8,
{2}7,8,
{2}1,2,
{2}1b,8b,
{1}1-4[16:13],,
{2}3,3,
{2}3,3,
{2}2,2,
{1}2,
{2}1,1,
{2}1,1,
{2}8,8,
{1}8b,
{2}7,7,
{2}7,7,
{2}8,8,
{1}8,
{2}1,1,
{2}1,1,
{2}2,2,
{1}2-7[16:13],,
{16}6-3[16:13],{1},,
E
&inote_2=(154.0){1},,,,,,,
{2},1-5[2:1],{1},
{1}5,
{1}6,
{2}6,7,
{2}8,1,
{1}1,
{1}2,
{2}2,3,
{2}4,5,
{4}5,5,,,
{2}3,4,
{4}4,4,,,
{2}6,5,
{4}6,,,5,
{1}5,
{4}3,,,4,
{1}4,
{4}4,4,,,
{4}3,3,,,
{4}2,2,,,
{4}1,1,,,
{1}8h[2:1],
{1}7h[2:1],
{1}6h[2:1],
{1}5h[2:1],
{1}4,
{2}3,2,
{2}1,8,
{4}7,7,7,,
{4}6,6,6,,
{4}5,5,5,,
{4}4,,3,3,
{1}3h[2:1],
{2}2,1,
{2}8,1,
{4}1,1,1,,
{4}2,2,2,,
{2}3,4,
{2}5,6,
{2}5,3,
{2}5,3,
{2}4,6,
{2}4,6,
{4}7,7,7,,
{4}8,8,8,,
{1}1h[2:1],
{1}2h[2:1],
{2}1/2,1/2,
{2}8/7,8/7,
{1}1-5[2:1],
{1}8-4[2:1],
{1}1b,
{2}8,7,
{2}6,5,
{4}4,,4,4,{1},
{2}5,4,
{2}3,2,
{4}1,,1,1,{1},
{2}2,1,
{2}8,7,
{4}6,,6,6,{1},
{2}5,4,
{2}3,2,
{4}1,,8,8,
{1}8-5[2:1],
{1}1-4[2:1],
{1}8-4[2:1],
{4}1-5[2:1],,,,
E
&inote_3=(154.0){1},
{4},1,,1,
{4},8,,8,
{4},3,,3,
{4},6,,6,
{4},4,,4,
{4},7,,7,
{1}1h[2:3],,
{4}1,1,1,1,
{4}7,7,7,7,
{4}3,3,3,,
{1}5h[8:3],
{4}8,8,8,8,
{4}2,2,2,2,
{577}6,,,,,,,,,,,,,,,,,,,,,,,,,,,,,,,,,,,,,,,,,,,,,,,,,,,,,,,,,,,,,,,,,,,,,,,,,,,,,,,,,,,,,,,,,,,,,,,,,,,,,,,,,,,,,,,,,,,,,,,,,,,,,,,,,,,,,,,,,,,,,,,,,
{961}6,,,,,,,,,,,,,,,,,,,,,,,,,,,,,,,,,,,,,,,,,,,,,,,,,,,,,,,,,,,,,,,,,,,,,,,,,,,,,,,,,,,,,,,,,,,,,,,,,,,,,,,,,,,,,,,,,,,,,,,,,,,,,,,,,,,,,,,,,,,,,,,,,,,,,,,,,,,,,,,,,,,,,,,,,,,,,,,,,,,,,,,,,,,,,,,,,,,,,,,,,,,,,,,,,,,,,,,,,,,,,,,,,,,,,,,,,,,,,,,
{4}4,4,
{4}3/4,5/6,8/7,1b/2b,
{4}2,2,1,1,
{4}7,7,8,8,
{4}3,3,4,4,
{4}6,6,5,5,
{4}4/7,,,4/7,
{1}5/6,
{4}2/5,,,2/5,
{1}3/4,
{2}1-4[4:1],8-5[4:1],
{4}2,7,1/8,2b/7b,
{2}6-1[4:1],5-2[4:1],
{4}1,2,3/8,1b/2b,
{2}3h[4:1],4h[4:1],
{2}5h[4:1],6h[4:1],
{2}5h[4:1],4h[4:1],
{2}3h[4:1],2h[4:1],
{4}1,1,2,2,
{4}3,3/4,3,4/2,
{4}8,8,7,7,
{4}6,5/6,6,7/5,
{4}3,3,5,5,
{4}7/8,7/8,1/2,1/2,
{4}8,8,6,6,
{4}4,4,2,2,
{4}3,4,3,4,
{4}6,5,6,5,
{4}7/8,7/8,1/2,1/2,
{4}3/4,5/6,4/3,5/6,
{4}3,2,1,8,
{4}6,7,8,1,
{4}3,4,6,5,
{4}2,4,7,5,
{4}3,4/3,6,6/5,
{4}3,2/4,6,5/7,
{4}2,1,8,7,
{4}3,4,5,6,
{2}7,7,
{2}2,2,
{2}8,8,
{2}1,1,
{4}2/1,3/4,5/6,7/8,
{4}7/8,5/6,4/3,1b/2b,
{4},,3,6,
{4}4,3,2,1/8,
{4}8,7,6,4/5,
{2}4-1[4:1],5-8[4:1],
{2}1-5[4:1],8-4[4:1],
{4}1,2,3,5/4,
{4}5,6,7,8/1,
{2}1h[4:1],3h[4:1],
{4}5h[4:1],,7,7b,
{4}2,1,2,1,
{4}5,6,5,6,
{4}3,4,3,4,
{4}7,8,7,7b/8b,
{2}1-4[4:1],7-2[4:1],
{2}3-6[4:1],8-5[4:1],
{4}2,1,8,7,
{4}6,5,4,3,
{8}1,1,1,,8,8,8,,
{4}3,4,5,6,
{8}8,8,8,,1,1,1,1b,
E
&inote_4=(154.0){1},,,,,,
{8},,,,,,,1h[8:15],{1},,
{4}1,1,8,8,
{4}7,7,6,6,
{8},1,1,,2,,,,
{8}1,,,8,,,,,
{4}8,8,1,1,
{4}2,2,3,3,
{4}1,8,7,,
{4}1h[4:1],3h[4:1],5h[4:1],7h[4:1],
{8}1,,2,1,,8,,,
{8}7,,7,6h[8:3],,,,,
{8}5,,4,5,,6,,,
{8}7,7,,8h[8:3],,,,,
{8}1,1,,,,8,7,6,
{8}5,4,,,,,,,
{8}2,2,,,,3,4,5,
{8}6,7,,,,,,,
{8}8,8,6,6,,,2,2,
{8}4,4,,1,8,7,6,,
{8}4,4,2,2,,,5,5,
{8}7,7,,7,5,3,1,,
{8}7-3[8:1],,,8-4[8:1],,,1-5[8:1],,
{8},6,5,4,3,2h[8:3],,,
{8}1-5[8:1],,,8-4[8:1],,,7-3[8:1],,
{8},2,4,6,8,2h[8:3],,,
{8}8b,8,8,8,1,1,1,1,
{8}7/8,7,8,7,1/2,2,1,2,
{16}4/3,,3,,5/6,,6,,4/3,,3,,6/5,,6,5,
{16}6,,3,4,3,,6,5,6,,3,4,3,,6,5,
{16}6,,3,4,3,,6,5,6,,3,4,3,,5,,
{16}6,,7,,8,,1,,2,,3,,4,,6,5,
{16}6,,6,5,6,,3,4,3,,3,4,3,,6,5,
{8}6,3,4,5,6,7,8,1,
{8}1,3,2,2,8,6,7,7,
{16}1,,2,,1,,8,,7,,8,,1,,7,8,
{16}7,,2,1,2,,7,8,7,,2,1,2,,7,8,
{16}7,,2,1,2,,7,8,7,,2,1,2,,2,,
{8}1,8,7,6,5,4,3,2,
{8}1,1,2,3,4,5,6,7,
{8}8h[4:1],,1,1,3h[4:1],,4,4,
{8}1h[4:1],,8,8,6h[4:1],,5,5,
{8}7,8,7,7,4,3,4,4,
{8}7,8,7,7,4,3,4,4,
{8}5,6,7,7,5,4,3,2,
{8}1,2,3,4,5,6,7-4[4:1],7,
{8},,3-8[4:1],3,,,6-1[4:1],6,
{8},,2-5[4:1],2,,,6,6,
{8}3,4,3,2,3,4,3,3,
{8}6,5,6,7,6,5,6,6,
{8}2,2,7,7,1,1,8,8,
{16}1,8,1,8,1,8,1,8,1,8,1,8,1,8,1h[8:5],,
{8},,,,8,1,8,8h[8:3],
{8},,,,8,7,8,1h[8:3],
{8},,,,2,3,2,1h[4:1],
{8},8,8,7,7,6,6,5h[8:3],
{8},,,,6,7,8,1h[8:3],
{8},,,,4,3,2,1h[8:3],
{8},,,,3,4,5,6h[4:1],
{8},5,5,3,3,1,1,8h[8:3],
{8},,,,1,2,1,8h[4:1],
{8},7,6,7,1,2,3,4h[4:1],
{8},2,1,8,7,6,7,8h[4:1],
{8},7,6,5,4,3,2,1h[8:3],
{8},,,,8,7,8,1h[4:1],
{8},2,3,2,8,7,6,5h[4:1],
{8},4,3,4,5,6,7,8h[4:1],
{8},1,1,3,3,5,5,7h[4:1],
{8},6,6,4,4,2h[4:1],,3,
{8}3,5,5,7h[4:1],,,,,
{8},6,5,4,3,2h[4:1],,4,
{8}5,6,7,8h[4:1],,,,8b,
E
&inote_5=(154.0){1},
{4},1,,1,
{4},8,,8,
{4},3/4,,3/4,
{4},5/6,,5/6,
{4}7,8,1,2,
{8}3,,4,,5,,6-1[2:3],6h[8:13],{1},,
{16}8,,,,2,7,1,,3/4,,5/6,,,,3,,
{8}2,1,8,7,6,5,2/7,1/8,
{16}5,,1,,4,8,4,,7-2[8:1],,,,3,3,3,,
{16}8/4,,3/7,,2/6,,1/5,,,,1,8,1,8,1,8,
{16}1,,,,7,1,8,,2,,5h[8:3],,,,6,,
{16}4,,7,,8,,1,,2,1,2,,7,,8,,
{16}2,1,3,,6,5,7,,3,4,2,,7,8,6,,
{16}2,1,3,7,8,6,3,4,2,6,5,7,1,8,2,7,
{16}4,,2,,8,,6,,,,2,4,2,,7,,
{16}5-1[8:1],,6-2[8:1],,,,,,,,3,8,3,,6,,
{16}3,,5,,7,,1,,,,8,2,6,,4,,
{8}3-7[8:1],4-8[8:1],,,,2,1,,
{16}8/7,,4/3,,1,,2,,3,,5,4,5,,4,,
{16}7,6,7,,1-5[8:1],,6,,8-4[8:1],,3,,,,,,
{16}1/2,,5/6,,8,,7,,6,,4,5,4,,5,,
{16}2,3,2,,8-4[8:1],,3,,1-5[8:1],,6,,,,,,
{16}7,,3,,6,,2,,1,5,3,,7/3,,5,1,
{16}7,,7/3,,2,6,4,,8,4,6,2,8,,,,
{16}3,,2/4,,7,,6/8,,2,6,4,,3/5,,4,8,
{16}2,,1/3,,2,6,4,,5,3,7,1,8,,,,
{16}3,,2,,1,,8h[8:3],,1,,2,,3,,6,5,
{16}6,,5,7,5,,8,2,6,,4/3,,2/1,,,,
{16}6,,7,,8,,1h[8:3],,8,,7,,6,,3,4,
{16}3,,4,2,4,,1,7,3,,5/6,,7/8,,,,
{8}1,1,6,6,3,3,2,2,
{16}7,8,6,8,7,,3,,4,3,5,3,4,,1,,
{16}6,5,6,,5,4,5,,4,3,4,,1,8,2,7,
{1000},
{556}1,,,,,,,,,,,,,,,,,,,,,,,,,,,,,,,,,,,,,,,,,,,,,,,,,,,,,,,,,,,,,,,,,,,,,
{16}2,1,3,,7,8,6,,4,8,3,,5,1,
{16}6,,2,1,2,,7,8,7,,3,5,3,6,3,,
{16}7,8,7,,8,1,8,,1,2,1,,4,5,4,,
{16}2,,1,4,3,,8,5,6,,3,1,2,,6,,
{8}8/2,2,5,5,5/7,8,1,4,
{16}2,1,3,8,5,,6,,7,8,6,1,4,,3,,
{16}1,5,2,6,3,7,4,8,2,6,4,8,1,,8,1,
{16}8,,2,3,2,,5,4,5,,7,6,7,,2,1,
{16}2,,6,5,6,,8,7,8,,4,3,4,1,8,,
{16}1,4,2,,8/7,,4/5,,4,5,4,,7/8,,3,4,
{16}1,,6,5,8,,4,5,4,,7,8,7,1,7,2,
{16}6,3,6,,3,,6,,3,6,3,,6,,3,,
{16}5,4,5,,4,,5,,4,5,4,,5,,4,,
{16}7,8,6,,5,6,3,,4,3,1,,2,1,8,,
{16}2,1,3,,4,3,6,,5,6,8,,7,8,1,,
{8}8/6,7,3/1,2,4/6,5,2/4,3,
{16}6,5,6,,6/5,,6/5,,3,4,3,,4/3,,3/4,,
{16}2,8,1,7,8/6,,6/8,,6,4,5,3,2/4,,4/2,,
{16}3,4,2,4,3/5,,5/3,,6,5,7,5,6/4,,4/6,,
{12}3,
{995}4,,,,,,,,,,,,,,,,,,,,,,,,,,,,,,,,,,,,,,,,,,,,,,,,,,,,,,,,,,,,,,,,,,,,,,,,,,,,,,,,,,,
{12}5,7,
{995}6,,,,,,,,,,,,,,,,,,,,,,,,,,,,,,,,,,,,,,,,,,,,,,,,,,,,,,,,,,,,,,,,,,,,,,,,,,,,,,,,,,,
{12}5,2,
{995}3,,,,,,,,,,,,,,,,,,,,,,,,,,,,,,,,,,,,,,,,,,,,,,,,,,,,,,,,,,,,,,,,,,,,,,,,,,,,,,,,,,,
{12}4,6,
{995}5,,,,,,,,,,,,,,,,,,,,,,,,,,,,,,,,,,,,,,,,,,,,,,,,,,,,,,,,,,,,,,,,,,,,,,,,,,,,,,,,,,,
{12}4,
{12}2,
{995}3,,,,,,,,,,,,,,,,,,,,,,,,,,,,,,,,,,,,,,,,,,,,,,,,,,,,,,,,,,,,,,,,,,,,,,,,,,,,,,,,,,,
{12}4,1,
{995}8,,,,,,,,,,,,,,,,,,,,,,,,,,,,,,,,,,,,,,,,,,,,,,,,,,,,,,,,,,,,,,,,,,,,,,,,,,,,,,,,,,,
{12}7,5,
{995}4,,,,,,,,,,,,,,,,,,,,,,,,,,,,,,,,,,,,,,,,,,,,,,,,,,,,,,,,,,,,,,,,,,,,,,,,,,,,,,,,,,,
{12}3,1/8,,,
{16}5,6,5,6,4,7,4,7,3,8,3,8,2,1,2,1,
{16}3,7,2,6,1,5,8,4,2,6,4,8,1,8,2h[8:3],,
{8},,,,4-1[8:1],6-1[8:1],4,6,
{8},4/8,1/5,2/6,5-8[8:1],3-8[8:1],5,3,
{8},5/1,4/8,3/7,4-8[8:1],5-1[8:1],4,5,
{16},,3,4,2,,6,5,7,,2,1,3,,7,,
{8},2/1,,7/8,4-7[8:1],4-1[8:1],4,4,
{8},7/8,6/5,3/4,5-2[8:1],5-8[8:1],
{415}5,,,,,,,,,,,,,,,,,,,,,,,,,,,,,,,,,,,,,,,,,,,,,,,,,,,,
{417}5,,,,,,,,,,,,,,,,,,,,,,,,,,,,,,,,,,,,,,,,,,,,,,,,,,,,
{8},2/1,4/3,5/6,3-7[8:1],5-1[8:1],3,5,
{16},,5,4,6,,4,5,3,,6,4,5,,3,,
{8},,,,3/6,4-1[8:1]/5-8[8:1],7/2,,
{8},1/2,8/3,2/1,4/7,5-2[8:1]/6-1[8:1],3/8,,
{8},8/7,1/6,7/8,5/2,3-8[8:1]/4-7[8:1],1/6,,
{8},1,1,3,3,5,5,7h[8:3],
{8},,,,2/6,3-8[8:1]/7-4[8:1],1/5,,
{8},5/1,2/6,7/3,8/4,1-6[8:1]/5-2[8:1],3/7,,
{8},3/7,8/4,5/1,5-2[8:1],1-5[8:1],,,
{8},7,8,1,5,4,3,2/6,
{16},,3,4,2,,8,,6,,4,,,,6,5,
{8}7,1,3,5,,,,,
{16},,3,5,4-8[8:1],,1-5[8:1],,,,,,,,7,1,
{8}8-4[8:1],5-1[8:1],,,6,7,8,1b/2b,
E
&inote_6=(154.0){1},
{4}5/4h[4:15],3,,3,
{4},2,,2,
{4},7,,6,
{8},,5,,,,5,3,
{4}4/5h[4:7],6,,4,
{8},,7,,,,2,8h[1:1]/2bz6[4:3],{1},
{16},,1,2,3,4,5,6,7/8,,1/2,,4,5,4,5,
{16}2/7,,,,1-6[8:1],2,3,,1,,5,,4,,3,,
{8}2/1-5[8:1],8,1/2-6[8:1],3,1/2,8,7,4/6h[8:3],
{8},3,3,,2/4,3,5/7,6,
{16}1/4,,3,,5/8,,6,,2,4,3,,4/5,,2/7,,
{16}4,,5,,8-3[8:1],7,6,,8,,4,,5,,6,,
{8}7/8-4[8:1],1,8/7-3[8:1],6,7/8,1,2,1/5h[8:5],
{16}8,,2,,7,,3,,6,,4,5,4,,2/7,,
{16}6,5,7,,3V51[4:1],4,2,,3/6,,7,,8,,,,
{8}8/7h[8:3],1,2,3-7[8:1],,3h[4:1],,,
{8}5/6,6/5s1[8:3],5/6,5/7h[8:3],,,,,
{8}1/2h[8:3],8,7,6-2[8:1],,6h[4:1],,,
{16}3/4,,3/5,,3/6,,3/7,,3/8,7,6,5,4,3,2,1,
{16}6/8,,4/7,,6,5,6,5,7,,3/4,,1/2,,7/8,,
{16}6,5,6,5,7,,3,4,2,,1/8,,5/6,,3/4,,
{16}1/3,,2/5,,3,4,3,4,2,,5/6,,7/8,,1/2,,
{16}3,4,3,4,2,,1/8,,2/7,,3,6,4,5,4,5,
{16}3/6,,6,,2/7,,1/8,,2,4,3,,1/8,,2/7,,
{8}8^5[8:1],4,8^3[8:1],4,8,4,1/7,,
{16}3/5,,3,,2/7,,1/8,,7,5,6,,1/8,,2/7,,
{8}1^4[8:1],5,1,7,5/6,3/4,2/8,,
{8}1b>5[8:1],7,7,8<4[8:1],2,2,1>5[8:1],6,
{8}6,7,8/1h[4:1],2,3,1/4,2/5,3/6,
{8}8<4[8:1],2,2,1>5[8:1],7,7,8<4[8:1],3,
{16}3,,2,,8,1,5,4,6,2,8,5,7,3,5,1,
{8}2b/8b,,2/4,2,2/4,2,2/4,2,
{16}2,1,2,,4/5,,4/5,,7,8,7,,4/5,,4/5,,
{16}2,5,4,5,1,5,4,5,8,5,4,5,7,5,4,5,
{16}8^3[8:1],,7,7,8-4[8:1],,6,6,8,,5,5,8,,2/7,,
{16}1^6[8:1],,2,2,1-5[8:1],,3,3,1,,4,4,8,,2/7,,
{16}3,4,3,,6,5,6,,3,4,3,4,3h[8:1],,5,5,
{16}4,,6,6,5,,7,7,6,,8,8,7,,1,1,
{16}2/8,,2/8,,2/8,,2/8,,2/8,,2/8,,8,8,8,8,
{8}7/1^4[8:1],2,1/7^4[8:1],8,7/1-5[8:1],2,1/7,8,
{16}1/7,,2,,4/8,,7,,1/5,,2,,4/8,,3,3,
{16}1^6[8:1],,3,3,1-5[8:1],,3,3,1,,3,3,1,,6,6,
{16}8^3[8:1],,6,6,8-4[8:1],,6,6,8,,6,6,1,,2,,
{16}7h[8:1],,4h[8:1],,6h[8:1],,5,5,6,,4,4,5,,3,3,
{16}4,,2,2,3,,1,1,2,,8,8,1/7,,1/7,,
{983}8,,,,,,,,,,,,,,,,,,,,,,,,,,,,,,,,,,,,,,,,,
{625}7,,,,,,,,,,,,,,,,,,,,,,,,,,
{983}6,,,,,,,,,,,,,,,,,,,,,,,,,,,,,,,,,,,,,,,,,
{8}5,4/5,4/5,
{983}1,,,,,,,,,,,,,,,,,,,,,,,,,,,,,,,,,,,,,,,,,
{625}2,,,,,,,,,,,,,,,,,,,,,,,,,,
{983}3,,,,,,,,,,,,,,,,,,,,,,,,,,,,,,,,,,,,,,,,,
{8}4,4/5,4/5,
{983}8,,,,,,,,,,,,,,,,,,,,,,,,,,,,,,,,,,,,,,,,,
{625}7,,,,,,,,,,,,,,,,,,,,,,,,,,
{983}6,,,,,,,,,,,,,,,,,,,,,,,,,,,,,,,,,,,,,,,,,
{8}5,4/5,4/5,
{983}1,,,,,,,,,,,,,,,,,,,,,,,,,,,,,,,,,,,,,,,,,
{625}2,,,,,,,,,,,,,,,,,,,,,,,,,,
{983}3,,,,,,,,,,,,,,,,,,,,,,,,,,,,,,,,,,,,,,,,,
{8}4,4/5,4/5,
{16}8,8,8,,1,1,1,,7,7,7,,2,2,2,,
{16}6,6,6,,3,3,3,,5,5,5,,4,4,4,,
{8}5/7h[1:1],,6,6,6,6,6,6,
{8}5-1[8:1],5h[4:1],,,4-8[8:1],4h[4:1],,,
{16}6,5,6-8[16:1],5,6,,1,,3,4,3-1[16:1],4,3,,8,,
{16}6,5,6-8[16:1],5,6,,1,,3,4,3-1[16:1],4,3,,8,,
{16}5,6,5,6,8,7,8,7,5,6,8,7,5,6,8,7,
{16}4,5,4,5,3,6,3,6,4,5,3,6,4,5,3,6,
{16}2,1,2,1,3,4,3,4,2,1,3,4,2,1,3,4,
{16}2,1,3,8,4,7,5,6,4,4,4,4,4,,1b/7b,,
{8},,,,4/6,2/4-8[8:1],4/6,4/2h[8:3],
{8},7,6,5,2/4,6/4-8[8:1],2/4,4/6h[8:3],
{8},1,2,3,4/6,2/4-8[8:1],4/6,2/4,
{16},,7,5,6,,2,4,3,,8pp3[8:3]*qq5[8:3],5,6,,8,,
{8},,,,3/5,7/5-1[8:1],3/5,5/7h[8:3],
{8},2,3,4,5/7,3/5-1[8:1],5/7,5/3h[8:3],
{8},8,7,6,3/5,7/5-1[8:1],3/5,5/7,
{8},8-4[8:1],1,8/2-6[8:1],3,2/1pp4[8:3]*qq6[8:3],8,1,
{8},,,,3/5,7/5p2[4:1],3/5,5/7,
{8},1,8,7,3/5,7/5p2[4:1],3/5,5/7,
{8},1,8,7,3/5,7/5-1[8:1],3/5,5/7,
{16},,2,4,3,,7,5,6,,1pp4[8:3]*qq6[8:3],4,3,,1,,
{8},,,,4/6,2/4q7[4:1],4/6,2/4,
{8},8,1,2,4/6,2/4q7[4:1],4/6,2/4,
{8},8,1,2,4/6,2/4-8[8:1],4/6,2/4,
{16},,5/8,7,6,,1/4,2,3,,5/8-3[8:1],7-3[16:1],6,,7b/8b,,
{16},,2,1,8-3[8:1],,3-8[8:1],,8-6[8:1],,5,,4,,2,1,
{8}8^5[8:1],8^3[8:1],8-4[8:1],,,3,2,1/8,
{16}3/6,,7,8,1-6[8:1],,6-1[8:1],,1-3[8:1],,4,,5,,7,8,
{8}1^4[8:1],1^6[8:1],1-5[8:1],,,6,3,1b/2b,
E
