&title=Cosmic Train
&artist=Shoichiro Hirata feat.SUIMI
&first=0
&des=
&wholebpm=130
&demo_seek=74.8
&demo_len=14.9
&des_4=譜面-100号
&des_5=mai-Star
&lv_1=2
&lv_2=3
&lv_3=6
&lv_4=10+
&lv_5=12
&inote_1=(130.0){1},,,,,,,,,
{2}1,2,
{1}3,
{2}2,1,
{1}8,
{2}7,6,
{1}5,
{2}4,5,
{1}6,
{1}8,
{1}7,
{1}6,
{1}5,
{1}4,
{1}3,
{1}2,
{1}1,
{2}8,8,
{2}7,7,
{2}6,6,
{2}5,5,
{2}4,4,
{2}3,3,
{2}2,2,
{2}1,1,
{1}8-5[2:1],,
{1}4-1[2:1],,
{1}7-2[2:1],,
{2}3,2,
{1}1b,
{4},7,,7,
{4},6,,6,
{4},7,,7,
{4},8,,8,
{4},1,,1,
{4},2,,2-7[2:1],{1},,
{4},6,,5,
{4},6,,5,
{4},4,,3,
{4},2,,1,
{4},8,,7,
{4},8,,1-4[2:1],{1},,
{1}5h[1:1],,
{1}6h[1:1],,
{2}6,6,
{2}5,5,
{2}4,4,
{2}3,3,
{4}2-7[2:1],,,,
E
&inote_2=(130.0){1},
{2}5,5,
{4}5,,4,4,
{2}4,4,
{4}4,,5,5,
{2}5,5,
{2}5,6b,
{2}7,8-5[4:3],{1},
{2}4,4,
{2}3,3h[4:1],
{2}2,2,
{2}1,1h[4:1],
{2}8,8,
{2}7,7h[4:1],
{2}6,6,
{2}5,5h[4:1],
{1}4h[2:1],
{1}4h[2:1],
{1}3h[2:1],
{1}3h[2:1],
{2}2,1,
{2}8,7,
{1}7-2[4:3],,
{2}1,2,
{2}3,4,
{2}5,6,
{1}7h[2:1],
{2}8,7,
{2}6,5,
{2}4,3,
{1}2h[2:1],
{1}1-4[4:3],,
{1}8-5[4:3],,
{1}2-5[4:3],,
{1}7-4[4:3],,
{4}2,2,2,,
{4}2,,1,1,
{2}1,1,
{2}1,
{833}8,,,,,,,,,,,,,,,,,,,,,,,,,,,,,,,,,,,,,,,,,,,,,,,,,,,,,,,,,,,,,,,,,,,,,,,,,,,,,,,,,,,,,,,,,,,,,,,,,,,,,,,,,,,,,,,,,,,,,,,,,,,,,,,,,,,,,,,,,,,,,,,,,,,,,,,,,,,,,,,,,,,,,,,,,,,,,,,,,,,,,,,,,,,,,,,,,,,,,,,,,,,,,,,,
{4}8,
{999}8,,,,,,,,,,,,,,,,,,,,,,,,,,,,,,,,,,,,,,,,,,,,,,,,,,,,,,,,,,,,,,,,,,,,,,,,,,,,,,,,,,,,,,,,,,,,,,,,,,,,,,,,,,,,,,,,,,,,,,,,,,,,,,,,,,,,,,,,,,,,,,,,,,,,,,,,,,,,,,,,,,,,,,,,,,,,,,,,,,,,,,,,,,,,,,,,,,,,,,,,,,,,,,,,,,,,,,,,,,,,,,,,,,,,,,,,,,,,,,,,,,,,,,,,,,,,,,,,,,,,,,,,,,,,,,,,,,,,,,,,,,,,,,,,,,,,,,,,,,,,,,,,,,,,,,,,,,,,,,,,,,,,,,,,,,,,,,,,,,,,,,,,,,,,,,,,,,,,,,,,,,,,,,,,,,,,,,,,,,,,,,,,,,,,,,,,,,,,,,,,,,,,,,,,,,,,,,,,,,,,,,,,,,,,,,,,,,,,,,,,,,,,,,,,,,,,,,,,,,,,,,,,,,,,,,,,,,,,,,,,,,,,,,,,,,,,,,,,,,,
{2}8,
{4}8,,
{4}7,7,
{1}7-2[4:3],,
{4}3,3,3,,
{4}3,,4,4,
{2}4,4,
{4}4,,5,5,
{2}5,5,
{4}5,,6,6,
{1}6-3[4:3],,
{2}2,2,
{2}1,1,
{2}8,8,
{2}7,7b,
{2}6,5,
{2}4,3,
{2}3,4,
{2}5,6b,
{2}7,
{1}8-5[4:3],,
E
&inote_3=(130.0){1},2-7[2:1],
{1}2-5[2:1],
{1}7-2[2:1],
{1}7-4[2:1],
{1}1-6[2:1],
{1}1-4[2:1],
{1}8^3[4:3],,
{8}1,,,1,8,,,8,
{8}7,,,7,6,,6,,
{8}8,,,8,1,,,1,
{8}2,,,2,3,,3,,
{8}7,,,7,6,,,6,
{8}5,,,5,4,,4,,
{8}2,,,2,3,,,3,
{8}4,,,4,5,,5,,
{2}7,7,
{2}4,4,
{2}2,2,
{2}5,5,
{2}1,1,
{2}6,6,
{2}8,8,
{2}3,3,
{4}5,2,5,2,
{4}7,4,7,4,
{4}3,8,3,8,
{4}1,6,1,6,
{4}7,8,1,2,
{4}2,1,8,7,
{4}6,5,4,4/3,
{4}3,4,5,5/6^1[4:3],{1},
{4}3,3,3,3^8[4:3],{1},
{4}7,7,7,7^2[4:3],{1},
{8}2,,2,,2,,2^7[4:3],2,{1},
{4},,,2b/7b,
{4}1,7/2,1,2/7,
{4}1,1,8,7,
{4}8,7/2,8,2/7,
{4}8,8,1,2,
{4}1,2/7,1,2/7,
{4}1,8,1,,
{1}1^4[4:3]/8^5[4:3],,
{4}1,7/2,8,7/2,
{4}1,2,7,2,
{4}8,2/7,1,2/7,
{4}8,7,2,7,
{4}1,7/2,8,7/2,
{4}8/1,2/7,1/8,,
{1}1^6[4:3]/2^5[4:3],,
{8}3,,,3,2,,,2,
{8}1,,,1,8,,8,,
{8}6,,,6,7,,,7,
{8}8,,,8,1,,1,,
{8}5,,,5,4,,,4,
{8}3,,,3,2,,2,,
{8}4,,,4,5,,,5,
{8}6,,,6,7,,
{1}7^2[4:3],,
E
&inote_4=(130.0){1},
{16}7,,,6,,,5,,,4/3,,,,,,,
{16},,2,,,3,,,4,,,5,,,6,,
{16}7,,,6,,,5,,,3/4,,,,,,,
{16},,2,,,3,,,4,,,5,,,6,,
{16}7h[16:3],,,6h[16:3],,,5,,,3/4,,,,,,,
{16},,2h[16:3],,,3h[16:3],,,4h[16:3],,,5h[16:3],,,6,,
{16}7h[16:3],,,6h[16:3],,,5h[16:3],,,4h[16:3],,,3^6[2:1],,,,
{8},,,,,,,8,
{8}7,6,,2,3,4,,6,
{8}5,4,,1,2,3,,7,
{8}6,5,,8,1,2,,4,
{8}3,2,,7,8,1,,3,
{8}2,1h[4:1],,4,5,6h[4:1],,4,
{8}3,2h[4:1],,7,8,1,,6,
{8}5,4h[4:1],,6,7,8h[4:1],,1,
{8}8,7h[4:1],,5,6,7,8h[4:1],,
{4}3,3,3,2/4,
{4}6,6,6,5/7,
{4}2,2,2,1/3,
{4}7,7,7,8/6,
{4}2^7[2:1],6,5,4,
{4}7^2[2:1],3,4,5,
{4}7^4[2:1],2,1,8,
{4}2^5[2:1],7,8,1b,
{8}1,2,3/5,,7,6,5/3,,
{8}2,3,4/6,,1,8,5/7,,
{8}8,7,6/1,,3,4,2/5,,
{8}1,2,3/8,,6,5,4b/7b,,
{2}2-7[4:1],6-3[4:1],
{2}1^4[4:1],8^5[4:1],
{2}3-7[4:1],6-2[4:1],
{2}8^3[4:1],4^7[4:1],
{8}8h[8:3],,,7h[8:3],,,6,,
{8}3h[8:3],,,4h[8:3],,,5,,
{8}6h[8:3],,,2h[8:3],,,4,,
{8}1h[8:3],,,5h[8:3],,,7,,
{8}1-6[4:1],,,8^3[4:1],,,,,
{8}8-4[4:1],,,1^6[4:1],,,,,
{1}5-1[4:5],
{8},,,,,,3,2,
{8}1/3,,8,7,6/8,,2,3,
{8}4/2,,6,5,4/6,7,8,1,
{8}2/4,,7,6,7/5,,3,4,
{8}3/5,,6,5,2/4,3,4,5,
{8}4/6,,1,8,1/7,,4,5,
{8}6/4,,2b/4b,3,4b/6b,5,,7,
{8}7h[4:1],,6,6h[4:1],,5,5<2[2:1],,
{8},,,,,,3,3,
{8}3h[2:1],,1,1,1h[2:1],,7,7,
{8}7h[4:1],,5,4,3,2,3,4,
{8}4h[2:1],,6,6,6h[2:1],,8,8,
{8}8h[4:1],,2,3,4,5,4,3,
{8}3h[2:1],,7,7,7h[2:1],,1,1,
{8}1h[4:1],,6b,7,8b,1,,1,
{8}1h[4:1],,2,2h[4:1],,3,3^8[2:1],,
{8},,,,,,,2,
{8}5/3,6,,8,5/7,4,,3,
{8}4/6,7,,6,3/5,2b,,8,
{8}3/1,4,,5,4/2,1,,3,
{8}4/6,7,,1,6/8,5b,,8^3[4:1],
{8}8,,,6^3[4:1],6,,,1^4[4:1],
{8}1,,,2^7[4:1],2,,,4^7[4:1],
{8}4,,,8^5[4:1],8,,,2^5[4:1],
{8}2,,,7^4[4:1],7,,,1-4[4:1],
{8}1,,,8-5[4:1],8,,,,
E
&inote_5=(130.0){1},
{16}1h[16:3],,,5h[16:3],,,4h[16:3],,,8h[16:3],,,,,,,
{16},,7h[16:3],,,6h[16:3],,,2h[16:3],,,3h[16:3],,,4h[8:1],,
{16}8h[16:3],,,5h[16:3],,,1h[16:3],,,4h[16:3],,,,,,,
{16},,2h[16:3],,,1h[16:3],,,5h[16:3],,,4h[16:3],,,7h[8:1],,
{16}8h[16:3],,,1h[16:3],,,2h[16:3],,,3h[16:3],,,,,,,
{16},,6h[16:3],,,8h[16:3],,,2h[16:3],,,4h[16:3],,,5h[8:1],,
{16}3h[16:3],,,1h[16:3],,,7h[16:3],,,5h[16:3],,,1h[16:3],,,8^3[16:9],
{8},,,,,,,1<5[8:1],
{8}1,,,8^3[8:1],8,,,1-5[8:1]/8-4[8:1],
{8}1/8,,,2,1,8^3[8:1],7,6-1[8:1],
{8}6,,,8-3[8:1],8,,,1-5[8:1],
{8}1,,,1-6[8:1],5-2[8:1],,,8-4[8:1],
{8}8h[4:1],,,1-5[8:1],1h[4:1],,,2-6[8:1],
{8}2h[4:1],,,7-2[8:1],3-6[8:1],,,5-1[8:1],
{8}5h[4:1],,,6-2[8:1],6h[4:1],,,7-3[8:1],
{8}7h[4:1],,,8-4[8:1],1-5[8:1],,,8b,
{4}1-4[4:1],8,7-2[4:1],6,
{4}5-8[4:1],4,3-6[4:1],2,
{4}1h[4:3],6,7,8,
{4}1-4[8:1],1-5[8:1],1-6[8:1],,
{4}3h[8:3],1h[8:3],8h[8:3],6h[8:3],
{4}5h[8:3],2h[2:1],3h[4:1],,
{4}1h[8:1]/5h[8:1],2h[8:1]/6h[8:1],3h[8:1]/7h[8:1],4h[8:1]/8h[8:1],
{4}7h[8:1]/3h[8:1],2h[8:1]/6h[8:1],1h[4:1]/5h[4:1],,
{8}1-4[8:1],1,8,8,4-8[8:1],4,5,5,
{8}8-5[8:1],8,1,1,5-2[8:1],5,4,4,
{8}2-7[8:1],2,3,3,7-4[8:1],7,6,6,
{4}4-1[8:1],4-7[8:1],4-8[8:1],,
{8}2h[4:1],3,3h[4:1],8,8h[4:1],7,7h[4:1],6,
{8}6h[4:1],1,1h[2:1],2,2h[4:1],,,,
{8}8h[8:1],7h[8:1],6h[8:1],5h[8:1],4h[8:1],3h[8:1],2h[8:1],1h[8:1],
{8}8h[8:1],6h[8:1],4h[8:1],2h[8:1],7h[8:1],1h[8:1],8b,,
{4}3,2,1-5[4:3],1b,
{4}6,7,8-5[4:3],8b,
{4}1,8,7-2[4:3],7b,
{4}5,4,3-6[4:3],3b,
{4}4,4,1-4[8:1],,
{4}5,5,8-5[8:1],,
{833}7-2[4:1],,,,,,,,,,,,,,,,,,,,,,,,,,,,,,,,,,,,,,,,,,,,,,,,,,,,,,,,,,,,,,,,,,,,,,,,,,,,,,,,,,,,,,,,,,,,,,,,,,,,,,,,,,,,,,,,,,,,,,,,,,,,,,,,,,,,,,,,,,,,,,,,,,,,,,,,,,,,,,,,,,,,,,,,,,,,,,,,,,,,,,,,,,,,,,,,,,,,,,,,,,,,,,,,
{835}2-5[10000:2503],,,,,,,,,,,,,,,,,,,,,,,,,,,,,,,,,,,,,,,,,,,,,,,,,,,,,,,,,,,,,,,,,,,,,,,,,,,,,,,,,,,,,,,,,,,,,,,,,,,,,,,,,,,,,,,,,,,,,,,,,,,,,,,,,,,,,,,,,,,,,,,,,,,,,,,,,,,,,,,,,,,,,,,,,,,,,,,,,,,,,,,,,,,,,,,,,,,,,,,,,,,,,,,,,
{4}5-8[4:1],8-4[4:1],
{4}4-1[4:1],1-5[4:1],,,
{2}2-7[8:1]/3^8[8:1],6^1[8:1]/7-2[8:1],
{8}1-5[8:1],,8-4[8:1],,3^8[8:1],3^6[8:1],,,
{2}7^2[8:1],2-7[8:1]/3^8[8:1],
{4}1-6[8:1],8-3[8:1],5-2[8:1],4-7[8:1],
{2}1-4[8:1],1-6[8:1],
{4}1-5[8:1],1^4[8:1],1^6[8:1],,
{8}5-1[16:1],5,,2-6[16:1],,,7-3[16:1],,
{8}8-4[16:1],,1-5[16:1],,2-6[16:1],,8b,1,
{8}2,,1^6[8:1],1h[4:1],,,6^3[8:1],6h[4:1],
{8},,3^8[8:1],5,4,3,2/8^5[8:1],1,
{8}8,,5^8[8:1]/8^3[8:1],8/5,,,1^6[8:1]/4^1[8:1],1/4,
{8},,1-6[8:1],1,8-3[8:1],8,7,8,
{4}1^6[8:1],1^4[8:1],8-5[8:1],4-1[8:1],
{8},,7-4[8:1],3-8[8:1],,,,8,
{8}1-4[8:1],,7,7-4[8:1],,8,8-4[8:1],,
{8}7h[4:1],,8h[4:1],,1,,8b/1b,1-5[8:1],
{8}1,,,5-8[8:1],5,,,8^3[8:1],
{8}8,,,3^6[8:1],3^8[8:1],,,6-1[8:1],
{8}6,,,1-4[8:1],1,,,4-8[8:1],
{8}4,,,8^5[8:1],8^3[8:1],,,5-1[8:1],
{8}5h[4:1],,,6-2[8:1],6h[4:1],,,7-3[8:1],
{8}7h[4:1],,,2^7[8:1],2-5[8:1],,,7-3[8:1],
{8}7h[4:1],,,6-2[8:1],6h[4:1],,,5-1[8:1],
{8}5h[4:1],,,1^4[8:1],1-6[8:1],,,7^4[4:1],
{8}7,,,2^5[4:1],2,,,7^2[8:5],
{4}7,,,,
E
