&title=Choo Choo Train
&artist=EXILE [PV]
&wholebpm=115.0
&lv_1=2
&lv_2=4
&lv_3=5
&lv_4=8
&lv_5=10
&inote_1=
(115.0){1},,,,,
{1}1,
{1}2,
{1}3,
{1}4,
{1}5,
{1}6,
{1}7,
{1}8b,
{2}1,1,
{2}8,8,
{1}7h[4:1],
{1}6h[4:1],
{2}7,7,
{2}8,8,
{1}1h[4:1],
{1}2h[4:1],
{1}1b,
{1}8b,
{1}7-2[2:1],,
{4},,,1,
{4},,,2,
{4},,,1,
{4},,,8,
{4},,,7,
{4},,,6,
{4},,,5h[2:1],{1},
{4}6,6,,,{1},
{4}8,8,,,{1},
{2}1,1,
{2}2,2,
{1}1h[4:1],
{1}8h[4:1],
{4},,,8,
{4},,,7,
{4},,,8,
{4},,,1,
{4},,,2,
{4},,,3,
{4},,,4h[2:1],{1},
{4}3,3,,,{1},
{4}1,1,,,{1},
{2}8,8,
{2}7,7,
{1}6-3[4:1],
{1}2b,
{4}8,8,8,,
{4}7,7,7,,
{2}8,1,
{2}2,3,
{4}4,4,4,,
{4}5,5,5,,
{2}4,4,
{2}2,2,
{1}8b,
{1}1b,
E
&inote_2=
(115.0){1},
{2}8,7,
{2}6,5,
{2}4,3,
{2}2,1b,
{2}8,8,
{4}7,7,,,
{2}1,1,
{4}2,2,,,
{1}3h[2:1],
{4}4,4,,,
{4}5,5,6,6,
{1}7h[4:3],
{4}8,8,7/8,,
{1}7h[8:3],
{2}7,8,
{4}1,1,2,2,
{4}1,1,2/1,,
{1}2h[8:3],
{2}3,3,
{4}4,4,5,5b,
{1}4h[8:3],
{1}5h[8:3],
{1}2-5[4:1],
{1}7-4[4:1],
{4},1,,1,
{4},2,,2,
{1}2h[2:1],
{1}3h[2:1],
{4},5,,5,
{4},6,,6,
{1}6h[2:1],
{1}7h[2:1],
{1}1-4[4:1],
{4},,8,8,
{1}8-5[4:1],
{4},,2,2,
{1}2-5[4:1],
{4},,7,7,
{1}7-4[4:1],,
{4},8,,8,
{4},7,,7,
{1}7h[2:1],
{1}6h[2:1],
{4},4,,4,
{4},3,,3,
{1}3h[2:1],
{1}2h[2:1],
{1}8-5[4:1],
{4},,1,1,
{1}1-4[4:1],
{4},,7,7,
{1}7-4[4:1],
{4},,2,2,
{1}2-5[4:1],
{8},8,8,,1,1b,,,
{4}1,1,1/2,,
{1}2-5[4:1],
{4}6,6,7,,
{4}8,8,7,7,
{4}8,8,7/8,,
{1}7-4[4:1],
{4}3,3,2,,
{4}1,1,8,8,
{1}8h[8:3]/1h[8:3],
{1}8h[8:3]/1h[8:3],
{1}7/2,
E
&inote_3=
(115.0){1},8^5[4:3],
{1}4^1[4:3],
{1}8^5[4:3],
{1}4^1[4:3],
{4}8,,6,5,
{4}4,,2,1,
{4}8,,6,5,
{4}4,,2,1,
{4}8,,2,3,
{4}4,,6,7,
{4}8,,6,5,
{1}4-1[16:5],
{4}7/8,1/8,7/8,8/1,
{1}7h[4:3],
{4}8,7,8,1,
{1}8h[4:3],
{4}1/2,1/8,1/2,8/1,
{1}2h[4:3],
{4}1,2,1,2,
{4}2/1,,1/8,8/1,
{1}8b,
{1}1b,
{1}7h[4:3],
{1}5h[4:3],
{4},3,,1,
{4},3,,1,
{4},2,,8,
{4},2,,8,
{4},6,,8,
{4},6,,8,
{4}2,1,1/8,8h[2:1]/7h[2:1],{1},
{4}7,7h[2:1],,,
{2},1,
{4}2,2h[2:1],,,
{2},1,
{4},1,,2,
{4},8,,8,
{4}7/8,,2/1,8h[4:3],{1},
{4},8,,2,
{4},8,,2,
{4},1,,7,
{4},1,,7,
{4},8,,2,
{4},8,,7,
{4}8,1,1/8,1h[2:1]/2h[2:1],{1},
{4}8,8h[2:1],,,
{2},5,
{4}4,4h[2:1],,,
{2},2,
{4},8,,8,
{4},1,,1,
{2}7/8,5/6,
{1}4-1[16:5],
{4}7/8,1/7,7/8,7/1,
{4}7h[4:3],,,8,
{4}1,2,1,8,
{1}8h[4:3],
{4}1/2,2/8,1/2,2/8,
{4}2h[4:3],,,3,
{4}4,5,6,7,
{4}7/8,,8/1,8/1,
{1}1b,
{1}8b,
E
&inote_4=
(115.0){1},1^6[2:1],
{1}5^2[2:1],
{2}1^6[4:1],5^2[4:1],
{2}1^6[8:1],5^2[8:1],
{4}8,8/7,4,4/3,
{4}2,6/5,4/3,6/5,
{4}1,2/1,1/8,2/1,
{4}8,7/8,4,3/4,
{4}1,1/2,5,5/6,
{4}7,4/3,6/5,4/3,
{8}8,,8/7,,1/8,,8/7,7,
{6},2h[6:1],6h[6:1],4h[6:1],8h[6:1],2,
{8}6,,1/4,,5/8,,3,1,
{8}1-6[8:1],,,2-5[8:1],,,,,
{8}8,,7,8,1,,2-6[8:1],2,
{8},,7-3[8:1],7,,1b,,,
{8}3,,8/5,,4/1,,6,8,
{8}8-3[8:1],,,7-4[8:1],,,8,8,
{8}8-5[8:1],,,,,,1,1,
{8}1-4[8:1],,,8b,,1b,,8,
{16}7,8/7,,,,,2,1/2,,,,,,,,,
{16}8,8/7,,,,,1,2/1,,,,,,,,,
{4}8/2h[4:3],1,3,4,
{4}1/7h[4:3],8,6,5,
{8}1,,1,2,8,,8,7,
{8}1,,2,1,8,,7,8,
{8}2,,8,1,7,,1,8,
{8}2,,1,3,7,,8,6,
{8}1,,1,3,2,,2,1,
{8}8,,8,6,7,,7,8^5[4:1],
{8},4^1[4:1],,,,,,,
{8},,,,6,7,8,1/2,
{8},8/1,,1/2-5[4:1],,,,,
{8},,,,3,2,1,7/8,
{8},1/8,,8/7-4[4:1],,,,,
{8},,,,1,8,7^4[4:1],,
{4},2^5[4:1],,7^4[4:1],
{4},2^5[4:1],,7,
{8}2,1,8,7,,7,8^5[4:1],1^4[4:1],{1},
{8}1h[4:1],,2,2,8h[4:1],,7,7,
{8}1h[4:1],,2,1,8h[4:1],,7,8,
{8}2h[4:1],,8,1,7h[4:1],,1,8,
{8}2h[4:1],,1,3,7h[4:1],,8,6,
{8}1h[4:1],,2,3,2h[4:1],,3,1,
{8}8h[4:1],,7,6,7h[4:1],,6,1^4[4:1],
{8},5^8[4:1],,,,,,,
{8},,,,1,8,7,5h[8:1]/6h[8:1],
{8},4h[8:1]/5h[8:1],,4h[8:3]/3h[8:3],,,,,
{8},,,,8,1,2,3h[8:1]/4h[8:1],
{8},4h[8:1]/5h[8:1],,5h[8:1]/6h[8:7],,5,5h[2:1],,
{4},,3,8,
{8}2^5[4:1],2,,,7^4[4:1],7,,,
{8}2^5[4:1],2,,,7^4[4:1],7,,,
{8}2^5[4:1],2,,,7^4[4:1],7,,,
{8},8/7,8b/1b,,2/1,8b/1b,,,
{8}5/1,,8/4,,2/6,,3/7,2,
{8}2-5[8:1],,,6-1[8:1],,,,,
{8}8,,7,1,8,,7,1h[8:3],
{8},,
{249}2,,,,,,,,,,,,,,,,,,,,,,,,,,,,,,,
{499}8h[2000:501],,,,,,,,,,,,,,,,,,,,,,,,,,,,,,,,,,,,,,,,,,,,,,,,,,,,,,,,,,,,,,,,,,,,,,,,,,,,,,,,,,,,,,,,,,,,,,,,,,,,,,,,,,,,,,,,,,,,,,,,,,,,,
{8}1b,,,
{8}4/8,,1/5,,3/7,,2/6,7,
{8}7-4[8:1],,,3-8[8:1],,,1,1,
{8}1-4[8:1],,,,,,8,8,
{8}8-5[8:1],,,1b,,8b,,1,
{16}7/8,1/7,,,,,2/1,2/8,,,,,,,,,
{16}8/7,1/8,,,,,1/2,1/8,
E
&inote_5=
(115.0){1},
{4}6^3[4:1],3^8[4:1],8^5[4:1],5^2[4:1],
{4}2^7[4:1],7^4[4:1],4^1[4:1],1^6[4:1],
{4}6^3[4:1],3^8[4:1],8^5[4:1],5^2[4:1],
{4}2^7[4:1],7^4[4:1],4,3b,
{16}5h[16:3],,,4,6,,,,4h[16:3],,,5,3,,,,
{16}6h[16:3],,,5,7,,,,6,,5,,4,,3,,
{16}2h[16:3],,,1,3,,,,7h[16:3],,,8,6,,,,
{16}1h[16:3],,,8,2,,,,1,,2,,3,,4,,
{16}5h[16:3],,,6,7,,7,,8h[16:3],,,1,2,,2,,
{16}2h[16:3],,,3,4,,4,,5,,6,,7,,8,,
{16}8h[16:3],,,7,6,,6,,5h[16:3],,,4,3,,3,,
{6},6b/1b,7b/4b,2b/5b,8b/3b,7b/2b,
{4}5-1[8:1],4-8[8:1],3h[4:1],4h[4:1],
{8}2h[8:3],,1,1^6[4:1],4,3,2,1,
{8}8^3[4:1],,6,7,8,,6-1[8:1],,
{8},,3-8[8:1],,,1b,,,
{4}4-8[8:1],5-1[8:1],6h[4:1],5h[4:1],
{8}7h[8:3],,8,8^3[4:1],,,6,7,
{8}8,,2,3,,,2-7[8:1],3-6[8:1],
{8},,,8^3[8:1],,6^1[8:1],,,
{16}2b,3b/8b,,,,,7b,1b/6b,,,,,,,,,
{16}1b,8b/4b,,,,,8b,5b/1b,,,,,,,,,
{4}1h[2:1],2,3h[2:1],4,
{4}8h[2:1],7,6h[4:1],5,
{16}1,,8,,7,,,,3h[16:3],,,5h[16:3],,,7,,
{16}8,,1,,2,,,,6h[16:3],,,4h[16:3],,,2,,
{16}1,,8,,7,,,,3h[16:3],,,5h[16:3],,,7,,
{8}8,1,2,,6h[4:1],,7,,
{16}8,,1,,2,,,,6h[16:3],,,4h[16:3],,,2,,
{16}1,,8,,7,,,,3h[16:3],,,5h[16:3],,,6^1[4:1],,
{8},,,3^8[4:1],,,,7^4[4:1],
{8},,,,2h[4:1],3,3h[4:1],4,
{16}4,,5,,6,,,,4h[16:3],,,2h[16:3],,,8,,
{8}1,2,3,,7h[4:1],6,6h[4:1],5,
{16}5,,4,,3,,,,5h[16:3],,,3h[16:3],,,1,,
{8}8,7,6,,5,4/5,4,3/4,
{8}3,2-5[8:1],,,7-4[8:1],,,1-6[8:1],
{8},1-4[8:1],,,7-4[8:1],,,2-5[8:1],
{8},8-3[8:1],,,8-5[8:1],,,,
{4}1-6[8:1],2-7[8:1],3-8[8:1],4b,
{16}6,,6h[16:5],,,,,7,7,,8,,1,,2,,
{16}3,,3h[4:1],,,,2,,4,3,4,,5,,5,,
{16}4,,3h[16:5],,,,,2,2,,1,,8,,7,,
{16}6,,6h[4:1],,,,7,,5,6,5,,4,3,4,,
{16}5,,5h[16:5],,,,,6,7,,7,,8,,8,,
{16}1,,1h[4:1],,,,2,,2,1,2,,3,,3-8[4:1],,
{8},,,6-1[4:1],,,,,
{16}8-4[8:1],,,8,,,6,,7,,8,,1,,,,
{16}1-5[8:1],,,1,,,3,,2,,1,,8,,,,
{16}8-4[8:1],,,8,,,6,,7,,8,,1,,,,
{16}1-5[8:1],,,1,,,3,,2h[4:1],,,,8,,,,
{4}1h[4:1],7h[4:1],3h[4:1],5h[4:1],
{16},,5/7,6,5,,,,4/2,3,4,,,,3,2,
{16},,3/1,2,3,,,,8/6,7,6,,,,5,6,
{16},,5-2[8:1],
{625}5,,,,,,,,,,,,,,,,,,,,,,,,,,,,,,,,,,,,,,,
{999}5,,,,,,,,,,,,,,,,,,,,,,,,,,,,,,,,,,,,,,,,,,,,,,,,,,,,,,,,,,,,,,,,,,,,,,,,,,,,,,,,,,,,,,,,,,,,,,,,,,,,,,,,,,,,,,,,,,,,,,,,,,,,,
{16}4-7[8:1],4,4,,6-1[8:1],6,6,,3-8[8:1],3,
{16},,
{993}1-5[8:1],,,,,,,,,,,,,,,,,,,,,,,,,,,,,,,,,,,,,,,,,,,,,,,,,,,,,,,,,,,,,,,,,,,,,,,,,,,,,,,,,,,,,,,,,,,,,,,,,,,,,,,,,,,,,,,,,,,,,,,,,,,,
{8}1b,,7-3[8:1],7b,,2b,
{4}4-8[8:1],5-1[8:1],6h[4:1],5h[4:1],
{8}7h[8:3],,8,8^3[4:1],5,6,7,8,
{8}1^6[4:1],,3,2,1,,3-8[8:1],,
{8},,6-1[8:1],,,8b,8b,,
{4}5-1[8:1],4-8[8:1],3h[4:1],4h[4:1],
{8}2h[8:3],,1,1^6[4:1],,,3,2,
{8}1,,7,6,,,7-2[8:1],6-3[8:1],
{8},,,1^6[8:1],,3^8[8:1],,,
{16}7b,5b/1b,,,,,2b,8b/4b,,,,,,,,,
{16}7b/8b,1b/4b,,,,,2b/1b,8b/5b,
E
