&title=Butter-Fly
&artist=和田光司 [cover]
&wholebpm=165.1
&lv_1=1
&lv_2=5
&lv_3=6
&lv_4=9
&lv_5=10
&des_4=ニャイン
&des_5=合作だよ
&inote_1=
(165.1){1},,,,,
{1}1,,
{1}1,,
{1}2,,
{1}2,,
{1}3,,
{1}3,,
{1}4,,
{1}4h[1:1],,
{1}5,,
{1}5,,
{1}6,,
{1}6h[1:1],,
{1}7,
{1}7,
{1}7h[1:1],,
{1}6,
{1}6,
{1}6h[1:1],,
{1}5,
{1}5b,
{1}4,
{1}4,
{1}3,
{1}3,
{1}2,
{1}2,
{1}1-4[4:3],,
{1}5,
{1}5,
{1}6,
{1}6,
{1}7,
{1}7,
{1}8-5[4:3],,
{1}4,
{1}4,
{1}3,
{1}3,
{1}2h[1:1],,
{1}1h[1:1],,
{1}8,
{1}1/8,
E
&inote_2=
(165.1){1},1h[1:1],,
{1}8h[1:1],,
{2}1,1,
{2}2,2,
{2}3,3,
{2}4,4,
{2}5,5,
{2}6,6,
{2}7,7,
{1}8b,
{4},7,,7,
{4},6,,6,
{4},7,,7,
{4},8,,8,
{4},1,,1,
{4},2,,2-7[2:1],{1},,
{4},6,,6,
{4},5,,5,
{4},4,,4,
{4},3,,3,
{4},2/1,,1/2,
{4},7/8,,8/7,
{1}6-3[2:1],,
{4}2,2,,,
{4}1,1,,,
{4}8,8,,,
{4}7,7,,,
{4}8,8,,,
{4}1,1,,,
{1}2h[8:3],
{1}3h[8:3],
{1}4-1[2:1]/5-8[2:1],,
{4}8,8,7,7,
{4}6,6,5,5,
{4}4,4,3,3,
{4}2,2,1,1,
{1}8-4[2:1],,
{4},3,,2,
{4},1,,8,
{4}1,1,2,2,
{4}3,3,4,4,
{4}5,5,6,6,
{4}7,7,8,8,
{1}1-5[2:1],,
{1}7h[4:3],
{1}6h[4:3],
{1}5-1[2:1],,
{1}2h[4:3],
{1}3h[8:3],
{1}8h[4:3],
{1}7h[8:3],
{1}8h[4:3],
{8}1,,,1,,,
{4}1h[1:1],{1},
{8}1,,,1b/8b,
E
&inote_3=
(165.1){1},1^8[2:1],,
{1}8^3[2:1],,
{4}3h[2:1],,,2,
{1}2h[8:3],
{4}3h[2:1],,,4,
{1}4h[8:3],
{4}7h[2:1],,,8,
{1}8h[8:3],
{1}1h[4:3],
{8}1/2,,,1/8,,,7b/8b,,
{4},2,,2,
{4},4,,4,
{4},1,,1,
{4},7,,7,
{4},1,,3,
{4},5,,7-3[2:1],{1},,
{4},4,,4,
{4},6,,6,
{4},3,,3,
{4},1,,1,
{4},2,,4,
{4},6,,8-4[2:1],{1},,
{4}6,6,
{2}7h[8:3],{1},
{4}8,8,7,7,
{4}6,6,5,5,
{4}4,4,
{2}3h[8:3],{1},
{8}5h[8:7],,,,,,,7h[8:7],{1},
{4}5,4,3,2,
{1}1b,
{4}8/1,3,4,6,
{4}8/7,5,4,2,
{4}8/1,3,4,6,
{4}8/7,5,3,1,
{8}8h[8:3],,,,,,1,1,
{8},,2,2,,,,,
{4}1,8,7,6,
{4}5,4,3,2,
{4}8/1,7,6/7,8,
{4}1/8,2,2/3,1,
{4}1/8,7,7/6,5,
{4}5/4,3,3/2,1,
{8}8h[8:3],,,,,,1,1,
{8},,2,2,,,,,
{1}3-7[2:1],
{1}5-1[2:1],
{4}2h[2:1],,,3,
{1}3h[8:3],
{4}1h[2:1],,,8,
{1}8h[8:3],
{4}7h[2:1],,,6,
{1}6h[8:3],
{1}8h[2:1],
{8}8/7,,,1/8,,,
{4}1h[4:3]/2h[4:3],{1},
{8}8,,,8b,
E
&inote_4=
(165.1){1},3h[1:1],
{8}7h[8:3],,,5h[8:3],,,,,
{1}6h[1:1],
{8}2h[8:3],,,8h[8:3],,,1b,,
{8}2h[8:3],,,5,5,6,7,,
{8}8h[8:3],,,1h[8:3],,,,,
{8}7h[8:3],,,4,4,3,2,,
{8}1h[8:3],,,8h[8:3],,,,,
{8}2h[8:3],,,5,5,6,7,,
{8}8h[8:3],,,1h[8:3],,,,,
{8}7h[8:3],,,4,4,3,2-6[4:1],,
{8},,,,,,,7,
{8}8,1,,3,3-8[8:1],,,7,
{8},5h[2:1]/6h[2:1],,,,,3,1,
{8},2,3,4,5h[4:1],,6,6,
{8},7h[8:3]/8h[8:3],,,,6,5,4,
{8}3,2h[2:1],,,,3,4,6h[4:1],
{8},4,3,2h[4:1],,4,5,6,
{1}7-2[4:1],
{8},,,,,,,1h[4:1],
{8},3,3h[4:1],,5,5h[4:1],,4h[4:1],
{8},2,2h[4:1],,8,8h[4:1],,2h[4:1],
{8},4,4h[4:1],,6,6h[4:1],,5h[4:1],
{8},3,3h[1562:393],,1,1h[8:3],,,
{8}6h[4:1],,5,5h[4:1],,6,7,1h[4:1],
{8},2,8,7h[4:1],,8,1,2,
{1}3-6[4:1],
{4},,,4-8[4:1],
{8},,3h[4:1],,1,1,,7h[4:3],
{8},,,,,6,5,4,
{8}3h[4:1],,1,1h[4:1],,3,4,5,
{8},6h[2:1],,,,5,5-1[4:1],,
{8},,6h[4:1],,8,8,,2h[8:5],
{4},,,8/1,
{8}7h[4:1],,8b,1h[4:1],,2,2b,1h[4:1],
{8},8,8b,7h[8:5],,,,,
{8}1h[4:1],,3,2,4,3,5,4,
{8}5h[4:1]/6h[4:1],,,,2b/1b,7b/8b,,,
{8}1/2h[4:1],,3,3h[4:1],,4,4h[4:1],,
{8}5h[4:1],,6,6h[4:1],,5,4,3,
{8}2h[4:1],,1,1h[4:1],,2,2,3,
{8}4h[4:1],,5,5h[4:1],,6,6,7,
{8}6h[4:1],,4,4h[4:1],,2,2,1/8,
{8},7,8/1,1/2,,,,,
{8}3h[4:1],,4,4h[4:1],,6,6,7h[4:1],
{8},1,8-4[8:1],,1,1b,,,
{8}8/7h[4:1],,6,6h[4:1],,5,5h[4:1],,
{8}4h[4:1],,3,3h[4:1],,4,5,6,
{8}7h[4:1],,8,8h[4:1],,7,7,6,
{8}5h[4:1],,4,4,1/2,3,5,7,
{8}8h[4:1],,6,6h[4:1],,4,4,2/1,
{8},3,6/5,7/8,,,,,
{4}1/2,8/1,8/7,6/7,
{4}5/6,4/5,3/4,2/3,
{8}3h[8:3],,,6,6,7,8,,
{8}1h[8:3],,,3h[8:3],,,,,
{8}2h[8:3],,,7,7,6,5,,
{8}4h[8:3],,,3h[8:3],,,,,
{8}5h[8:3],,,8,8,1,2,,
{8}3h[8:3],,,5h[8:3],,,,,
{8}1h[8:3],,,7,7,6,5,,
{8}4/8,,,1/5,,,
{4}6h[4:3]/2h[4:3],{1},
{8}7b/6b,8b/6b,6b/1b,6b/2b,
E
&inote_5=
(165.1){1},
{2}1h[2:1],7h[2:1],
{8}5h[8:3],,,3-7[8:1],,,,,
{2}8h[2:1],2h[2:1],
{8}4h[8:3],,,6-2[8:1],,,,,
{16}1h[8:3],,,,,,8,1,8,,7,,6-2[8:1],,,,
{8},,,1h[8:5],,,,,
{16}8h[8:3],,,,,,1,8,1,,2,,3-7[8:1],,,,
{8},,,8h[8:5],,,,,
{16}1h[8:3],,,,,,8,1,8,,7,,6-2[8:1],,,,
{8},,,1h[4:1],,2,3,4,
{16}5h[8:3],,,,,,6,5,6,,7,,8,,,,
{8}8-4[8:1],,,2-6[8:1],,,,8,
{8}1,2h[4:1],,8,7,8-3[8:1],,2-5[8:1],
{8},,,,,,2,1h[4:1],
{8},7,8,1,2,1-6[8:1],,7-4[8:1],
{8},,,,,1-6[8:1],8,7^4[8:1],
{8},,,,,8>5[8:1],7,6,
{8},1^6[8:1],2,3,,2,2,1,
{8}8h[4:1],,7,6,5,4,3,2h[4:1],
{8},1,2,3,4,5,6,7-4[8:1],
{8}8,1,,2-5[8:1],1,8,,7-3[8:1],
{8}8,1,,2-6[8:1],1,8,,5-1[8:1],
{8}6,7,,8-4[8:1],1,2,,4-8[8:1],
{8}3,2,,1-5[8:1],8,7,6,5,
{8}4,3h[2:1],,,,1-5[8:1],1,8,
{8}7,6-2[8:1],5,4,3-8[8:1],,,,
{8}7h[4:1],,8,1,2,3,4,6h[4:1],
{8},5,4,3,2,1,8b,,
{8}1-6[8:1],,,8-5[8:1],,,7-4[8:1],,
{8}8-3[8:1],,,1-4[8:1],,,2-5[8:1],,
{8}1-6[8:1],,,8-5[8:1],,,7-4[8:1],,
{8}8-3[8:1],,,1-4[8:1],,,2-5[8:1],,
{8}3^6[8:1],,,1^4[8:1],,,7^2[8:1],,
{8}5^3[8:1],,,8^5[8:1],,,2^7[8:1],,
{8},,6,5,,1/2,3,4,
{8},7/8,6,5,,7,8,1,
{8}2,3,4,5,6,7,
{641}8,,,,,,,,,,,,,,,,,,,,
{639}7,,,,,,,,,,,,,,,,,,,,6,,,,,,,,,,,,,,,,,,,,
{641}5,,,,,,,,,,,,,,,,,,,,4,,,,,,,,,,,,,,,,,,,,
{639}3,,,,,,,,,,,,,,,,,,,,2,,,,,,,,,,,,,,,,,,,,
{641}1,,,,,,,,,,,,,,,,,,,,
{8}8-4[8:1],,,,2-6[8:1],,,7,
{8}1h[8:3],,,3h[8:3],,,5>1[8:1],,
{8}8,,1,2h[2:1],,3,4,5h[8:5],
{8}6,,7^4[8:1],,,,2,1,
{8}8,6/7-3[8:1],,8,1,2,3,2h[2:1],
{8},,,1h[4:1],,5,6,8h[4:1],
{8},3,2,1,,,,1-5[8:1],
{8}5,7,8-4[8:1],4,2,1-5[8:1],5,8^3[8:1],
{8},7b,8b,,
{415}2b,,,,,,,,,,,,,,,,,,,,,,,,,,,,,,,,,,,,,,,,,,,,,,,,,,,,
{830}1b,,,,,,,,,,,,,,,,,,,,,,,,,,,,,,,,,,,,,,,,,,,,,,,,,,,,,,,,,,,,,,,,,,,,,,,,,,,,,,,,,,,,,,,,,,,,,,,,,,,,,,,,,,,,,,,,,,,,,,,,,,,,,,,,,,,,,,,,,,,,,,,,,,,,,,,,,,,,,,,,,,,,,,,,,,,,,,,,,,,,,,,,,,,,,,,,,,,,,,,,,,,,,,,,,,,,,,,,,,,,,,,,,,,,,,,,,,,,,,,,,,,,,,,,,,,,,,,,,,,,,,,,,,,,,,,,,,,,,,,,,,,,,,,,,,,,,,,,,,,,,,,,,,,,,,,
{965}8/1,,,,,,,,,,,,,,,,,,,,,,,,,,,,,,,,,,,,,,,,,,,,,,,,,,,,,,,,,,,,,,,,,,,,,,,,,,,,,,,,,,,,,,,,,,,,,,,,,,,,,,,,,,,,,,,,,,,,,,,,,,,,,,,,,,,,,,,,,,,,,,,,,,,,,,,,,,,,,,,,,,,,,,,,,,,,,,,,,,,,,,,,,,,,,,,,,,,,,,,,,,,,,,,,,,,,,,,,,,,,,,,,,,,,,,,,,,,,,,,,,,,,,,,,,,,,,,,,,,,,,,,,,,,,,,,,,,,,,,,,,,,,,,,,,,,,,,,,,,,,,,,,,,,,,,,,,,,,,,,,,,,,,,,,,,,,,,,,,,,,,,,,,,,,,,,,,,,,,,,,,,,,
{625}5h[625:233],,,,,,,,,,,,,,,,,,,,,,,,,,,,,,,,,,,,,,,,,,,,,,,,,,,,,,,,,,,,,,,,,,,,,,,,,,,,,,,,,,,,,,,,,,,,,,,,,,,,,,,,,,,,,,,,,,,,,,,,,,,,,,,,,,,,,,,,,,,,,,,,,,,,,,,,,,,,,,,,,,,,,,,,,,,,,,,,,,,,,,,,,,,,,,,,,,,,,,,,,,,,,,,,,,,,,,,,,,,,,,,,,,,,,,,,,
{4}3h[4:1],
{8}6h[4:1],,7,8h[2:1],,2,3,4h[2:1],
{8},,,,,,7,8,
{8}1,2,,8/1,2/7,6/3,1^4[8:1]/8^5[8:1],,
{8},,,4h[2:1],,5,6,7,
{8},4-1[4:1]/5-8[4:1],,,,,,,
{4}3^6[4:1],6^1[4:1],1^4[4:1],4^7[4:1],
{4}7^2[4:1],2^5[4:1],5-1[2:1],1b,
{16}8h[8:3],,,,,,7,8,1,,2,,3-7[8:1],,,,
{8},,,8h[8:5],,,,,
{16}1h[8:3],,,,,,2,1,8,,7,,6-2[8:1],,,,
{8},,,1h[8:5],,,,,
{16}8h[8:3],,,,,,7,8,1,,2,,3-7[8:1],,,,
{8},,,8h[8:5],,,,,
{16}1h[8:3],,,,,,2,1,8,,7,,6-2[8:1],,,,
{8}4-8[8:1],,,5-1[8:1],,,7-3[8:1],,
{2},2^5[8:1]/6^1[8:1],
{8}1b/5b,8b/4b,7b/3b,6b/2b,
E
