&title=記憶、記録
&artist=LOPIT(SEGA)
&wholebpm=185
&demo_seek=55
&demo_len=10.4
&lv_1=3
&lv_2=4
&lv_3=9
&lv_4=11
&lv_5=13+
&lv_6=14
&des_4=はっぴー
&des_5=ニャイン
&des_6=シチミヘルツ
&inote_1=(185.0){1},,,
{1}2,
{1}2,
{1}1,
{1}1,
{1}8,
{1}8,
{1}7,
{1}7,
{2}8,8,
{1}8,
{2}1,1,
{1}1,
{2}2,2,
{1}2,
{2}1,1,
{1}1b,
{4}8,8,,,
{4}7,7,,,
{4}6,6,,,
{4}5,5,,,
{1}4h[4:1],
{1}3h[4:1],
{1}2h[4:1],
{1}1b,
{1}8-4[2:1],,
{1}3-6[2:1],,
{1}7-2[2:1],,
{1}2h[4:3],
{2}2,1,
{1}8b,,
{1}7h[4:7],,
{1}7,
{1}7,
{1}8,
{1}8b,
{4}1,1,1,,
{4}2,2,2,,
{4}1,1,1,,
{4}8,8,8,,
{1}7h[2:1],
{1}6h[2:1],
{2}5,6,
{2}7,8b,
{4}1,1,1,,
{4}2,2,2,,
{4}3,3,3,,
{4}4,4,4,,
{1}5h[2:1],
{1}6h[2:1],
{2}7,7,
{2}8,8b,
{1}1-4[2:1],,
{1}8h[4:7],,
{1}8-5[2:1],,
{2}1,1,
{4}8,8,8b,,
{1}1,
{1}2,
{8}3,,,,,,,4h[1251:782],{1},
{1}3,
{1}2,
{993}1,,,,,,,,,,,,,,,,,,,,,,,,,,,,,,,,,,,,,,,,,,,,,,,,,,,,,,,,,,,,,,,,,,,,,,,,,,,,,,,,,,,,,,,,,,,,,,,,,,,,,,,,,,,,,,,,,,,,,,,,,,,,,,,,,,,,,,,,,,,,,,,,,,,,,,,,,,,,,,,,,,,,,,,,,,,,,,,,,,,,,,,,,,,,,,,,,,,,,,,,,,,,,,,,,,,,,,,,,,,,,,,,,,,,,,,,,,,,,,,,,,,,,,,,,,,,,,,,,,,,,,,,,,,,,,,,,,,,,,,,,,,,,,,,,,,,,,,,,,,,,,,,,,,,,,,,,,,,,,,,,,,,,,,,,,,,,,,,,,,,,,,,,,,,,,,,,,,,,,,,,,,,,,,,,,,,,,,,,,,,,,,,,,,,,,,,,,,,,,,,,,,,,,,,,,,,,,,,,,,,,,,,,,,,,,,,,,,,,,,,,,,,,,,,,,,,,,,,,,,,,,,,,,,,,,,,,,,,,,,,,,,,,,,,,,,,,,,,,,,,,,,,,,,,,,,,,,,,,,,,,,,,,,,,,,,,,,,,,,,,,,,,,,,,,,,,,,,,,,,,,,,,,,,,,,,,,,,,,,,,,,,,,,,,,,,,,,,,,,,,,,,,,,,,,,,,,,,,,,,,,,,,,,,,,,,,,,,,,,,,,,,,,,,,,,,,,,,,,,,,,,,,,,,,,,,,,,,,,,,,,,,,,,,,,,,,,,,,,,,,,,,,,,,,,,,,,,,,,,,,,,,,,,,,,,,,,,,,,,,,,,,,,,,,,,,,,,,,,,,,,,,,,,,,,,,,,,,,,,,,,,,,,,,,,,,,,,,,,,,,,,,,,,,,,,,,,,,,,,,,,,,,,,,,,,,,,,,,,,,,,,,,,,,,,,,,,,,,,,,,,,,,,,,,,8h[8:5],,,,,,,,,,,,,,,,,,,,,,,,,,,,,,,,,,,,,,,,,,,,,,,,,,,,,,,,,,,,,,,,,,,,,,,,,,,,,,,,,,,,,,,,,,,,,,,,,,,,,,,,,,,,,,,,,,,,,,,,,,,,{1},
{1}1,
{1}2,
{8}3,,,,,4h[8:7],,,{1},
{4}5,5,,,
{4}6,6,,,
{4}7,7,,8-5[2:1],,,,
E
&inote_2=(185.0){1},,,
{1}1,
{1}2,
{1}1,
{2}2,2b,
{1}2,
{1}3,
{1}2,
{2}3,3b,
{1}3,
{1}3,
{1}4h[2:1],
{4}5,5,5,,
{1}6,
{1}6,
{1}5h[2:1],
{4}4,4,4,,
{2}3,3,
{2}2,2,
{2}3,3,
{1}2h[2:1],
{4}1,1,1,,
{4}8,8,8,,
{4}7,7,7,,
{1}8h[2:1],
{1}1-5[4:3],,
{1}8-4[4:3],,
{1}2-7[4:3],,
{1}6-3[4:3],,
{1}4-1[4:3],,
{1}5-8[4:3],,
{1}3-8[4:3],,
{1}6-1[4:3],,
{2}8/7,8,
{2}1/8,1,
{2}2/1,1,
{1}1h[2:1]/8h[2:1],
{2}7,7,
{2}6,6,
{4}5,5,5,5,
{1}4h[2:1],
{2}4/3,4,
{2}4/5,5,
{2}6/5,5,
{1}5h[2:1]/4h[2:1],
{2}3,3,
{2}2,2,
{4}1,1,1,1,
{1}8h[2:1],
{2}1,2,
{2}1,8,
{1}1h[1:1],,
{2}8,7,
{2}8,1,
{2}8,1,
{4}8,8,1,1b,
{1}8h[2:1],
{1}8h[2:1],
{1}7h[1:1],,
{1}1h[2:1],
{1}1h[2:1],
{1}2h[1:1],,
{1}8h[2:1],
{1}8h[2:1],
{1}7h[2:1],,
{1}1h[2:1],
{1}1h[2:1],
{1}2h[2:1],
{4},,,1b,
E
&inote_3=(185.0){1},,
{4},,,4/5,
{4}3,1/8,7,5/4,
{4}6,8/1,2,5/4,
{4}3,1/8,7,5/4,
{4}6/2,7/3,6/2,8/1,
{4}6,8/1,2,5/4,
{4}3,1/8,7,5/4,
{4}6,8/1,2,5/4,
{4}7/3,6/2,7/3,8/1,
{4}2h[4:1],1,8h[4:1],1,
{4}2h[4:1],1,8h[4:1],1,
{4}2h[4:1],1,8h[4:1],1,
{4}6/2,7/3,6/2,8/1,
{4}7h[4:1],8,1h[4:1],8,
{4}7h[4:1],8,1h[4:1],8,
{4}7h[4:1],8,1h[4:1],8,
{4}7/3,6/2,7/3,8/1,
{4}3h[4:1],5,6h[4:1],4,
{4}3h[4:1],5,6h[4:1],4,
{4}3h[4:1],5,6h[4:1],4,
{4}6/2,7/3,6/2,8/1,
{4}4h[4:1],3,5h[4:1],6,
{4}4h[4:1],3,5h[4:1],6,
{4}4h[4:1],3,5h[4:5],6h[1:1],{1},
{4}1,1/8,7,7/2,
{4}3,3/6,5,5/4,
{4}4,4/5,6,6/3,
{4}2,2/7,8,8/1,
{4}7,7/8,1,1/6,
{4}5,5/2,3,3/4,
{4}6,6/5,4,4/7,
{4}8,8/3,2,1^6[4:3]/2^5[4:3],{1},
{4},,5,5,
{8}6h[8:3],,,3h[8:3],,,6h[8:3],,
{8},3h[8:3],,,4,,4,,
{8}2h[8:3],,,7h[8:3],,,2h[8:3],,
{8},7h[8:3],,,1,,1,,
{8}7h[8:3],,,2h[8:3],,,7h[8:3],,
{8},2h[8:3],,,8,,8,,
{8}1,1,,7,7,,1,1,
{8},7,7,,1,2,,,
{8}8,8,,2,2,,8,8,
{8},2,2,,8,7,,,
{4}6,6,5/7,7/5,
{4}3,3,4/2,4/2,
{4}5,6/3,5/2,6/3,
{4}1/7,,1,1,
{8}7,7,,8,8,,1,1,
{8},2,2,,8,1,,,
{8}2,2,,1,1,,8,8,
{8},7,7,,1,8,,,
{4}4,4,3/6,3/6,
{4}5,5,3/6,3/6,
{4}4,3/6,5,6/3,
{4}8/1,,4/5,4/5,
{8}6/2,,,3/7,,,2/6,,
{8},3/7,,,2/6,,3/4,,
{1}7^4[4:3]/8^3[4:3],
{4},,4/5,4/5,
{8}3/7,,,2/6,,,3/7,,
{8},6/2,,,1/8,,8/1,,
{2}1,1,
{8}8,,8,,1b,1b,1b,1b,
{4}8,2/3,4,7/6,
{4}5,2/3,1,6/7,
{4}8,3/2,4,6/7,
{4}6/2,7/3,6/2,8/1,
{4}1,7/6,5,2/3,
{4}4,7/6,8,3/2,
{4}1,6/7,5,3/2,
{4}3/7,6/2,7/3,8/1,
{4}8,2/3,4,7/6,
{4}5,2/3,1,6/7,
{4}3/2,4,6/7,6/2,
{4}7/3,2/6,8/1,,
{4}1b,7/6,5,2/3,
{4}4,7/6,8,3/2,
{4}6/7,5,2/3,3/7,
{4}6/2,7/3,1/8,6/3,
E
&inote_4=(185.0){1},,,
{4}3,4/3,6,6/5,
{4}3,4/2,6,7/5,
{4}3,4/3,6,5/6,
{4}3,3,3,4b/2b,
{4}6,6/5,3,4/3,
{4}6,7/5,3,4/2,
{4}6,5/6,3,4/3,
{4}6,6,6,7b/5b,
{4}2,1,2,3/8,
{4}7,8,7,6/1,
{4}3,4,3,2/5,
{4}6/4,3/5,6/4,3/5,
{4}6,5,6,7/4,
{4}3,4,3,2/5,
{4}7,8,7,6/1,
{4}2/8,7/1,8/2,7/1,
{4}8,7,1/6,2/4,
{4}1,2,8/3,7/5,
{4}8,7,1/6,2/4,
{4}5/3,7/4,2/5,7/4,
{4}1,2,8/3,7/5,
{4}8,7/5,8,7,
{4}1/6,8,7,1b/6b,
{4}8,7,5^2[8:1],,
{8}1,2,3,4/3,,4,3,2/1,
{8},8,7,6/5,,5,6,7/8,
{8},6,5,4/3,,3,4,5,
{8}6,7^4[4:1],,,,,,,
{8}2,2/3,3,3/4,,7/6,6,6/5,
{8},1/2,2,2/3,,8/7,7,7/6,
{8},2/1,1,1/8,,8/7,8,8/1,
{4}1h[4:1],8h[4:1],7h[4:1],6,
{8}8/7,,,1/2,,,5/6,,
{8},3/4,,,4/5,,,,
{8}6/8,,
{999}2,,,,,,,,,,,,,,,,,,,,,,,,,,,,,,,,,,,,,,,,,,,,,,,,,,,,,,,,,,,,,,,,,,,,,,,,,,,,,,,,,,,,,,,,,,,,,,,,,,,,,,,,,,,,,,,,,,,,,,,,,,,,,
{8}1/3,,7,6/8,,
{8}3,2/4,,6,5/7,,4/5,,
{8}1/6,,1/2,3/8,,8/7,1/6,,
{8}4/3,2/5,,6/5,4/7,,4/5,,
{8}4/3,,2,1,8,7,6,5,
{8}4,3,2,1,8b/1b,,7,,
{8}8,8h[4:1],,1,1h[4:1],,2,2h[4:1],
{8},3,3h[4:1],,4^7[8:1],,,,
{8}1,1h[4:1],,8,8h[4:1],,7,7h[4:1],
{8},6,6h[4:1],,5^2[8:1],,,,
{8}7,6,5,6,7,6,,3,
{8}2,3,4,3,2,3,,1,
{8}8,7,6,5,4,3>6[4:1],,,
{4},,6,7/3,
{4}1,2/8,7,8/6,
{4}2,1/3,5,4/6,
{4}2,8/3,7,1/6,
{4}4,2/5,6,7/4,
{4}6/5,6/5,7h[4:1]/4h[4:1],,
{4}4/3,4/3,2h[4:1]/5h[4:1],,
{4}4,2/3,5,6-1[8:1]/7-4[8:1],
{4},,4h[4:1],6h[4:1],
{8}8h[8:3],,,1h[8:3],,,7h[8:3],,
{8},5h[8:3],,,3h[4:1],,1,,
{4}6,8/7,3,1/2,
{4}6,7/8,3,1/2,
{4}4,6/8,5,1/3,
{4}4,6/8,5,3/1,
{2}7h[4:1]/8h[4:1],1h[4:1]/2h[4:1],
{8}7/8,,2/1,,7b,8b,1b,2b,
{4}3-8[8:1],,1,4/3,
{4}6-1[8:1],,8,6/5,
{4}2-5[8:1],,4,2/1,
{2}7-4[8:1],2-5[8:1],
{4}8-4[8:1],,1,2/4,
{4}1-5[8:1],,8,5/7,
{4}8-4[8:1],,1,4/2,
{2}1-5[8:1],8-4[8:1],
{4}1-6[8:1],,8,5/7,
{4}8-3[8:1],1,2/4,1-5[8:1],
{4}7,2/4,4-8[8:1],,
{1}5-1[8:1],
{4}1,2,3,4/3,
{4}4,5,5/6,6,
{4}7,7/8,1,5/3,
{4}6/4,5/3,
{8}1-5[8:1],,,,
E
&inote_5=(185.0){1},,
{4}1,1,1b,3-8[8:1],
{8}7,6,5/4,,7,8,1/2,,
{8}8,7,6/5,,3,4,6/5,,
{8}7,6,5/4,,8,1,3/2,4h[4:1],
{8},5,7/6,1,8/7,6,8/1,2,
{8}8,7,6/5,4,3,2,8/1,6,
{8}6,4,4/3,5,7,1,3/2,1,
{8}8,7,6/5,4,3,2,8/1,7h[4:1],
{8},6,8b/1b,2,8b/1b,7,8b/1b,2,
{8}3-8[8:1],,1,1-5[8:1],,8,6,4,
{8}2^5[8:1],,8,1^6[8:1],,3,2,1,
{8}8-4[8:1],,7,7-3[8:1],,4,5,6h[4:1],
{8},7,7,8,8,1,1,2,
{8}3-7[8:1],,1,1-5[8:1],,6,4,2,
{8}1-5[8:1],,7,7-3[8:1],,4,6,8,
{8}1-5[8:1],,4,4-8[8:1],,7,1,3h[4:1],
{8},2,2,1,1,8,8,7,
{8}6-2[8:1],6,2,3,4-8[8:1],4,8,7,
{8}5-1[8:1],5,1,2,3-7[8:1],3,7,6,
{8}5-8[8:1],5,8,2,1-5[8:1],1,8,8-3[8:1],
{8},1-6[8:1],,7-4[8:1],,2-5[8:1],,8b,
{8}1,1,4/3,,8/1,1/8,,7,
{8}7,5,5,3h[4:1],,4,4,6,
{8}6,8h[4:1],,5,4,3,2,2h[4:1],
{8},3b,4b,5b,6b,7b,8b,,
{8}2-6[8:1],,3,3-7[8:1],,8,8-4[8:1],,
{8}6-2[8:1],,5,5-1[8:1],,2,2-6[8:1],,
{8}8-4[8:1],,7,7-3[8:1],,6,6-2[8:1],,
{8}1-5[8:1],,2,2-6[8:1],,3,3-7[8:1],,
{8}1-5[8:1],,8b,8-4[8:1],,7b,7-4[8:1],,
{8}1-5[8:1],,2b,2-6[8:1],,3b,3-7[8:1],,
{8}8-4[8:1],,6b,6-1[8:1],,1,2b,,
{4}4b/3b,6b/5b,7b/8b,1^6[2:1]/2^5[2:1],{1},,
{8}7h[8:3],,,5h[8:3],,,3h[8:3],,
{8},1h[8:3],,,8b,,8b,,
{8}2h[8:3],,,4h[8:3],,,6h[8:3],,
{8},8h[8:3],,,1b,,1b,,
{8}8/7,7/8,7/6,7/6,6/5,6/5,5/4,5/4,
{8}2b/1b,4b/3b,6b/5b,8b/7b,2b/1b,,8b/7-4[8:1],,
{8}1b,2-6[8:1],,1,8-4[8:1],,1,1-5[8:1],
{8},2,2-6[8:1],,8,8b,5/6-1[8:1],,
{8}2b,2-6[8:1],,1,1-5[8:1],,8,8-4[8:1],
{8},3,3-7[8:1],,8b,8b,,,
{8}1,2,3,4,5,5h[4:1],,3,
{8}3,2,1,8,7,7h[4:1],,8,
{8}8,2,2,4,4,7,5,6,
{8}4,5,3,4,2,3,4-8[8:1],,
{8}8b,1-5[8:1],,7,7-3[8:1],,5,5-1[10000:1273],
{8},3,3-7[8:1],,1,1b,8/7-4[8:1],,
{8}1b,1-6[8:1],,3,3-7[8:1],,5,5-2[8:1],
{8},1,1-5[8:1],,8b,8b,,,
{8}1,2,3,4,5,5h[4:1],,3,
{8}3,2,1,8,7,7h[4:1],,8,
{8}8,2,2,4,4,7,5,6,
{8}4,5,3,4,2,3,4-8[8:1],,
{8}8b,1-5[8:1],,7b,7-3[8:1],,5b,5-1[10000:1273],
{8},3b,3-7[8:1],,1b,,
{4}1-4[2:1]/8-5[2:1],{1},
{16},,,,,,,,8,7,6,5,4,3,2,1,
{8}8-4[8:1],,1b,1h[4:1],,2b,2-6[8:1],,
{8}3b,3h[4:1],,,1b/2b,,8b/7b,,
{4}8/6-1[8:1],2b,2/4-8[8:1],7b,
{8}6/5,,4/3,,6b/5b,7b/6b,8b/7b,1b/8b,
{8}7,6,5/4,6,7,8,1/2,3,
{8}8,7,6/5,4,3,4,6/5,7,
{8}7,6,4/5,6,8,1,3/2,4h[4:1],
{8},5,6/7,1,8/7,6,8/1,2,
{8}8,7,6/5,4,3,2,8/1,6,
{8}6,4,4/3,5,7,1,3/2,1,
{8}8,7,5/6,4,3,2,1/8,7h[4:1],
{8},6,8b/1b,2,8b/1b,7,1b/8b,2,
{8}8,7,5/6,4,3,2,8/1,6,
{8}6,4,3/4,5,7,1,2/3,1,
{8}8,7,5/6,8,1,2h[4:1],,1,
{8}8/7,6,5/4,1b/2b,,,,,
{8}1,2,3/4,5,6,7,1/8,3,
{8}3,5,6/5,4,2,8,7/6,8,
{8}1,2,4/3,1,8,7h[4:1],,8,
{8}1/2,3,5/4,6b/7b,8b/7b,1b/8b,2h[8:3]/1h[8:3],,,,
E
&inote_6=(185){1},
{1},
{16}7,,,,7,,,,7,,3b/6b,2b/7b,1b/8b,,,,
{8}8,2,5,7,2/8,1,3,5/6,
{8},2,8,6,5,8,3,2/5,
{8}4,8,3,5,7,4,8,7/8,
{16},,1,,2/5,,8,,5/7,,1/6,,3,5,2,5,
{8}1,7,4,2,1/6,8,5,3/4,
{8},6,5/7,4,3,1,6,4/7,
{8}5,1,6,4,2,5,1,1b/2b,
{16},,8,,4b/7b,,1,,2b/4b,,3b/8b,,6,5,6,5,
{8}7b<4[8:1],,3,3h[4:1],,2,2<7[8:1],,
{8}3-8[8:1],,6,4,,1,1/7,,
{8}3/4,2,2>5[8:1],,6,6,6,6/7>2[8:1],
{8},5,4,,8,4-8[8:1]/7,,,
{8}2>5[8:1],,6,6h[4:1],,7,7>2[8:1],,
{8}6-1[8:1],,3,5,,8,2/8,,
{8}5/6,7,7<4[8:1],,3,3,3,2<7[8:1]/3,
{8},4,5,,3/5,1/7,,,
{8}1-5[8:1]/2,8,7,6,4,3-7[8:1],,1,
{8}8,6,5,4-8[8:1],,1,1,,
{8}1/8,1/8,4/5,1/8,4/5,1/8-4[8:1],,6-2[8:1],
{8},3-7[8:1],3,1-5[8:1],1,8,8,,
{8}4/6,4/6,2/4,,1/6,3/8,,2/5,
{8}1/4,3/8,2/7,1/6,,2/4,1/3,2/8,
{8}1/7,6/8,,2/3,1/2,1/8,7/8,6/7,
{8},3b,4b,5b,6b,7b,8b,,
{16}1/7h[8:3],,,,5,4,3<6[8:3],,,,5,,5,,,,
{16}7h[8:3],,,,1,2,3>8[8:3],,,,1,,1,,,,
{16}7h[8:3],,,,6,5,4>1[8:3],,,,5,,5,,5,,
{16}5,,2/5,,3/6,,4-1[8:1]/7,,,,8,7,6,,,,
{16}2h[8:3]/5,,,,4b,5,6>3[8:3],,,,4,,4b,,,,
{16}2h[8:3],,,,8b,7,6<1[8:3],,,,8,,8b,,,,
{16}2h[8:3],,,,3b,4,5-8[8:1],,,,1b,,1b,,1b,,
{8}2/5b,3,2/7b,3,1b/2,3,2/7b,3,
{1}1b>4[8:7]/5b<8[8:7],
{12},,,,,,6,5,6,3,4,3,
{1}4>1[8:7]/8b<5[8:7],
{12},,,,,,2,4,3,7,5,6,
{1}1b>4[8:7]/5<8[8:7],
{12},,,,,,7,5,6,2,4,3,
{8}4/5,,1/2,1/2,3/4,3/4,5/6,5/6,
{8}7b/8b,5b/6b,3b/4b,1b/2b,7b/8b,,4/5-1[8:1],,
{8}8b,8<5[8:1],,3,3-6[8:1],,1,1>4[8:1],
{8},1,1-5[8:1],,8,8b,7-3[8:1],,
{8}1,1>4[8:1],,6,6-3[8:1],,8,8<5[8:1],
{8},8,8-4[8:1],,1b,1b,,,
{8}2,8,6,4,1,1h[4:1],,2,
{8}2,4,6,2,8,7h[4:1],,8,
{8}1/6,2,3/5,8,4/7,6<1[8:1],1>4[8:1],6b,
{4},,3/6,4/5-8[8:1],
{8}3b,2>5[8:1],,1,8-4[8:1],,7,6<1[8:1],
{8},6,6-2[8:1],,1-4[8:1],1b,1-5[8:1]/8,,
{8}7,6<1[8:1],,5,4-8[8:1],,3,2>5[8:1],
{8},2,2-6[8:1],,8b,8b,,,
{8}1,2,1,7,5,3h[4:1],,2,
{8}8,6,8,1,4,2h[4:1],,1,
{8}3/8,7,4/6,1,2/5,3>8[8:1],8<5[8:1],3b,
{4},,1-5[8:1]/8,6,
{8}4b/5h[4:1],,3h[8:3],2b,,1h[8:3],8b,,
{8}7h[8:3],6b,,5,3/4b,,1-4[4:1]/2b,,
{4}4b-8[4:1],8-5[4:1],5-1[4:1],1>4[4:1],
{16}4<7[8:1],,,,8h[16:7],,,,1,2,3,4,1/5,2/6,3/7,4/8,
{8}1b/5b,,3/4,1/7,,5/6,2/8,,
{16}3/4,,1b/7h[8:3],,,,,,1,6,2,5,3-7[8:1],4,3,4,
{64}3b,,,,,,,,,,,,,,,,,,,,,,,,,,,,,,,,7b,6/8,1/5,2/4,3,,,,,,,,,,,,,,,,,,,,,,,,,,,,
{8}1b-6[8:1]/2b-5[8:1],,1b/2b,,3b/4b,2b/3b,1b/2b,1b/8b,
{16}7,,6,,4/5,,6,,7,7,1,,1/3,,3,,
{16}3/4,,2,,1,,8,,3,3,7,,5/6,,4,,
{16}8,,1,,1/2,,8,,6,6,2,,3,,4h[4:1]/5,,
{16},,3,,2/3,,8,,1/2,,3,,1/8,7,6,5,
{16}2/4,,5,,3/4,,2,,1,1,3,,4,,5,,
{16}6,,7,,7/8,,1,,2,2,3,,4,,6,,
{16}7,,8,,1/3,,2,,8,8,7,,6,,4/5h[4:1],,
{16},,6,,6b/7b,,1,,7b/8b,,6,,1b/8b,2,3,4,
{16}5/8,,7,,4/6,,7,,6,6,5,,1,,2,,
{16}5,,6,,5/7,,8,,2,2,1,,6,6,5,,
{16}1/7,,2/8,,3,3,4,,6,,4/7,,,,1/6,,
{8}2/5,1/4,2/5,7b/8b,,,,,
{16}1/8,,2,5,3,,7,,2/8,8,3,,1,,4,,
{16}5/6,,7,5,8,,3,,4/7,4,6,,8,7,8,,
{8}5,7,1/2,4/5,7/8,2b/5b,,5b/6b,
{16}7b,,1b/8b,,2b,,3/4,4/5,5/6,,7/8,,1b/2b,,,,
{1},
{1},
{1},
E
