&title=裏表ラバーズ
&artist=wowaka
&wholebpm=159
&demo_seek=78.4
&demo_len=12.9
&lv_1=2
&lv_2=6
&lv_3=8
&lv_4=12+
&lv_5=13+
&des_4=譜面-100号
&des_5=はっぴー
&inote_1=(159.0){1},,,,
{1}1,,
{1}8,,
{1}1,,
{1}8,,
{1}1,
{1}1,
{1}2,,
{1}8,
{1}8,
{1}7,,
{1}1,
{1}2,
{1}3,
{1}4,
{1}5,
{1}6,
{1}7,
{1}8b,
{1}1h[2:1],
{1}8h[2:1],
{1}1h[2:1],
{1}8h[2:1],
{1}1,
{1}2,
{1}3,
{1}4,
{1}5-8[2:1],,
{1}1-4[2:1],,
{1}6-3[2:1],,
{1}2-7[2:1],,
{2}8,8,
{1}8,
{2}7,7,
{1}7,
{1}8,
{1}1,
{2}2,2,
{1}2b,
{2}1,1,
{2}8,8,
{2}7,7,
{2}6,6,
{2}7,7,
{2}8,8,
{2}1,1,
{2}2,2,
{1}3-6[2:1],,
{1}7,
{1}8b,
{4}1,1,,,
{4}8,8,,,
{4}7,7,,,
{2}6,5,
{4}6,6,,,
{4}7,7,,,
{4}8,8,,,
{2}1,8,
{1}1b,
E
&inote_2=(159.0){1},,,,
{2}2,2,
{2}1,1,
{2}2,2,
{1}1-4[4:1],
{2}6,6,
{2}5,5,
{2}6,6,
{1}5-8[4:1],
{4}2,2,,2,
{4},2,,2,
{4},3,,4,
{4},5,,6,
{4}7,7,,7,
{4},7,,7,
{4},6,,5,
{4},4,,3,
{4}2,2,,2,
{4},1,,1,
{1}1h[2:1],
{4}8,8,8,,
{4}7,7,,7,
{4},6,,6,
{4}7,7,8,8,
{1}1h[4:3],
{2}1,1,
{2}8,8,
{2}2,2,
{2}7,7,
{2}1,2/1,
{2}8,8/7,
{2}6,5/6,
{2}3,4b/3b,
{4}5,5,,5,
{4},6,,6,
{4},4,,4,
{4},3,,3,
{4}2,2,,2,
{4},1,,1,
{4}8,8,1,1,
{4}8,8,1h[2:1],,
{4},1,,2,
{4},3,,4,
{4},6/5,,4/5,
{4},4/3,3,3,
{2}3/2,1/8,
{2}7/6,5/4,
{4}4,4,5,5,
{1}3h[2:1]/6h[2:1],
{4}5,5,6,,
{4}4,4,3,,
{4}5,4,5,,
{1}4-1[4:1],
{4}7,7,7/8,,
{4}2,2,2/1,,
{4}8,1,8/1,,
{1}1-4[4:1],
{4},5,,4,
{4},3,,2,
{4},1,,8,
{4}7,7,7,7b,
{4}8/7,8/7,8/7,,
{4}6/5,6/5,6/5,,
{4}4/3,4/3,4/3,,
{1}2-6[4:1],
{4}8/7,8/7,8/7,,
{4}2/1,2/1,2/1,,
{4}4/3,4/3,4/3,,
{4}5,6,7,8,
{1}8b/1b,
E
&inote_3=(159.0){1},
{2}3,2,
{1}1b,
{4},,1/8,1/8,
{4}1,1,3,3,
{4}8,8,6,6,
{4}2,2,4,4,
{4}7,7,5h[4:1],,
{4}1,2,3,4,
{4}8,7,6,5,
{4}2,1,8,7,
{4}8,1,2h[4:1],,
{4}1,1h[4:1],,8,
{4}2,2h[4:1],,3,
{4}7,7h[4:1],,6,
{4}4,5,4,4/5,
{4}2,1h[4:1],,8,
{4}7,8h[4:1],,1,
{4}5,4,3,2,
{2}1-5[16:3],8-4[16:3],
{4}2,1/2,7,7/8,
{4}8/1,2/7,6/3,5h[1:1]/4h[1:1],{1},
{4}2,7,1,8,
{4}3,4h[4:1],,5/6,
{4}6,5h[4:1],,3/4,
{4}3,1/8,6,1/8,
{1}1h[4:3]/8h[4:3],
{4}2,2,2-6[16:3],,
{4}7,7,7-3[16:3],,
{4}4,4,4-1[16:3],,
{4}8,8,8-5[16:3],,
{4}3,4/2,3,,
{4}7,6/8,7,,
{4}6,5/7,6,,
{4}2,1/3,2,,
{4}2,3,4,5,
{4}8,7,6,5,
{4}7,8,1,2,
{4}5,4,3,2,
{1}2-6[4:1],
{1}5-1[4:1],
{4}2,2,5,5,
{4}4,4,7b,,
{4}2/1,8/1,7/8,,
{4}6/5,4/5,
{832}4/3,,,,,,,,,,,,,,,,,,,,,,,,,,,,,,,,,,,,,,,,,,,,,,,,,,,,,,,,,,,,,,,,,,,,,,,,,,,,,,,,,,,,,,,,,,,,,,,,,,,,,,,,,,,,,,,,,,,,,,,,,,,,,,,,,,,,,,,,,,,,,,,,,,,,,,,,,,,,,,,,,,,,,,,,,,,,,,,,,,,,,,,,,,,,,,,,,,,,,,,,,,,,,,,
{625}3h[1667:1669],,,,,,,,,,,,,,,,,,,,,,,,,,,,,,,,,,,,,,,,,,,,,,,,,,,,,,,,,,,,,,,,,,,,,,,,,,,,,,,,,,,,,,,,,,,,,,,,,,,,,,,,,,,,,,,,,,,,,,,,,,,,,,,,,,,,,,,,,,,,,,,,,,,,,,,,,,,,,{1},
{4}6,7,8,1,
{2}1h[2:1],5h[2:1],
{4}3,7,3,7,
{4}7/3,2/6,1/5,8/4,
{4}1,1,2-6[16:3],,
{4}8,8,7,5/6,
{4}1,1,2,3/4,
{4}7,2,7/8,1/2,
{2}8h[4:1]/1h[4:1],1-5[16:3],
{4}7,6,5,3/4,
{4}2,3,4,6/5,
{4}7,8,1,2,
{4}2/1,1/8,8/7,1/8,
{1}2b/1b,
{1}2-7[4:1],
{1}6-3[4:1],
{4}1,3,5,7b,
{2}2-7[8:1],6-3[8:1],
{2}2-7[8:1],6-3[8:1],
{2}1-4[8:1],5-8[8:1],
{4}1^4[8:1],,8b,8b,
{2}2-5[8:1],6-1[8:1],
{2}2^5[8:1],1^6[8:1],
{2}3-6[8:1],7-2[8:1],
{4}3,4,5,3/6,
{1}1b/8b,
E
&inote_4=(159.0){1},
{2}4h[4:1],4h[4:1],
{1}4-1[4:5],,
{8}1,,6,3,4,3,6,,
{8}8,,3,6,5,6,3,,
{8}1,,6,3,4,3,6,,
{8}8,,3,6,5,8b,8b,,
{8}4,7,3,5,6,5,3,,
{8}5,2,6,4,3,4,6,,
{8}4,7,3,5,6,5,3,,
{8}5,2,6,4,5,8b,8b,,
{8}7,8,4,4,2,1,5,5,
{8},7,2,7,6,8,1,3,
{8}1,7,6,6,8,2,3,3,
{8}2,5,5,4,7,4,4,5,
{8}3,7,2,6,1,5,4,8,
{16},,7h[16:3],,,8h[16:3],,,1h[16:3],,,2h[16:3],,,1,,
{8}8,2,4,4,1,7,5,5,
{8}8,1,8,1,7,8,2,1,
{8}7,4,7,4,7,1,4/1,,
{8}2,5,2,5,2,8,5/8,5-1[8:5],{1},
{4}2/5,5/6,4/7,4/3,
{8}1,6,1,6,1,6,5,4,
{8},3,8,3,4,3,2,1,
{4}8/7,8/3,2/1,1/6,
{4}8-3[8:1],2-6[8:1],7-4[8:1],1b,
{8}6,4,3,4,6,8,8,,
{8}3,5,6,5,3,1,1,,
{8}6,4,3,4,6,8,8,,
{8}3,5,7,4,3,1b,1b,,
{8}2,7,8,6,4,2,2/3,,
{8}7,2,1,3,5,7,6/7,,
{8}2,7,8,6,4,2,2/3,,
{8}7,2,8,3,6,1b,8b/1b,,
{8}7,2,3,7,6,2,3,7,
{8}6,7,3,2,6,7,6,3,
{8}4,3,6,5,3,4,5,6,
{8}3,4,3,6,5,6,4,,
{8}1,2,8,7,1,2,1,8,
{8}2,1,7,8,2,8,7,,
{16}1,1,,7,7,,2,2,,8,8,,2,2,,7,
{16}7,,1,1,8,8,2^7[4:1],,,,,,,,,,
{16}8,,1,,2,,3,3,,4,4,,5,,,,
{16}1,,8,,7,,6,6,,5,5,,4,,3,3,
{16},4,,,7,7,,6,,,1,1,,2,,,
{8}8,7,8,1,2,1,3/6,,
{16}4,,3,3,3,,2,2,2,,1,1,1,,8,8,
{16}8,,7,7,7,,6,6,6,,5,,5,,4,,
{4}4,6,8,2,
{8}4b,6b,8b,2b,4h[4:1],,8b,,
{8}2,6,4,3,4,6,2,,
{8}7,3,5,6,5,3,7,,
{8}2,6,4,3,4,6,2,,
{8}7,3,5,6,3,1,8,6,
{8}7,3,5,6,5,3,7,,
{8}2,6,4,3,4,6,2,,
{8}7,3,5,6,5,3,7,,
{4}2b/1b,7b/6b,3b/4b,1b/8b,
{4}6/5h[2:1],3,6,8/1,
{4}3/4h[2:1],6,3,8/1,
{4}6/5h[2:1],3,6,8/1,
{4}4-7[8:1],6-2[8:1],3-8[8:1],1b,
{8}2,6,8,5,4,1,3b,,
{8}7,3,1,4,5,8,6b,,
{8}2,6,8,5,4,1,3b,,
{8}7,3,1,4,8b,5,1b,4,
{8}6,2,4,1,8,5,7b,,
{8}3,7,5,8,1,4,2b,,
{8}6,2,4,1,8,5,7b,,
{4}8b/2b,5b/3b,7b/1b,4b/6b,
{1}8b/1b,
E
&inote_5=(159.0){1},
{2}3,6,
{1}1b,
{8},,,,6,6,6,6,
{16}1,,2,,3,4,3,,5/6,,7,,6,,,,
{16}8,,7,,6,5,6,,4/3,,2,,3,,,,
{16}1,,2,,3,4,3,,5/6,,8,,6/7,,,,
{16}8,,7,,6,5,6,,4/3,,1,,3/2,,,,
{16}1,,2,,6,5,6,,3-7[8:1],,4,,,,,,
{16}8,,7,,3,4,3,,6-2[8:1],,5,,,,,,
{16}1,,2,,6,5,6,,4-8[8:1],,3,,,,,,
{16}8,,7,,3,4,3,,5,,6,,1b,,,,
{16}2,,1,,4,,6,5,,5,6,,6/5,,,,
{16}7,,8,,5,,3,4,,4,3,,3/4,,,,
{16}2,,1,,4,,6,5,,5,6,,7/4,,,,
{16}7,,8,,5,,3,4,,4,3,,2/5,,1,,
{16}8,,7,,6,,2,1,,1,2,,3/4,,,,
{16}1,,2,,3,,7,8,,8,7,,6/5,,,,
{16}8,,7,,6,,2,1,,1,2,,4,,5,,
{16}7,,7,,2,1,2,,6,5,6,5,7,5,6,,
{16}3,4,3,4,3,,7,8,7,8,7,,2,1,2,1,
{16}2,,6,5,6,5,6,,3/4,,2,1,8,7^2[16:5],6h[8:7],,
{8},,,,,5,5-1[8:1],,
{4}3-8[8:1],6-1[8:1],4-8[8:1],,
{16}2,,3,,4,,7,8,,8,6,,5,,4,,
{16}7,,6,,5,,2,1,,1,3,,4,,5,,
{4}1-6[8:1],8-3[8:1],2-5[8:1],7^4[2:1],
{4},,1-5[8:1],1b,
{16}7,,3,4,3,2,3,,6/8,,7,,6/5,,,,
{16}2,,6,5,6,7,6,,3/1,,2,,4/3,,,,
{16}7,,3,4,3,2,3,,7,,6,,8/5,,,,
{16}2,,6,5,6,7,6,,2,,3,,1/4,,,,
{16}2,,6,4,5,7,5,,7-3[8:1],,6,,,,,,
{16}7,,3,5,4,2,4,,2-6[8:1],,3,,,,,,
{16}2,,6,4,5,7,5,,7-3[8:1],,6,,,,,,
{16}1,5,2,6,3,7,4,8,3,7,2,6,1,5,8b,,
{16}2,,1,,8,,3,4,,6,5,,3/2,,4,,
{16}7,,8,,1,,6,5,,3,4,,6/7,,5,,
{16}2,,1,,8,,3,4,,6,5,,2/3,,3/4,,
{16}7,,8,,1,,6,5,,3,4,,7/6,,,,
{8}1-4[8:1],4^1[8:1],,,5-8[8:1],8^5[8:1],,,
{8}4,3,2,1-4[8:1]/5-8[8:1],4^1[8:1]/8^5[8:1],,,,
{16}3,4,,4,5,,5,6,,6,7,,7,8,,8,
{16}1^4[8:1],,4^7[8:1],,,,,,8h[4:1],,,,,,2-5[8:1],1,
{16}2,,,,6,6,,3,4,3,,4/3,,,7-4[8:1],8,
{16}7,,,,3,3,,6,5,6,,6/5,,,2,1,
{16},8/3,,,7,8,,1/6,,,4,5,,3/6,,,
{8}5/4-1[16:9],5,6,7,8-5[16:1],8,,,
{16}3,,6,5,6,,2,1,2,,7,8,7,,3,4,
{16}3,,6,5,6,,3,4,3,,5,,6,,7,,
{4}8b,2b,4b,6b,
{8}1-4[8:1],1-6[8:1],1-5[8:1],1^4[8:1],1^6[8:1],1,1b,,
{16}5,,3,4,3,2,3-7[8:1],,6-1[8:1],,,,,,,,
{16}4,,6,5,6,7,6-2[8:1],,3-8[8:1],,,,,,,,
{16}5,,3,4,3,2,3-8[8:1],,6-3[8:1],,,,,,,,
{16}4,,6,5,6,7,6-2[8:1],,2-6[8:1],,,,,,,,
{16}6,,3,5,4,2,3-8[8:1],,7-4[8:1],,,,,,,,
{16}3,,6,4,5,7,6-1[8:1],,2-5[8:1],,,,,,,,
{16}6,,2,5,4,2,3,,3,,4,,5,,6,,
{4}7/8,6/5,3/4,2/1,
{8}7b/8^3[5000:781],2^5[5000:781],,,1^6[5000:781],7^4[5000:781],,,
{8}8^3[5000:781],2^5[5000:781],4^7[5000:781],,7-3[8:1],,,,
{16}3,4,3,4,2,1,2,,6,,5,,6,,7,,
{4}2-6[8:1],4-8[8:1],5-1[8:1],7b,
{16}6,5,6,5,6-3[8:1],7,6-1[8:1],,6-2[8:1],,,,,,,,
{16}3,4,3,4,3-6[8:1],2,3-8[8:1],,3-7[8:1],,,,,,,,
{16}6,5,6,7,6-3[8:1],5,6-1[8:1],,6-2[8:1],,,,,,,,
{16}3,4,3,2,3,4,3-7[8:1],,7-3[8:1],,,,,,,,
{16}7,8,7,6,7-3[8:1],8,7^2[8:1],,7^4[8:1],,,,,,,,
{16}2,1,2,3,2-6[8:1],1,2^7[8:1],,2^5[8:1],,,,,,,,
{16}7,8,7,6,7,8,7^2[5000:781],,1^4[5000:781],,3^6[5000:781],,,,,,
{4}1-6[8:1],8-3[8:1],2-5[8:1],
{8}7-4[8:1],,,,
E
