&title=全人類ノ非想天則
&artist=SOUND HOLIC feat. 匠眞
&wholebpm=168
&demo_seek=53.7
&demo_len=11.8
&lv_1=3
&lv_2=4
&lv_3=7+
&lv_4=10+
&lv_5=13
&des_4=mai-Star
&des_5=某S氏
&inote_1=(168.0){1},
{4},,,1,
{4},,,1,
{4},,,2,
{4},,,2,
{4},,,1,
{4},,,1,
{4},,,8,{1},
{1}8b,
{1}1,
{1}2,
{1}3,
{1}4,
{1}2,
{1}1,
{1}8,
{1}7h[4:3],
{1}7,
{1}7,
{1}6,
{1}6,
{1}8,
{1}1,
{1}2-7[2:1],,
{1}6h[1:1],,
{1}5h[1:1],,
{1}6,
{1}7,
{1}8,
{1}1,
{1}1b,,,,
{2}8,8,
{2}7,7,
{1}6-3[2:1],,
{2}3,3,
{2}4,4,
{1}5-8[2:1],,
{2}1,1,
{2}2,2,
{1}3-6[2:1],,
{2}6,6,
{2}5,5,
{1}4-1[2:1],,
{4}8,8,,,
{4}7,7,,,
{2}8,1,
{2}2,3,
{4}4,4,,,
{4}5,5,,,
{2}4,3,
{2}2,1,
{1}8-4[2:1],,
{4}2,2,,,
{4}3,3,,,
{1}1-5[2:1],,
{4}7,7,,,
{4}6,6,,,
{1}8h[1:2],,,,
{1}1,
{1}1,
{1}2,
{1}2h[1:2],,,
{4},8b,
E
&inote_2=(168.0){1},
{2}1,1,
{1}2h[2:1],
{2}3,3,
{1}4h[2:1],
{2}5,5,
{1}6h[2:1],
{2}7,7,
{1}8h[2:1],
{1}1h[2:1],
{2}8,8,
{2}7,7,
{4}6,6,6,,
{2}6/5,6/5,
{2}4,4,
{2}3,3,
{4}2,2,2,,
{1}1h[2:1]/2h[2:1],
{2}1,1,
{2}2,2,
{4}3,3,3,,
{2}4/3,4/3,
{2}5,5,
{2}6,6,
{4}7,7,
{2}7-2[4:3],{1},
{2}1,8,
{2}7,6,
{4}5,5,
{2}5-1[4:3],{1},
{1}2h[8:3],
{1}1h[8:3],
{1}8h[8:3],
{1}7h[8:3],
{1}1h[2:3]/8h[2:3],,
{4}7,7,8,8,
{1}1b,
{4}2,2,,,
{4}2,2,,,
{2}2,1,
{2}8,7,
{4}7,7,,,
{4}7,7,,,
{2}7,8,
{4}1,1,1,,
{1}2-6[4:3],,
{2}7,8,
{4}1,1,1,,
{1}8-5[4:3],,
{1}1h[2:1],
{2}8/1,8/1,
{4}2,2,1b,,
{4}2,2,1b,,
{2}3,4,
{2}5,6,
{4}7,7,8b,,
{4}7,
{833}7,,,,,,,,,,,,,,,,,,,,,,,,,,,,,,,,,,,,,,,,,,,,,,,,,,,,,,,,,,,,,,,,,,,,,,,,,,,,,,,,,,,,,,,,,,,,,,,,,,,,,,,,,,,,,,,,,,,,,,,,,,,,,,,,,,,,,,,,,,,,,,,,,,,,,,,,,,,,,,,,,,,,,,,,,,,,,,,,,,,,,,,,,,,,,,,,,,,,,,,,,,,,,,,,,
{555}8b,,,,,,,,,,,,,,,,,,,,,,,,,,,,,,,,,,,,,,,,,,,,,,,,,,,,,,,,,,,,,,,,,,,,,,,,,,,,,,,,,,,,,,,,,,,,,,,,,,,,,,,,,,,,,,,,,,,,,,,,,,,,,,,,,,,,,,,,,,,,,,,,,,,,,,,,,,,,,,,,,,,,,,,,,,,,,,,,,,,,,,,,,,,,,,,,,,,,,,,,,,,,,,,,,,,,,,,,,,,,,,,,,,,,,,,,,,,,,,,,,,,,,,,,,,,,,,,,,,,,,,,,,,,,,,,,,,,,,
{2}6,5,
{4}4,4,3,,
{4}2,2h[8:3],,,
{4}2,2h[8:3],,,
{2}3,4,
{4}5,5,6,,
{4}7,7h[8:3],,,
{4}7,7h[8:3],,,
{2}8,1,
{2}8/1,1/8,
{1}1h[2:3]/8h[2:3],,
{1}7h[2:3]/2h[2:3],,
{2}1,2,
{2}3,4,
{2}5,6,
{4}7,7,7,,
{4}8,8,8,,
{1}1-5[4:3],,
E
&inote_3=(168.0){1},2h[4:3],
{1}2h[4:3],
{1}7h[4:3],
{1}7h[4:3],
{1}1-5[8:3],
{1}8-4[8:3],
{1}1-4[8:3]/8-5[8:3],
{1}2h[4:3]/7h[4:3],
{1}8h[4:3]/1h[4:3],
{2}8,7,
{2}6,5,
{2}4,3,
{4}2,2,2,,
{2}1,2,
{2}3,4,
{2}5,6,
{4}7,7,7,7b,
{2}8,8/7,
{2}2,2/1,
{2}4,4/5,
{4}6,6,6/5,,
{2}1,1/8,
{2}3,4/3,
{2}5,6/5,
{4}7,7,8b/1b,,
{2}2h[2:1],4,
{2}7h[2:1],5,
{2}3h[2:1],4,
{2}6h[2:1],5,
{1}1-5[8:3],
{1}8-4[8:3],
{1}4-1[8:3]/5-8[8:3],
{8}8/1,,,1/8,,,
{4}1^4[8:5]/8^5[8:5],{1},
{1}4h[2:1]/5h[2:1],
{1}3h[2:1]/6h[2:1],
{2}2/7,1b/8b,
{8}2h[8:3],,,3,,3,,,
{8}7h[8:3],,,6,,6,,,
{4}2,1,8,7,
{4}6,5,4,3,
{8}1h[8:3],,,8,,8,,,
{8}8h[8:3],,,1,,1,,,
{4}3,4,5,6,
{4}7,8,1,2,
{8}8h[8:3],,,2,,2,,,
{8}1h[8:3],,,7,,7,,,
{4}6,6,3,3,
{4}5,5,4,4,
{8}7h[8:3],,,1,,1b,,,
{8}2h[8:3],,,8,,8b,,,
{1}7b/2b,
{16},,8/1,,8/1,,,,2/7,,,7/2,,,1/8,,
{1}1h[1:1]/8h[1:1],,
{4}4,6,2,8,
{4}1/8,7/2,3/6,5/4,
{8}2h[8:3],,,3,,4b,,,
{8}7h[8:3],,,6,,5b,,,
{4}1,7,3,5,
{4}4/5,3/6,2/7,8/1,
{8}1h[8:3],,,8b,,7b,,,
{8}8h[8:3],,,1b,,2b,,,
{4}4,3,2,1,
{4}5/1,6/2,3/7,4/8,
{8}2h[8:3],,,3b,,3b/2b,,,
{8}7h[8:3],,,6b,,7b/6b,,,
{1}3/7,
{16},,1/8,,1/8,,,,7/2,,,7/2,,,1/8,,
{1}1h[2:3]/8h[2:3],
{4},,,1^4[4:3]/8^5[4:3],{1},,
{4}1,1,3,3,
{4}5,5,7,7,
{4}8,8,6,6,
{4}4,4,2,2,
{4}1/8,7/2,3/6,4/5,
{8},,,,,,,1h[8:3]/8h[8:3],,,,
E
&inote_4=(168.0){1},
{4}1,8,2-6[4:1],,
{4}8,7,6,5,
{4}4,5,3-8[4:1],,
{4}7,6,5,4b,
{4}7,8,6-1[4:1],,
{4}2,3,4,5,
{4}6,5,7-4[4:1],,
{4}3,2,1,8,
{4}7,6,5,8b/1b,
{4}1,3/4,1,5/6,
{4}3,6/8,5,1/3,
{4}2h[4:3],1,8,7,
{8},1b,1b,
{500}1b,,,,,,,,,,,,,,,,,,,,,,,,,,,,,,,,,,,,,,,,,,,,,,,,,,,,,,,,,,,,,,,,,,,,,,,,,,,,,,,,,,,,,,,,,,,,,,,,,,,,,,,,,,,,,,,,,,,,,,,,,,,,,,,,,,,,,,,,,,,,,,,,,,,,,,,,,,,,,,,,,,,,,,,,,,,,,,,,,,,,,,,,,,,
{1000}4h[1000:251],,,,,,,,,,,,,,,,,,,,,,,,,,,,,,,,,,,,,,,,,,,,,,,,,,,,,,,,,,,,,,,,,,,,,,,,,,,,,,,,,,,,,,,,,,,,,,,,,,,,,,,,,,,,,,,,,,,,,,,,,,,,,,,,,,,,,,,,,,,,,,,,,,,,,,,,,,,,,,,,,,,,,,,,,,,,,,,,,,,,,,,,,,,,,,,,,,,,,,,,,,,,,,,,,,,,,,,,,,,,,,,,,,,,,,,,,,,,,,,,,,,,,,,,,,,
{4}8^5[4:1],,3,5,
{4}7,1h[2:1],,8,
{16}6,,,,4,,,,2,,,2,,,2h[8:5]/8-4[8:3],,
{8},,,,,,,5b,
{4}5b,2,3/4,5,
{4}6/7,8,1/2,3,
{4}1-4[4:1],5-8[4:1],,1,
{8},8b,8b,8b,,,6,,
{4}7^2[4:1],,,3,
{4}4,5,6,1,
{8}1h[2:1],,,,5h[8:3],,,4,
{813},,,,,,,,,,,,,,,,,,,,,,,,,,,,,,,,,,,,,,,,,,,,,,,,,,4-1[2000:627]/5-8[2000:627],,,,,,,,,,,,,,,,,,,,,,,,,,,,,,,,,,,,,,,,,,,,,,,,,,,,,,,,,,,,,,,,,,,,,,,,,,,,,,,,,,,,,,,,,,,,,,,,,,,,,,,,,,,,,,,,,,,,,,,,,,,,,,,,,,,,,,,,,,,,,,,,,,,,,,,,,,,,,,,,,,,,,,,,,,,,,,,,,,,,,,,,,,,,,,,,,,,,,,,,,,,,,,,,,,,,,,,,,,,,,,,,,,,,,,,,,,,,,,,,,,,,,,,,,,,,,,,,,,,,,,,,,,,,,,,,,,,,,,,,,,,,,,,,,,,,,,,,,,,,,,,,,,,,,,,,,,,,,,,,,,,,,,,,,,,,,,,,,,,,,,,,,,,,,,,,,,,,,,,,,,,,,,,,,,,,,,,,,,,,,,,,,,,,,,,,,,,,,,,,,,,,,,,,,,,,,,,,,,,,,,,,,,,,,,,,,,,,,,,,,,,,,,,,,,,,,,,,,,,,,,,,,,,,,,,,,,,,,,,,,,,,,,,,,,,,,,,,,,,,,,,,,,,,,,,,,,,,,,,,,,,,,,,,,,,,,,,,,,,,,,,,,,,,,,,,,,,,,,,,,,,,,,,,,,,,,,,,,,,,,,,,,,,,,,,,,,,,,,,,,,,,,,,,,,,,,,,,,,,,,,,,,,,,,,,,,,,,,,,,,,,,,,,,,,,,,,,,,,,,,,,,,,,,,,,,,,,,,,,,,,,,,,,,,,,,,,,,,,,,,,,,,,,,,,,,,,,,,,,,,,,,,,,,,,,,,,,,,,,,,,,,,,,,,,,,,,,,,,,,,,,
{8}4/5,,,4/5,6/3,,8b/1b,,
{8}3/6,,,3/6,2/7,,8b/1b,,
{1}1-4[8:3]/5-8[8:3],
{1}4^1[8:3]/8^5[8:3],
{16}6b/7b,,,6b/5b,,,4b/5b,,,,2,,1,,,,
{16}2b/1b,,,2b/3b,,,4b/3b,,,,4,,5,,,,
{16}5b/4b,,,4b/3b,,,3b/2b,,,,1,,8,,,,
{8}1/5,,,2/6,,,3^8[4:3]/7^4[4:3],,
{1}3/7,
{1}3b/6b,
{1}2b/7b,
{4}8b/1b,1-5[8:1]/8-4[8:1],,,
{8}8/1,,6/3,2b,,7b,,5,
{8}4,,4/5,2b,,
{995}7b,,,,,,,,,,,,,,,,,,,,,,,,,,,,,,,,,,,,,,,,,,,,,,,,,,,,,,,,,,,,,,,,,,,,,,,,,,,,,,,,,,,,,,,,,,,,,,,,,,,,,,,,,,,,,,,,,,,,,,,,,,,,,,,,,,,,,,,,,,,,,,,,,,,,,,,,,,,,,,,,,,,,,,,,,,,,,,,,,,,,,,,,,,,,,,,,,,,,,,,,,,,,,,,,,,,,,,,,,,,,,,,,,,,,,,,,,,,,,,,,,,,,,,,,,,,,,,,,,,,,,,,,,,,,,,,,,,,,,,,,,,,,,,,,,,,,,,,,,,,,,,,,,,,,,,,,,,,,,,,,,,,,,,,,,,,,,,,,,,,,,,,,,,,,,,,,,,,,,,,,,,,,,,,,,,,,,
{8}1h[1253:470],,
{8}3,3h[4:1],,8h[4:1],,6,
{8}1,1,8,7,8,1,,8/1,
{8}1h[8:3],,6,6b,,8b,,,
{8}8h[8:3],,3,3b,,1b,,,
{8}
{833}5h[833:208],,,,,,,,,,,,,,,,,,,,,,,,,,,,,,,,,,,,,,,,,,,,,,,,,,,,,,,,,,,,,,,,,,,,,,,,,,,,,,,,,,,,,,,,,,,,,,,,,,,,,,,,,,,,,,,,,,,,,,,,,,,,,,,,,,,,,,,,,,,,,,,,,,,,,,,,,,,,,,,,,,,,,,,,,,,,,,,,,,,,,,,,,,,,,,,,,,,,,,,,,,,,,,,,
{8}4,6h[4:1],,3,,7,
{8}8,1,2,3h[8:3],,,,,
{8}3h[4:1],,7,2b,,2b,,,
{8}5h[4:1],,1,7b,,7b,,,
{8}1/3,,7,8/6,,3/5,,6/4,
{8}8,8,7,8,1,2,,1,
{8}2-5[8:1],,,6-1[8:1],,,,,
{8}7-4[8:1],,,3-8[8:1],,,,,
{8}5,,3,4,,2/7,,1/8,
{16},,1/5,,5/1,,,,2/6,,,7/3,,,4/8,,
{8}7h[8:5],,,8b,,1b,,,
{8}2h[8:5],,,1b,,8b,,,
{8}8h[8:3],,7,7,,1h[4:1],,2,
{8}4,3,4,3,6,5,,8,
{8}1-5[8:1],,,8-4[8:1],,,,,
{8}3-7[8:1],,,
{515}2-6[8:1],,,,,,,,,,,,,,,,,,,,,,,,,,,,,,,,,,,,,,,,,,,,,,,,,,,,,,,,,,,,,,,,,,,,,,,,,,,,,,,,,,,,,,,,,,,,,,,,,,,,,,,,,,,,,,,,,,,,,,,,,,,,,,,,,,,,,,,,,,,,,,,,,,,,,,,,,,,,,,,,,,,,,,,,,,,,,,,,,,,,,,,,,,,,,,,,,,,,,,,,,,,,,,,,,,,,,,,,,,,,,,,,,,,,,,,,,,,,,,,,,,,,,,,,,,,,,,,,,,,,,,,,,,,,,,,,,,,,,,,,,,,,,,,,,,,,,,,,,,,,,,,,,,,,,,,,,,,,,,,,,
{588}4h[147:37],
{8},,5,3h[4:1],,6,,2,
{8}1,8,7,6h[8:3],,,,,
{8}7^4[1000:123],,,8^3[8:1],,,,,
{8}2^5[8:1],,,1^6[8:1],,,,,
{8}6/8,,3,4/2,,6/3,,7,
{8}8,1,2,1,8,7,,8,
{8}7^4[8:1],,,1^6[8:1],,,,,
{8}2^5[8:1],,,8^3[8:1],,,,,
{8}4,,6,5,,2/7,,1/8,
{16},,4b/8b,,4b/8b,,,,7b/3b,,,6b/2b,,,1b/5-1[8:11],,
{1}5h[2:3],
{4},,,1-6[1:1]/8-3[1:1],{1},,
{16},,8,,1,,8,,8/1,,,8/1,,,8/1,,
{8}2,1,8,7h[4:1],,8,1,2,
{16},,5,,4,,5,,5/4,,,4/5,,,4/5,,
{8}3,4,3,4,,6,5,,
{8}3,4,,7,8,7,8,1b,
{8},,,,,,,8/1,
{8},1/8,2b/7b,
E
&inote_5=(168.0){1},
{16},,2,1,2,1,2,,5,,,6,,,1^6[8:1],,
{8}6^3[8:1],,,8h[4:1],,3,2,1,
{16},,8,7,8,7,8,,4,,,3,,,8^3[8:1],,
{8}3^6[8:1],,,1h[4:1],,7,6,5,
{16},,5,6,5,6,5,,1,,,2,,,3^8[8:1],,
{8}8^5[8:1],,,2h[4:1],,4,5,6,
{16},,3,4,3,4,3,,7,,,8,,,2-5[8:1],,
{8}2,,7-4[8:1],7,,1-6[8:1],1,,
{8}8-3[8:1],8,,1,5,6,7,8,
{8}1h[4:1],,2,1h[4:1],,8,8,,
{8}7h[4:1],,8,7h[4:1],,6,6,,
{8}5h[4:1],,6,5h[4:1],,4,4,3,
{8},2b,1b,8b,,7,8,1,
{8}2h[4:1],,1,6h[4:1],,5,5,,
{8}8h[4:1],,7,4h[4:1],,3,3,,
{16}2,,7,,3,,8,,4h[16:3],,,3h[16:3],,,2,,
{8},5,5,5,6,5,,2,
{8}1-5[8:1],,7,7h[4:1],,5,5/6,,
{8}8-4[8:1],,2,2h[4:1],,4,4/3,,
{8}3-7[8:1],,5,5h[4:1],,7,7,1,
{8},2b/1b,1b/8b,7b/8b,,6,5,4,
{8}3^8[8:1],,7,7^4[8:1],,3,3,,
{8}6^1[8:1],,2,2^5[8:1],,6,6,,
{8}5,4,3,2,1/8,2/7,,3/6,
{16},4-1[8:1]/5-8[8:1],,4/5,,,,,,,,,1^6[4:3],,,,
{8}1h[2:1],,,,,,1,1,
{16}5/1b,,,8b/4,,,3/7b,,,,2,,3,,4,,
{16}1/5,,6/2,,7/3,,8/4,,1h[16:3],,,3h[16:3],,,4h[2:1],,
{8},6b,7b,8b,,,3,4,
{16}5/6,,,5,6,,4-8[8:1]/7-3[8:1],,,,,,,,,,
{16}4/3,,,3,4,,2-6[8:1]/5-1[8:1],,,,,,,,,,
{16}8/1,,,1,8,,2-6[8:1]/7-3[8:1],,,,,,,,,,
{8}5-1[8:1],,,4-8[8:1],,,1,,
{8}6h[4:7]/8h[4:1],,,4h[4:1],,,7h[4:1],,
{8},2h[4:1],,,5b,,8b,,
{8}1h[8:1],2h[8:1],3h[8:1],4h[8:1],5h[8:1],6h[8:1],7h[8:1],8,
{16}2b/1b,,4b/5b,,,,8b/7b,,,,4,,3,,2-6[8:1],1,
{16}2,,,,,,8b,,,,8b,,,,7-3[8:1],8,
{16}7,,,,,,1b,,,,1b,,,,2,8,
{8}2h[8:3],,4,4h[4:1],,5h[4:1],,7,
{16}5,,4,,3,,2,,1,,8,,,,7-4[8:1],8,
{16}7,,,,,,1b,,,,1b,,,,2-5[8:1],1,
{16}2,,,,,,8b,,,,8b,,,,7,1,
{8}7h[8:3],,5,5h[4:1],,4h[4:1],,2,
{16}4,,3,4,3,,5,2,5,,1,6,1,,7-3[8:1],8,
{16}7,,,,,,5/2b,,,,3/6b,,,,2-6[8:1],1,
{16}2,,,,,,7b/4,,,,3b/6,,,,6,5,
{16}6,,,,3,4,3,,,,7,8,7,,,,
{16}7/5,,8/6,,1/7,,2/8,,3/1,,4/2,,,,3,4,
{16}3-8[8:1],,,,2,,1,,,,4/6,,,,6,5,
{16}6-1[8:1],,,,7,,8,,,,3/5,,,,7,8,
{16}7,,,,3,4,3,,,,2h[4:1],,,,6,,
{16},,1/5,,2/6,,,,4/8,,,2/6,,,1-6[8:1]/2-5[8:1],,
{8}1/2,,,8b,,8b,,7-4[8:1]/8-3[8:1],
{16}8/7,,,,,,1b,,,,1b,,,,2,4,
{16}2,,,,4,6,4,,,,6,8,6,,,,
{8}7h[8:5],8,1,2,3,4,,6-3[8:1]/8-3[8:1],
{8}8/6,,,1b,,1b,,1-6[8:1]/3-6[8:1],
{16}3/1,,,,,,8b,,,,8b,,,,7,5,
{16}7,,,,5,3,5,,,,3,1,3,,,,
{16}6,,5,6,5,,7,4,7,,3,8,3,,1-5[8:1],2,
{16}1,,,,,,6/2b,,,,8b/4,,,,8-4[8:1],7,
{16}8,,,,,,7b/3,,,,5/1b,,,,7,1,
{16}8,,,,2,4,3,,,,6,4,5,,,,
{16}2h[8:5],,1,,8,,7,,6,,5,,,,2/1,3/8,
{16}7h[4:1]/4h[4:1],,,,,,8b,,,,8b,,,,8/7,6/1,
{16}5h[4:1]/2h[4:1],,,,,,1b,,,,1b,,,,1,3,
{16}5,,,,8,6,4,,,,2/7,3/6,4/5,,2b/7b,,
{16},,4/8,,5/7,,,,6/2,,,1/5,,,4/8,,
{1}2-5[4:5]/6-1[4:5],
{4},,,4-7[4:7]/8-3[4:7],{1},,
{16},,1,7,8,7,1,,2,,,3,,,7,,
{8}7-3[8:1],3-6[8:1],,1h[4:1],,5,6,7,
{16},,8,2,1,2,8,,7,,,6,,,3-8[8:1],,
{8}4/3,,6-1[8:1],5/6,,4-8[8:1],4/2,,
{8}5-1[8:1],7/5,,3,1/2,8/3,7/8,1/6,
{16}2-6[8:1],2,2,,,,7-3[8:1],7,7,,,,,,6b/2b,,
{8},3b/7b,1b/5b,
E
